  0
SECTION
  2
HEADER
  9
$ACADVER
  1
AC1015
  9
$DWGCODEPAGE
  3
ANSI_1252
  9
$EXTMAX
 10
210.0
 20
297.0
 30
0.0
  9
$EXTMIN
 10
0.0
 20
0.0
 30
0.0
  9
$LIMMIN
 10
0.0
 20
0.0
  9
$LIMMAX
 10
210.0
 20
297.0
  9
$VIEWCTR
 10
105.0
 20
148.5
  9
$VIEWSIZE
 40
297.0
  9
$CLAYER
  8
0
  9
$LTSCALE
 40
19.36
  9
$CELTYPE
  6
BYLAYER
  9
$DIMSCALE
 40
1.0
  9
$DIMASZ
 40
2.0
  9
$DIMEXO
 40
2.2
  9
$DIMDLI
 40
13.376
  9
$DIMEXE
 40
6.336
  9
$DIMCEN
 40
3.168
  9
$DIMLFAC
 40
1.0
  9
$DIMBLK
  1
_FILLED
  9
$DIMTXT
 40
2.0
  9
$DIMTOL
 70
1
  9
$DIMLIM
 70
0
  9
$DIMTFAC
 40
1.0
  9
$DIMTP
 40
0.01
  9
$DIMTM
 40
0.01
  9
$PDMODE
 70
3
  9
$PDSIZE
 40
0.1
  9
$HANDSEED
  5
465
  9
$MEASUREMENT
 70
1
  9
$INSUNITS
 70
4
  0
ENDSEC
  0
SECTION
  2
CLASSES
  0
CLASS
  1
ACDBDICTIONARYWDFLT
  2
AcDbDictionaryWithDefault
  3
AutoCAD 2000
 90
0
280
0
281
0
  0
CLASS
  1
ACDBPLACEHOLDER
  2
AcDbPlaceHolder
  3
AutoCAD 2000
 90
0
280
0
281
0
  0
CLASS
  1
LAYOUT
  2
AcDbLayout
  3
AutoCAD 2000
 90
0
280
0
281
0
  0
ENDSEC
  0
SECTION
  2
TABLES
  0
TABLE
  2
VPORT
  5
8
100
AcDbSymbolTable
 70
2
  0
VPORT
  5
1F4
100
AcDbSymbolTableRecord
100
AcDbViewportTableRecord
  2
*ACTIVE
 70
0
 10
0.0
 20
0.0
 11
1.0
 21
1.0
 12
105.0
 22
148.5
 13
0.0
 23
0.0
 14
1.0
 24
1.0
 15
0.0
 25
0.0
 16
0.0
 26
0.0
 36
1.0
 17
0.0
 27
0.0
 37
0.0
 40
297.0
 41
0.7070707071
 42
50.0
 43
0.0
 44
0.0
 50
0.0
 51
0.0
 71
0
 72
100
 73
1
 74
1
 75
0
 76
0
 77
0
 78
0
  0
ENDTAB
  0
TABLE
  2
LTYPE
  5
5
100
AcDbSymbolTable
 70
6
  0
LTYPE
  5
14
100
AcDbSymbolTableRecord
100
AcDbLinetypeTableRecord
  2
BYBLOCK
 70
0
  3

 72
65
 73
0
 40
0.0
  0
LTYPE
  5
15
100
AcDbSymbolTableRecord
100
AcDbLinetypeTableRecord
  2
BYLAYER
 70
0
  3

 72
65
 73
0
 40
0.0
  0
LTYPE
  5
16
100
AcDbSymbolTableRecord
100
AcDbLinetypeTableRecord
  2
CONTINUOUS
 70
64
  3
Solid line
 72
65
 73
0
 40
0.0
  0
LTYPE
  5
1F5
100
AcDbSymbolTableRecord
100
AcDbLinetypeTableRecord
  2
CENTER
 70
64
  3
____ _ ____ _ ____ _ ____ _ ____ _ ____ _ ____
 72
65
 73
4
 40
0.6
 49
0.375
 74
0
 49
-0.075
 74
0
 49
0.075
 74
0
 49
-0.075
 74
0
  0
LTYPE
  5
1F6
100
AcDbSymbolTableRecord
100
AcDbLinetypeTableRecord
  2
HIDDEN
 70
64
  3
- - - - - - - - - - - - - - - - - - - -
 72
65
 73
2
 40
0.2
 49
0.1
 74
0
 49
-0.1
 74
0
  0
LTYPE
  5
1F7
100
AcDbSymbolTableRecord
100
AcDbLinetypeTableRecord
  2
PHANTOM
 70
64
  3
_____ _ _ _____ _ _ _____ _ _ _____
 72
65
 73
6
 40
0.8
 49
0.45
 74
0
 49
-0.05
 74
0
 49
0.1
 74
0
 49
-0.05
 74
0
 49
0.1
 74
0
 49
-0.05
 74
0
  0
LTYPE
  5
1F8
100
AcDbSymbolTableRecord
100
AcDbLinetypeTableRecord
  2
DOT
 70
64
  3
. . . . . . . . . . . . . . . . . . . .
 72
65
 73
2
 40
0.2
 49
0.1
 74
0
 49
-0.1
 74
0
  0
LTYPE
  5
1F9
100
AcDbSymbolTableRecord
100
AcDbLinetypeTableRecord
  2
DASHED
 70
64
  3
- - - - - - - - - - - - - - - - - - - -
 72
65
 73
2
 40
0.2
 49
0.1
 74
0
 49
-0.1
 74
0
  0
ENDTAB
  0
TABLE
  2
LAYER
  5
2
100
AcDbSymbolTable
 70
36
  0
LAYER
  5
10
100
AcDbSymbolTableRecord
100
AcDbLayerTableRecord
  2
0
 70
0
 62
7
  6
CONTINUOUS
370
-3
390
F
  0
LAYER
  5
1FA
100
AcDbSymbolTableRecord
100
AcDbLayerTableRecord
  2
DEFAULT_1
 70
0
 62
7
  6
CENTER
370
-3
390
F
  0
LAYER
  5
1FB
100
AcDbSymbolTableRecord
100
AcDbLayerTableRecord
  2
DEFAULT_2
 70
0
 62
8
  6
HIDDEN
370
-3
390
F
  0
LAYER
  5
1FC
100
AcDbSymbolTableRecord
100
AcDbLayerTableRecord
  2
DEFAULT_3
 70
0
 62
7
  6
PHANTOM
370
-3
390
F
  0
LAYER
  5
1FD
100
AcDbSymbolTableRecord
100
AcDbLayerTableRecord
  2
_2D_DELETED_OBJS
 70
0
 62
7
  6
CONTINUOUS
370
-3
390
F
  0
LAYER
  5
1FE
100
AcDbSymbolTableRecord
100
AcDbLayerTableRecord
  2
CSYS
 70
0
 62
7
  6
CONTINUOUS
370
-3
390
F
  0
LAYER
  5
1FF
100
AcDbSymbolTableRecord
100
AcDbLayerTableRecord
  2
NOGEOM
 70
0
 62
7
  6
CONTINUOUS
370
-3
390
F
  0
ENDTAB
  0
TABLE
  2
STYLE
  5
3
100
AcDbSymbolTable
 70
1
  0
STYLE
  5
11
100
AcDbSymbolTableRecord
100
AcDbTextStyleTableRecord
  2
STANDARD
 70
0
 40
0.0
 41
1.0
 50
0.0
 71
0
 42
0.2
  3
ARIAL.TTF
  4

  0
STYLE
  5
200
100
AcDbSymbolTableRecord
100
AcDbTextStyleTableRecord
  2
TEXTSTYLE_1
 70
0
 40
0.0
 41
1.0
 50
0.0
 71
0
 42
0.2
  3
ARIAL.TTF
  4

  0
ENDTAB
  0
TABLE
  2
VIEW
  5
6
100
AcDbSymbolTable
 70
0
  0
ENDTAB
  0
TABLE
  2
UCS
  5
7
100
AcDbSymbolTable
 70
0
  0
ENDTAB
  0
TABLE
  2
APPID
  5
9
100
AcDbSymbolTable
 70
1
  0
APPID
  5
201
100
AcDbSymbolTableRecord
100
AcDbRegAppTableRecord
  2
ACAD
 70
0
  0
ENDTAB
  0
TABLE
  2
BLOCK_RECORD
  5
1
100
AcDbSymbolTable
 70
0
  0
BLOCK_RECORD
  5
1F
100
AcDbSymbolTableRecord
100
AcDbBlockTableRecord
  2
*MODEL_SPACE
  0
BLOCK_RECORD
  5
1B
100
AcDbSymbolTableRecord
100
AcDbBlockTableRecord
  2
*PAPER_SPACE
  0
BLOCK_RECORD
  5
202
100
AcDbSymbolTableRecord
100
AcDbBlockTableRecord
  2
_FILLED
  0
BLOCK_RECORD
  5
203
100
AcDbSymbolTableRecord
100
AcDbBlockTableRecord
  2
ENSTO_BL0
  0
BLOCK_RECORD
  5
204
100
AcDbSymbolTableRecord
100
AcDbBlockTableRecord
  2
*D0
  0
BLOCK_RECORD
  5
205
100
AcDbSymbolTableRecord
100
AcDbBlockTableRecord
  2
*D1
  0
BLOCK_RECORD
  5
206
100
AcDbSymbolTableRecord
100
AcDbBlockTableRecord
  2
*D2
  0
BLOCK_RECORD
  5
207
100
AcDbSymbolTableRecord
100
AcDbBlockTableRecord
  2
*D3
  0
BLOCK_RECORD
  5
208
100
AcDbSymbolTableRecord
100
AcDbBlockTableRecord
  2
*D4
  0
BLOCK_RECORD
  5
209
100
AcDbSymbolTableRecord
100
AcDbBlockTableRecord
  2
*D5
  0
BLOCK_RECORD
  5
20A
100
AcDbSymbolTableRecord
100
AcDbBlockTableRecord
  2
*D6
  0
BLOCK_RECORD
  5
20B
100
AcDbSymbolTableRecord
100
AcDbBlockTableRecord
  2
*D7
  0
ENDTAB
  0
TABLE
  2
DIMSTYLE
  5
A
100
AcDbSymbolTable
 70
1
100
AcDbDimStyleTable
 71
0
  0
DIMSTYLE
105
20C
100
AcDbSymbolTableRecord
100
AcDbDimStyleTableRecord
  2
STANDARD
 70
0
  3

  4

 40
1.0
 41
2.0
 42
0.0625
 43
0.38
 44
0.18
 45
0.0
 46
0.0
 47
0.01
 48
0.01
140
2.0
141
0.09
142
0.0
143
25.4
144
1.0
145
0.0
146
1.0
147
0.09
 71
1.0
 72
0.0
 73
0
 74
0
 75
0
 76
0
 77
1
 78
8
170
0
171
2
172
0
173
0
174
0
175
0
176
0
177
0
178
0
270
2
271
2
272
2
273
2
274
2
275
0
280
0
281
0
282
0
283
1
284
8
285
0
286
0
287
3
288
0
340
11
341
202
342
202
343
202
344
202
  0
DIMSTYLE
105
20D
100
AcDbSymbolTableRecord
100
AcDbDimStyleTableRecord
  2
DIMSTYLE_1
 70
0
  3

  4

 40
1.0
 41
2.0
 42
0.0625
 43
0.38
 44
0.18
 45
0.0
 46
0.0
 47
0.3
 48
0.3
140
2.0
141
0.09
142
0.0
143
25.4
144
1.0
145
0.0
146
1.0
147
0.09
 71
0.0
 72
0.0
 73
0
 74
0
 75
0
 76
0
 77
1
 78
8
170
0
171
2
172
0
173
0
174
0
175
0
176
0
177
0
178
0
270
2
271
1
272
1
273
2
274
2
275
0
280
0
281
0
282
0
283
1
284
8
285
0
286
0
287
3
288
0
340
11
341
202
342
202
343
202
344
202
  0
DIMSTYLE
105
20E
100
AcDbSymbolTableRecord
100
AcDbDimStyleTableRecord
  2
DIMSTYLE_2
 70
0
  3

  4

 40
1.0
 41
2.0
 42
0.0625
 43
0.38
 44
0.18
 45
0.0
 46
0.0
 47
0.1
 48
0.1
140
2.0
141
0.09
142
0.0
143
25.4
144
1.0
145
0.0
146
1.0
147
0.09
 71
0.0
 72
0.0
 73
0
 74
0
 75
0
 76
0
 77
1
 78
8
170
0
171
2
172
0
173
0
174
0
175
0
176
0
177
0
178
0
270
2
271
1
272
1
273
2
274
2
275
0
280
0
281
0
282
0
283
1
284
8
285
0
286
0
287
3
288
0
340
11
341
202
342
202
343
202
344
202
  0
DIMSTYLE
105
20F
100
AcDbSymbolTableRecord
100
AcDbDimStyleTableRecord
  2
DIMSTYLE_3
 70
0
  3

  4

 40
1.0
 41
2.0
 42
0.0625
 43
0.38
 44
0.18
 45
0.0
 46
0.0
 47
0.1
 48
0.1
140
2.0
141
0.09
142
0.0
143
25.4
144
1.0
145
0.0
146
1.0
147
0.09
 71
0.0
 72
0.0
 73
0
 74
0
 75
0
 76
0
 77
1
 78
8
170
0
171
2
172
0
173
0
174
0
175
0
176
0
177
0
178
0
270
2
271
1
272
1
273
2
274
2
275
0
280
0
281
0
282
0
283
1
284
8
285
0
286
0
287
3
288
0
340
11
341
202
342
202
343
202
344
202
  0
ENDTAB
  0
ENDSEC
  0
SECTION
  2
BLOCKS
  0
BLOCK
  5
20
100
AcDbEntity
  8
0
100
AcDbBlockBegin
  2
*MODEL_SPACE
 70
0
 10
0.0
 20
0.0
 30
0.0
  3
*MODEL_SPACE
  1

  0
ENDBLK
  5
21
100
AcDbEntity
  8
0
100
AcDbBlockEnd
  0
BLOCK
  5
1C
100
AcDbEntity
  8
0
100
AcDbBlockBegin
  2
*PAPER_SPACE
 70
0
 10
0.0
 20
0.0
 30
0.0
  3
*PAPER_SPACE
  1

  0
ENDBLK
  5
1D
100
AcDbEntity
  8
0
100
AcDbBlockEnd
  0
BLOCK
  5
210
100
AcDbEntity
  8
0
100
AcDbBlockBegin
 62
2
  6
CONTINUOUS
  2
ENSTO_BL0
 70
64
 10
49.3918275707
 20
37.5779233823
  3
ENSTO_BL0
  1

  0
LINE
  5
211
100
AcDbEntity
  8
0
100
AcDbLine
 62
7
  6
CONTINUOUS
 10
50.6818276453
 20
34.1219231823
 11
50.0338276078
 21
34.1459231837
  0
LINE
  5
212
100
AcDbEntity
  8
0
100
AcDbLine
 62
7
  6
CONTINUOUS
 10
50.0338276078
 20
34.1459231837
 11
49.397827571
 21
34.2179231879
  0
LINE
  5
213
100
AcDbEntity
  8
0
100
AcDbLine
 62
7
  6
CONTINUOUS
 10
49.397827571
 20
34.2179231879
 11
48.8218275377
 21
34.3139231934
  0
LINE
  5
214
100
AcDbEntity
  8
0
100
AcDbLine
 62
7
  6
CONTINUOUS
 10
48.8218275377
 20
34.3139231934
 11
48.3058275078
 21
34.4339232004
  0
LINE
  5
215
100
AcDbEntity
  8
0
100
AcDbLine
 62
7
  6
CONTINUOUS
 10
48.3058275078
 20
34.4339232004
 11
47.8618274821
 21
34.5539232073
  0
LINE
  5
216
100
AcDbEntity
  8
0
100
AcDbLine
 62
7
  6
CONTINUOUS
 10
47.8618274821
 20
34.5539232073
 11
47.5018274613
 21
34.6739232142
  0
LINE
  5
217
100
AcDbEntity
  8
0
100
AcDbLine
 62
7
  6
CONTINUOUS
 10
47.5018274613
 20
34.6739232142
 11
47.1178274391
 21
34.8059232219
  0
LINE
  5
218
100
AcDbEntity
  8
0
100
AcDbLine
 62
7
  6
CONTINUOUS
 10
47.1178274391
 20
34.8059232219
 11
47.7058274731
 21
36.1499232997
  0
LINE
  5
219
100
AcDbEntity
  8
0
100
AcDbLine
 62
7
  6
CONTINUOUS
 10
47.7058274731
 20
36.1499232997
 11
48.1978275016
 21
35.9819232899
  0
LINE
  5
21A
100
AcDbEntity
  8
0
100
AcDbLine
 62
7
  6
CONTINUOUS
 10
48.1978275016
 20
35.9819232899
 11
48.9298275439
 21
35.7659232774
  0
LINE
  5
21B
100
AcDbEntity
  8
0
100
AcDbLine
 62
7
  6
CONTINUOUS
 10
48.9298275439
 20
35.7659232774
 11
49.3498275682
 21
35.6699232719
  0
LINE
  5
21C
100
AcDbEntity
  8
0
100
AcDbLine
 62
7
  6
CONTINUOUS
 10
49.3498275682
 20
35.6699232719
 11
49.7938275939
 21
35.585923267
  0
LINE
  5
21D
100
AcDbEntity
  8
0
100
AcDbLine
 62
7
  6
CONTINUOUS
 10
49.7938275939
 20
35.585923267
 11
50.2378276196
 21
35.5259232635
  0
LINE
  5
21E
100
AcDbEntity
  8
0
100
AcDbLine
 62
7
  6
CONTINUOUS
 10
50.2378276196
 20
35.5259232635
 11
50.6698276446
 21
35.5019232622
  0
LINE
  5
21F
100
AcDbEntity
  8
0
100
AcDbLine
 62
7
  6
CONTINUOUS
 10
50.6698276446
 20
35.5019232622
 11
51.0298276654
 21
35.5139232629
  0
LINE
  5
220
100
AcDbEntity
  8
0
100
AcDbLine
 62
7
  6
CONTINUOUS
 10
51.0298276654
 20
35.5139232629
 11
51.2458276779
 21
35.5499232649
  0
LINE
  5
221
100
AcDbEntity
  8
0
100
AcDbLine
 62
7
  6
CONTINUOUS
 10
51.2458276779
 20
35.5499232649
 11
51.4738276911
 21
35.5979232677
  0
LINE
  5
222
100
AcDbEntity
  8
0
100
AcDbLine
 62
7
  6
CONTINUOUS
 10
51.4738276911
 20
35.5979232677
 11
51.6778277029
 21
35.6819232726
  0
LINE
  5
223
100
AcDbEntity
  8
0
100
AcDbLine
 62
7
  6
CONTINUOUS
 10
51.6778277029
 20
35.6819232726
 11
51.8458277127
 21
35.8019232795
  0
LINE
  5
224
100
AcDbEntity
  8
0
100
AcDbLine
 62
7
  6
CONTINUOUS
 10
51.8458277127
 20
35.8019232795
 11
51.9058277161
 21
35.8739232837
  0
LINE
  5
225
100
AcDbEntity
  8
0
100
AcDbLine
 62
7
  6
CONTINUOUS
 10
51.9058277161
 20
35.8739232837
 11
51.9538277189
 21
35.9579232885
  0
LINE
  5
226
100
AcDbEntity
  8
0
100
AcDbLine
 62
7
  6
CONTINUOUS
 10
51.9538277189
 20
35.9579232885
 11
51.989827721
 21
36.0539232941
  0
LINE
  5
227
100
AcDbEntity
  8
0
100
AcDbLine
 62
7
  6
CONTINUOUS
 10
51.989827721
 20
36.0539232941
 11
52.0018277217
 21
36.1499232997
  0
LINE
  5
228
100
AcDbEntity
  8
0
100
AcDbLine
 62
7
  6
CONTINUOUS
 10
52.0018277217
 20
36.1499232997
 11
51.9778277203
 21
36.2579233059
  0
LINE
  5
229
100
AcDbEntity
  8
0
100
AcDbLine
 62
7
  6
CONTINUOUS
 10
51.9778277203
 20
36.2579233059
 11
51.9418277182
 21
36.3539233115
  0
LINE
  5
22A
100
AcDbEntity
  8
0
100
AcDbLine
 62
7
  6
CONTINUOUS
 10
51.9418277182
 20
36.3539233115
 11
51.8818277148
 21
36.4379233163
  0
LINE
  5
22B
100
AcDbEntity
  8
0
100
AcDbLine
 62
7
  6
CONTINUOUS
 10
51.8818277148
 20
36.4379233163
 11
51.7858277092
 21
36.4979233198
  0
LINE
  5
22C
100
AcDbEntity
  8
0
100
AcDbLine
 62
7
  6
CONTINUOUS
 10
51.7858277092
 20
36.4979233198
 11
51.6778277029
 21
36.569923324
  0
LINE
  5
22D
100
AcDbEntity
  8
0
100
AcDbLine
 62
7
  6
CONTINUOUS
 10
51.6778277029
 20
36.569923324
 11
51.557827696
 21
36.6179233267
  0
LINE
  5
22E
100
AcDbEntity
  8
0
100
AcDbLine
 62
7
  6
CONTINUOUS
 10
51.557827696
 20
36.6179233267
 11
51.2458276779
 21
36.7019233316
  0
LINE
  5
22F
100
AcDbEntity
  8
0
100
AcDbLine
 62
7
  6
CONTINUOUS
 10
51.2458276779
 20
36.7019233316
 11
50.8858276571
 21
36.7739233358
  0
LINE
  5
230
100
AcDbEntity
  8
0
100
AcDbLine
 62
7
  6
CONTINUOUS
 10
50.8858276571
 20
36.7739233358
 11
50.4898276342
 21
36.8219233385
  0
LINE
  5
231
100
AcDbEntity
  8
0
100
AcDbLine
 62
7
  6
CONTINUOUS
 10
50.4898276342
 20
36.8219233385
 11
49.6138275835
 21
36.9419233455
  0
LINE
  5
232
100
AcDbEntity
  8
0
100
AcDbLine
 62
7
  6
CONTINUOUS
 10
49.6138275835
 20
36.9419233455
 11
49.1698275578
 21
37.0139233497
  0
LINE
  5
233
100
AcDbEntity
  8
0
100
AcDbLine
 62
7
  6
CONTINUOUS
 10
49.1698275578
 20
37.0139233497
 11
48.7378275328
 21
37.1219233559
  0
LINE
  5
234
100
AcDbEntity
  8
0
100
AcDbLine
 62
7
  6
CONTINUOUS
 10
48.7378275328
 20
37.1219233559
 11
48.3298275092
 21
37.2539233635
  0
LINE
  5
235
100
AcDbEntity
  8
0
100
AcDbLine
 62
7
  6
CONTINUOUS
 10
48.3298275092
 20
37.2539233635
 11
48.1498274988
 21
37.3379233684
  0
LINE
  5
236
100
AcDbEntity
  8
0
100
AcDbLine
 62
7
  6
CONTINUOUS
 10
48.1498274988
 20
37.3379233684
 11
47.9698274884
 21
37.433923374
  0
LINE
  5
237
100
AcDbEntity
  8
0
100
AcDbLine
 62
7
  6
CONTINUOUS
 10
47.9698274884
 20
37.433923374
 11
47.8138274793
 21
37.5419233802
  0
LINE
  5
238
100
AcDbEntity
  8
0
100
AcDbLine
 62
7
  6
CONTINUOUS
 10
47.8138274793
 20
37.5419233802
 11
47.669827471
 21
37.6619233872
  0
LINE
  5
239
100
AcDbEntity
  8
0
100
AcDbLine
 62
7
  6
CONTINUOUS
 10
47.669827471
 20
37.6619233872
 11
47.5378274634
 21
37.8059233955
  0
LINE
  5
23A
100
AcDbEntity
  8
0
100
AcDbLine
 62
7
  6
CONTINUOUS
 10
47.5378274634
 20
37.8059233955
 11
47.4298274571
 21
37.9499234038
  0
LINE
  5
23B
100
AcDbEntity
  8
0
100
AcDbLine
 62
7
  6
CONTINUOUS
 10
47.4298274571
 20
37.9499234038
 11
47.3458274523
 21
38.1299234142
  0
LINE
  5
23C
100
AcDbEntity
  8
0
100
AcDbLine
 62
7
  6
CONTINUOUS
 10
47.3458274523
 20
38.1299234142
 11
47.2858274488
 21
38.3099234247
  0
LINE
  5
23D
100
AcDbEntity
  8
0
100
AcDbLine
 62
7
  6
CONTINUOUS
 10
47.2858274488
 20
38.3099234247
 11
47.2498274467
 21
38.5259234372
  0
LINE
  5
23E
100
AcDbEntity
  8
0
100
AcDbLine
 62
7
  6
CONTINUOUS
 10
47.2498274467
 20
38.5259234372
 11
47.2258274453
 21
38.7539234504
  0
LINE
  5
23F
100
AcDbEntity
  8
0
100
AcDbLine
 62
7
  6
CONTINUOUS
 10
47.2258274453
 20
38.7539234504
 11
47.237827446
 21
38.9339234608
  0
LINE
  5
240
100
AcDbEntity
  8
0
100
AcDbLine
 62
7
  6
CONTINUOUS
 10
47.237827446
 20
38.9339234608
 11
47.2738274481
 21
39.1259234719
  0
LINE
  5
241
100
AcDbEntity
  8
0
100
AcDbLine
 62
7
  6
CONTINUOUS
 10
47.2738274481
 20
39.1259234719
 11
47.3218274509
 21
39.317923483
  0
LINE
  5
242
100
AcDbEntity
  8
0
100
AcDbLine
 62
7
  6
CONTINUOUS
 10
47.3218274509
 20
39.317923483
 11
47.4058274557
 21
39.5099234941
  0
LINE
  5
243
100
AcDbEntity
  8
0
100
AcDbLine
 62
7
  6
CONTINUOUS
 10
47.4058274557
 20
39.5099234941
 11
47.5018274613
 21
39.7019235052
  0
LINE
  5
244
100
AcDbEntity
  8
0
100
AcDbLine
 62
7
  6
CONTINUOUS
 10
47.5018274613
 20
39.7019235052
 11
47.6218274682
 21
39.8939235163
  0
LINE
  5
245
100
AcDbEntity
  8
0
100
AcDbLine
 62
7
  6
CONTINUOUS
 10
47.6218274682
 20
39.8939235163
 11
47.7778274773
 21
40.0739235267
  0
LINE
  5
246
100
AcDbEntity
  8
0
100
AcDbLine
 62
7
  6
CONTINUOUS
 10
47.7778274773
 20
40.0739235267
 11
47.9578274877
 21
40.2539235372
  0
LINE
  5
247
100
AcDbEntity
  8
0
100
AcDbLine
 62
7
  6
CONTINUOUS
 10
47.9578274877
 20
40.2539235372
 11
48.1618274995
 21
40.4219235469
  0
LINE
  5
248
100
AcDbEntity
  8
0
100
AcDbLine
 62
7
  6
CONTINUOUS
 10
48.1618274995
 20
40.4219235469
 11
48.4018275134
 21
40.5659235552
  0
LINE
  5
249
100
AcDbEntity
  8
0
100
AcDbLine
 62
7
  6
CONTINUOUS
 10
48.4018275134
 20
40.5659235552
 11
48.6658275286
 21
40.6979235629
  0
LINE
  5
24A
100
AcDbEntity
  8
0
100
AcDbLine
 62
7
  6
CONTINUOUS
 10
48.6658275286
 20
40.6979235629
 11
48.9538275453
 21
40.8179235698
  0
LINE
  5
24B
100
AcDbEntity
  8
0
100
AcDbLine
 62
7
  6
CONTINUOUS
 10
48.9538275453
 20
40.8179235698
 11
49.2898275648
 21
40.9019235747
  0
LINE
  5
24C
100
AcDbEntity
  8
0
100
AcDbLine
 62
7
  6
CONTINUOUS
 10
49.2898275648
 20
40.9019235747
 11
49.6498275856
 21
40.9739235788
  0
LINE
  5
24D
100
AcDbEntity
  8
0
100
AcDbLine
 62
7
  6
CONTINUOUS
 10
49.6498275856
 20
40.9739235788
 11
50.0338276078
 21
41.0219235816
  0
LINE
  5
24E
100
AcDbEntity
  8
0
100
AcDbLine
 62
7
  6
CONTINUOUS
 10
50.0338276078
 20
41.0219235816
 11
50.4658276328
 21
41.0339235823
  0
LINE
  5
24F
100
AcDbEntity
  8
0
100
AcDbLine
 62
7
  6
CONTINUOUS
 10
50.4658276328
 20
41.0339235823
 11
51.0538276668
 21
41.0099235809
  0
LINE
  5
250
100
AcDbEntity
  8
0
100
AcDbLine
 62
7
  6
CONTINUOUS
 10
51.0538276668
 20
41.0099235809
 11
51.6178276995
 21
40.9379235767
  0
LINE
  5
251
100
AcDbEntity
  8
0
100
AcDbLine
 62
7
  6
CONTINUOUS
 10
51.6178276995
 20
40.9379235767
 11
52.14582773
 21
40.8539235719
  0
LINE
  5
252
100
AcDbEntity
  8
0
100
AcDbLine
 62
7
  6
CONTINUOUS
 10
52.14582773
 20
40.8539235719
 11
52.6138277571
 21
40.7459235656
  0
LINE
  5
253
100
AcDbEntity
  8
0
100
AcDbLine
 62
7
  6
CONTINUOUS
 10
52.6138277571
 20
40.7459235656
 11
53.3338277988
 21
40.5299235531
  0
LINE
  5
254
100
AcDbEntity
  8
0
100
AcDbLine
 62
7
  6
CONTINUOUS
 10
53.3338277988
 20
40.5299235531
 11
53.6458278168
 21
40.4219235469
  0
LINE
  5
255
100
AcDbEntity
  8
0
100
AcDbLine
 62
7
  6
CONTINUOUS
 10
53.6458278168
 20
40.4219235469
 11
53.0818277842
 21
39.1259234719
  0
LINE
  5
256
100
AcDbEntity
  8
0
100
AcDbLine
 62
7
  6
CONTINUOUS
 10
53.0818277842
 20
39.1259234719
 11
52.8658277717
 21
39.2099234767
  0
LINE
  5
257
100
AcDbEntity
  8
0
100
AcDbLine
 62
7
  6
CONTINUOUS
 10
52.8658277717
 20
39.2099234767
 11
52.3018277391
 21
39.3899234872
  0
LINE
  5
258
100
AcDbEntity
  8
0
100
AcDbLine
 62
7
  6
CONTINUOUS
 10
52.3018277391
 20
39.3899234872
 11
51.9418277182
 21
39.4859234927
  0
LINE
  5
259
100
AcDbEntity
  8
0
100
AcDbLine
 62
7
  6
CONTINUOUS
 10
51.9418277182
 20
39.4859234927
 11
51.557827696
 21
39.5699234976
  0
LINE
  5
25A
100
AcDbEntity
  8
0
100
AcDbLine
 62
7
  6
CONTINUOUS
 10
51.557827696
 20
39.5699234976
 11
51.1618276731
 21
39.629923501
  0
LINE
  5
25B
100
AcDbEntity
  8
0
100
AcDbLine
 62
7
  6
CONTINUOUS
 10
51.1618276731
 20
39.629923501
 11
50.7898276516
 21
39.6539235024
  0
LINE
  5
25C
100
AcDbEntity
  8
0
100
AcDbLine
 62
7
  6
CONTINUOUS
 10
50.7898276516
 20
39.6539235024
 11
50.3698276273
 21
39.6419235017
  0
LINE
  5
25D
100
AcDbEntity
  8
0
100
AcDbLine
 62
7
  6
CONTINUOUS
 10
50.3698276273
 20
39.6419235017
 11
50.105827612
 21
39.6179235004
  0
LINE
  5
25E
100
AcDbEntity
  8
0
100
AcDbLine
 62
7
  6
CONTINUOUS
 10
50.105827612
 20
39.6179235004
 11
49.8178275953
 21
39.5699234976
  0
LINE
  5
25F
100
AcDbEntity
  8
0
100
AcDbLine
 62
7
  6
CONTINUOUS
 10
49.8178275953
 20
39.5699234976
 11
49.55382758
 21
39.4979234934
  0
LINE
  5
260
100
AcDbEntity
  8
0
100
AcDbLine
 62
7
  6
CONTINUOUS
 10
49.55382758
 20
39.4979234934
 11
49.4338275731
 21
39.4379234899
  0
LINE
  5
261
100
AcDbEntity
  8
0
100
AcDbLine
 62
7
  6
CONTINUOUS
 10
49.4338275731
 20
39.4379234899
 11
49.3378275675
 21
39.3779234865
  0
LINE
  5
262
100
AcDbEntity
  8
0
100
AcDbLine
 62
7
  6
CONTINUOUS
 10
49.3378275675
 20
39.3779234865
 11
49.241827562
 21
39.2939234816
  0
LINE
  5
263
100
AcDbEntity
  8
0
100
AcDbLine
 62
7
  6
CONTINUOUS
 10
49.241827562
 20
39.2939234816
 11
49.1818275585
 21
39.2099234767
  0
LINE
  5
264
100
AcDbEntity
  8
0
100
AcDbLine
 62
7
  6
CONTINUOUS
 10
49.1818275585
 20
39.2099234767
 11
49.1338275557
 21
39.1019234705
  0
LINE
  5
265
100
AcDbEntity
  8
0
100
AcDbLine
 62
7
  6
CONTINUOUS
 10
49.1338275557
 20
39.1019234705
 11
49.121827555
 21
38.9819234635
  0
LINE
  5
266
100
AcDbEntity
  8
0
100
AcDbLine
 62
7
  6
CONTINUOUS
 10
49.121827555
 20
38.9819234635
 11
49.1338275557
 21
38.885923458
  0
LINE
  5
267
100
AcDbEntity
  8
0
100
AcDbLine
 62
7
  6
CONTINUOUS
 10
49.1338275557
 20
38.885923458
 11
49.1818275585
 21
38.8019234531
  0
LINE
  5
268
100
AcDbEntity
  8
0
100
AcDbLine
 62
7
  6
CONTINUOUS
 10
49.1818275585
 20
38.8019234531
 11
49.241827562
 21
38.729923449
  0
LINE
  5
269
100
AcDbEntity
  8
0
100
AcDbLine
 62
7
  6
CONTINUOUS
 10
49.241827562
 20
38.729923449
 11
49.3258275668
 21
38.6699234455
  0
LINE
  5
26A
100
AcDbEntity
  8
0
100
AcDbLine
 62
7
  6
CONTINUOUS
 10
49.3258275668
 20
38.6699234455
 11
49.5658275807
 21
38.5619234392
  0
LINE
  5
26B
100
AcDbEntity
  8
0
100
AcDbLine
 62
7
  6
CONTINUOUS
 10
49.5658275807
 20
38.5619234392
 11
49.8658275981
 21
38.4899234351
  0
LINE
  5
26C
100
AcDbEntity
  8
0
100
AcDbLine
 62
7
  6
CONTINUOUS
 10
49.8658275981
 20
38.4899234351
 11
50.2258276189
 21
38.4299234316
  0
LINE
  5
26D
100
AcDbEntity
  8
0
100
AcDbLine
 62
7
  6
CONTINUOUS
 10
50.2258276189
 20
38.4299234316
 11
50.6338276425
 21
38.3819234288
  0
LINE
  5
26E
100
AcDbEntity
  8
0
100
AcDbLine
 62
7
  6
CONTINUOUS
 10
50.6338276425
 20
38.3819234288
 11
51.5098276932
 21
38.2619234219
  0
LINE
  5
26F
100
AcDbEntity
  8
0
100
AcDbLine
 62
7
  6
CONTINUOUS
 10
51.5098276932
 20
38.2619234219
 11
51.9538277189
 21
38.177923417
  0
LINE
  5
270
100
AcDbEntity
  8
0
100
AcDbLine
 62
7
  6
CONTINUOUS
 10
51.9538277189
 20
38.177923417
 11
52.3858277439
 21
38.0699234108
  0
LINE
  5
271
100
AcDbEntity
  8
0
100
AcDbLine
 62
7
  6
CONTINUOUS
 10
52.3858277439
 20
38.0699234108
 11
52.7818277668
 21
37.9259234024
  0
LINE
  5
272
100
AcDbEntity
  8
0
100
AcDbLine
 62
7
  6
CONTINUOUS
 10
52.7818277668
 20
37.9259234024
 11
52.9738277779
 21
37.8299233969
  0
LINE
  5
273
100
AcDbEntity
  8
0
100
AcDbLine
 62
7
  6
CONTINUOUS
 10
52.9738277779
 20
37.8299233969
 11
53.1418277877
 21
37.7339233913
  0
LINE
  5
274
100
AcDbEntity
  8
0
100
AcDbLine
 62
7
  6
CONTINUOUS
 10
53.1418277877
 20
37.7339233913
 11
53.3098277974
 21
37.6259233851
  0
LINE
  5
275
100
AcDbEntity
  8
0
100
AcDbLine
 62
7
  6
CONTINUOUS
 10
53.3098277974
 20
37.6259233851
 11
53.4538278057
 21
37.4939233774
  0
LINE
  5
276
100
AcDbEntity
  8
0
100
AcDbLine
 62
7
  6
CONTINUOUS
 10
53.4538278057
 20
37.4939233774
 11
53.5738278127
 21
37.3499233691
  0
LINE
  5
277
100
AcDbEntity
  8
0
100
AcDbLine
 62
7
  6
CONTINUOUS
 10
53.5738278127
 20
37.3499233691
 11
53.6818278189
 21
37.1819233594
  0
LINE
  5
278
100
AcDbEntity
  8
0
100
AcDbLine
 62
7
  6
CONTINUOUS
 10
53.6818278189
 20
37.1819233594
 11
53.7778278245
 21
37.001923349
  0
LINE
  5
279
100
AcDbEntity
  8
0
100
AcDbLine
 62
7
  6
CONTINUOUS
 10
53.7778278245
 20
37.001923349
 11
53.8378278279
 21
36.8099233379
  0
LINE
  5
27A
100
AcDbEntity
  8
0
100
AcDbLine
 62
7
  6
CONTINUOUS
 10
53.8378278279
 20
36.8099233379
 11
53.87382783
 21
36.5939233254
  0
LINE
  5
27B
100
AcDbEntity
  8
0
100
AcDbLine
 62
7
  6
CONTINUOUS
 10
53.87382783
 20
36.5939233254
 11
53.8858278307
 21
36.3539233115
  0
LINE
  5
27C
100
AcDbEntity
  8
0
100
AcDbLine
 62
7
  6
CONTINUOUS
 10
53.8858278307
 20
36.3539233115
 11
53.87382783
 21
36.1259232983
  0
LINE
  5
27D
100
AcDbEntity
  8
0
100
AcDbLine
 62
7
  6
CONTINUOUS
 10
53.87382783
 20
36.1259232983
 11
53.8498278286
 21
35.9099232858
  0
LINE
  5
27E
100
AcDbEntity
  8
0
100
AcDbLine
 62
7
  6
CONTINUOUS
 10
53.8498278286
 20
35.9099232858
 11
53.7898278252
 21
35.705923274
  0
LINE
  5
27F
100
AcDbEntity
  8
0
100
AcDbLine
 62
7
  6
CONTINUOUS
 10
53.7898278252
 20
35.705923274
 11
53.7058278203
 21
35.5019232622
  0
LINE
  5
280
100
AcDbEntity
  8
0
100
AcDbLine
 62
7
  6
CONTINUOUS
 10
53.7058278203
 20
35.5019232622
 11
53.5978278141
 21
35.309923251
  0
LINE
  5
281
100
AcDbEntity
  8
0
100
AcDbLine
 62
7
  6
CONTINUOUS
 10
53.5978278141
 20
35.309923251
 11
53.4658278064
 21
35.1179232399
  0
LINE
  5
282
100
AcDbEntity
  8
0
100
AcDbLine
 62
7
  6
CONTINUOUS
 10
53.4658278064
 20
35.1179232399
 11
53.3098277974
 21
34.9499232302
  0
LINE
  5
283
100
AcDbEntity
  8
0
100
AcDbLine
 62
7
  6
CONTINUOUS
 10
53.3098277974
 20
34.9499232302
 11
53.1178277863
 21
34.7939232212
  0
LINE
  5
284
100
AcDbEntity
  8
0
100
AcDbLine
 62
7
  6
CONTINUOUS
 10
53.1178277863
 20
34.7939232212
 11
52.9138277745
 21
34.6499232129
  0
LINE
  5
285
100
AcDbEntity
  8
0
100
AcDbLine
 62
7
  6
CONTINUOUS
 10
52.9138277745
 20
34.6499232129
 11
52.6738277606
 21
34.5179232052
  0
LINE
  5
286
100
AcDbEntity
  8
0
100
AcDbLine
 62
7
  6
CONTINUOUS
 10
52.6738277606
 20
34.5179232052
 11
52.4098277453
 21
34.3979231983
  0
LINE
  5
287
100
AcDbEntity
  8
0
100
AcDbLine
 62
7
  6
CONTINUOUS
 10
52.4098277453
 20
34.3979231983
 11
52.1218277286
 21
34.3019231927
  0
LINE
  5
288
100
AcDbEntity
  8
0
100
AcDbLine
 62
7
  6
CONTINUOUS
 10
52.1218277286
 20
34.3019231927
 11
51.8098277106
 21
34.2299231885
  0
LINE
  5
289
100
AcDbEntity
  8
0
100
AcDbLine
 62
7
  6
CONTINUOUS
 10
51.8098277106
 20
34.2299231885
 11
51.4618276904
 21
34.1699231851
  0
LINE
  5
28A
100
AcDbEntity
  8
0
100
AcDbLine
 62
7
  6
CONTINUOUS
 10
51.4618276904
 20
34.1699231851
 11
51.0898276689
 21
34.133923183
  0
LINE
  5
28B
100
AcDbEntity
  8
0
100
AcDbLine
 62
7
  6
CONTINUOUS
 10
51.0898276689
 20
34.133923183
 11
50.6818276453
 21
34.1219231823
  0
LINE
  5
28C
100
AcDbEntity
  8
0
100
AcDbLine
 62
7
  6
CONTINUOUS
 10
45.6538273543
 20
40.5659235552
 11
45.6538273543
 21
41.0219235816
  0
LINE
  5
28D
100
AcDbEntity
  8
0
100
AcDbLine
 62
7
  6
CONTINUOUS
 10
45.6538273543
 20
41.0219235816
 11
43.8778272516
 21
41.0219235816
  0
LINE
  5
28E
100
AcDbEntity
  8
0
100
AcDbLine
 62
7
  6
CONTINUOUS
 10
43.8778272516
 20
41.0219235816
 11
43.8778272516
 21
40.5659235552
  0
LINE
  5
28F
100
AcDbEntity
  8
0
100
AcDbLine
 62
7
  6
CONTINUOUS
 10
43.8778272516
 20
40.5659235552
 11
43.8778272516
 21
37.5059233781
  0
LINE
  5
290
100
AcDbEntity
  8
0
100
AcDbLine
 62
7
  6
CONTINUOUS
 10
43.8778272516
 20
37.5059233781
 11
40.7698270717
 21
41.0219235816
  0
LINE
  5
291
100
AcDbEntity
  8
0
100
AcDbLine
 62
7
  6
CONTINUOUS
 10
40.7698270717
 20
41.0219235816
 11
38.3938269342
 21
41.0219235816
  0
LINE
  5
292
100
AcDbEntity
  8
0
100
AcDbLine
 62
7
  6
CONTINUOUS
 10
38.3938269342
 20
41.0219235816
 11
38.3938269342
 21
40.5659235552
  0
LINE
  5
293
100
AcDbEntity
  8
0
100
AcDbLine
 62
7
  6
CONTINUOUS
 10
38.3938269342
 20
40.5659235552
 11
38.3938269342
 21
34.6619232135
  0
LINE
  5
294
100
AcDbEntity
  8
0
100
AcDbLine
 62
7
  6
CONTINUOUS
 10
38.3938269342
 20
34.6619232135
 11
38.3938269342
 21
34.1939231865
  0
LINE
  5
295
100
AcDbEntity
  8
0
100
AcDbLine
 62
7
  6
CONTINUOUS
 10
38.3938269342
 20
34.1939231865
 11
40.169827037
 21
34.1939231865
  0
LINE
  5
296
100
AcDbEntity
  8
0
100
AcDbLine
 62
7
  6
CONTINUOUS
 10
40.169827037
 20
34.1939231865
 11
40.169827037
 21
34.6619232135
  0
LINE
  5
297
100
AcDbEntity
  8
0
100
AcDbLine
 62
7
  6
CONTINUOUS
 10
40.169827037
 20
34.6619232135
 11
40.169827037
 21
38.729923449
  0
LINE
  5
298
100
AcDbEntity
  8
0
100
AcDbLine
 62
7
  6
CONTINUOUS
 10
40.169827037
 20
38.729923449
 11
40.1938270384
 21
38.7539234504
  0
LINE
  5
299
100
AcDbEntity
  8
0
100
AcDbLine
 62
7
  6
CONTINUOUS
 10
40.1938270384
 20
38.7539234504
 11
44.2618272738
 21
34.1939231865
  0
LINE
  5
29A
100
AcDbEntity
  8
0
100
AcDbLine
 62
7
  6
CONTINUOUS
 10
44.2618272738
 20
34.1939231865
 11
45.6538273543
 21
34.1939231865
  0
LINE
  5
29B
100
AcDbEntity
  8
0
100
AcDbLine
 62
7
  6
CONTINUOUS
 10
45.6538273543
 20
34.1939231865
 11
45.6538273543
 21
34.6619232135
  0
LINE
  5
29C
100
AcDbEntity
  8
0
100
AcDbLine
 62
7
  6
CONTINUOUS
 10
45.6538273543
 20
34.6619232135
 11
45.6538273543
 21
40.5659235552
  0
LINE
  5
29D
100
AcDbEntity
  8
0
100
AcDbLine
 62
7
  6
CONTINUOUS
 10
65.381828496
 20
41.0339235823
 11
65.0338284759
 21
41.0219235816
  0
LINE
  5
29E
100
AcDbEntity
  8
0
100
AcDbLine
 62
7
  6
CONTINUOUS
 10
65.0338284759
 20
41.0219235816
 11
64.6978284564
 21
40.9859235795
  0
LINE
  5
29F
100
AcDbEntity
  8
0
100
AcDbLine
 62
7
  6
CONTINUOUS
 10
64.6978284564
 20
40.9859235795
 11
64.3498284363
 21
40.925923576
  0
LINE
  5
2A0
100
AcDbEntity
  8
0
100
AcDbLine
 62
7
  6
CONTINUOUS
 10
64.3498284363
 20
40.925923576
 11
64.0018284161
 21
40.8299235705
  0
LINE
  5
2A1
100
AcDbEntity
  8
0
100
AcDbLine
 62
7
  6
CONTINUOUS
 10
64.0018284161
 20
40.8299235705
 11
63.6778283974
 21
40.7219235642
  0
LINE
  5
2A2
100
AcDbEntity
  8
0
100
AcDbLine
 62
7
  6
CONTINUOUS
 10
63.6778283974
 20
40.7219235642
 11
63.3538283786
 21
40.5779235559
  0
LINE
  5
2A3
100
AcDbEntity
  8
0
100
AcDbLine
 62
7
  6
CONTINUOUS
 10
63.3538283786
 20
40.5779235559
 11
63.0418283606
 21
40.4099235462
  0
LINE
  5
2A4
100
AcDbEntity
  8
0
100
AcDbLine
 62
7
  6
CONTINUOUS
 10
63.0418283606
 20
40.4099235462
 11
62.7538283439
 21
40.2179235351
  0
LINE
  5
2A5
100
AcDbEntity
  8
0
100
AcDbLine
 62
7
  6
CONTINUOUS
 10
62.7538283439
 20
40.2179235351
 11
62.4898283286
 21
39.9899235219
  0
LINE
  5
2A6
100
AcDbEntity
  8
0
100
AcDbLine
 62
7
  6
CONTINUOUS
 10
62.4898283286
 20
39.9899235219
 11
62.2378283141
 21
39.7379235073
  0
LINE
  5
2A7
100
AcDbEntity
  8
0
100
AcDbLine
 62
7
  6
CONTINUOUS
 10
62.2378283141
 20
39.7379235073
 11
62.0218283016
 21
39.4499234906
  0
LINE
  5
2A8
100
AcDbEntity
  8
0
100
AcDbLine
 62
7
  6
CONTINUOUS
 10
62.0218283016
 20
39.4499234906
 11
61.8418282911
 21
39.1379234726
  0
LINE
  5
2A9
100
AcDbEntity
  8
0
100
AcDbLine
 62
7
  6
CONTINUOUS
 10
61.8418282911
 20
39.1379234726
 11
61.6978282828
 21
38.7899234524
  0
LINE
  5
2AA
100
AcDbEntity
  8
0
100
AcDbLine
 62
7
  6
CONTINUOUS
 10
61.6978282828
 20
38.7899234524
 11
61.5898282766
 21
38.4179234309
  0
LINE
  5
2AB
100
AcDbEntity
  8
0
100
AcDbLine
 62
7
  6
CONTINUOUS
 10
61.5898282766
 20
38.4179234309
 11
61.5178282724
 21
38.0099234073
  0
LINE
  5
2AC
100
AcDbEntity
  8
0
100
AcDbLine
 62
7
  6
CONTINUOUS
 10
61.5178282724
 20
38.0099234073
 11
61.493828271
 21
37.5779233823
  0
LINE
  5
2AD
100
AcDbEntity
  8
0
100
AcDbLine
 62
7
  6
CONTINUOUS
 10
61.493828271
 20
37.5779233823
 11
61.5178282724
 21
37.1339233566
  0
LINE
  5
2AE
100
AcDbEntity
  8
0
100
AcDbLine
 62
7
  6
CONTINUOUS
 10
61.5178282724
 20
37.1339233566
 11
61.5898282766
 21
36.7379233337
  0
LINE
  5
2AF
100
AcDbEntity
  8
0
100
AcDbLine
 62
7
  6
CONTINUOUS
 10
61.5898282766
 20
36.7379233337
 11
61.6978282828
 21
36.3659233122
  0
LINE
  5
2B0
100
AcDbEntity
  8
0
100
AcDbLine
 62
7
  6
CONTINUOUS
 10
61.6978282828
 20
36.3659233122
 11
61.8418282911
 21
36.017923292
  0
LINE
  5
2B1
100
AcDbEntity
  8
0
100
AcDbLine
 62
7
  6
CONTINUOUS
 10
61.8418282911
 20
36.017923292
 11
62.0218283016
 21
35.705923274
  0
LINE
  5
2B2
100
AcDbEntity
  8
0
100
AcDbLine
 62
7
  6
CONTINUOUS
 10
62.0218283016
 20
35.705923274
 11
62.2378283141
 21
35.4179232573
  0
LINE
  5
2B3
100
AcDbEntity
  8
0
100
AcDbLine
 62
7
  6
CONTINUOUS
 10
62.2378283141
 20
35.4179232573
 11
62.4898283286
 21
35.1659232427
  0
LINE
  5
2B4
100
AcDbEntity
  8
0
100
AcDbLine
 62
7
  6
CONTINUOUS
 10
62.4898283286
 20
35.1659232427
 11
62.7538283439
 21
34.9379232295
  0
LINE
  5
2B5
100
AcDbEntity
  8
0
100
AcDbLine
 62
7
  6
CONTINUOUS
 10
62.7538283439
 20
34.9379232295
 11
63.0418283606
 21
34.7459232184
  0
LINE
  5
2B6
100
AcDbEntity
  8
0
100
AcDbLine
 62
7
  6
CONTINUOUS
 10
63.0418283606
 20
34.7459232184
 11
63.3538283786
 21
34.5779232087
  0
LINE
  5
2B7
100
AcDbEntity
  8
0
100
AcDbLine
 62
7
  6
CONTINUOUS
 10
63.3538283786
 20
34.5779232087
 11
63.6778283974
 21
34.4339232004
  0
LINE
  5
2B8
100
AcDbEntity
  8
0
100
AcDbLine
 62
7
  6
CONTINUOUS
 10
63.6778283974
 20
34.4339232004
 11
64.0018284161
 21
34.3139231934
  0
LINE
  5
2B9
100
AcDbEntity
  8
0
100
AcDbLine
 62
7
  6
CONTINUOUS
 10
64.0018284161
 20
34.3139231934
 11
64.3498284363
 21
34.2299231885
  0
LINE
  5
2BA
100
AcDbEntity
  8
0
100
AcDbLine
 62
7
  6
CONTINUOUS
 10
64.3498284363
 20
34.2299231885
 11
64.6978284564
 21
34.1699231851
  0
LINE
  5
2BB
100
AcDbEntity
  8
0
100
AcDbLine
 62
7
  6
CONTINUOUS
 10
64.6978284564
 20
34.1699231851
 11
65.0338284759
 21
34.133923183
  0
LINE
  5
2BC
100
AcDbEntity
  8
0
100
AcDbLine
 62
7
  6
CONTINUOUS
 10
65.0338284759
 20
34.133923183
 11
65.381828496
 21
34.1219231823
  0
LINE
  5
2BD
100
AcDbEntity
  8
0
100
AcDbLine
 62
7
  6
CONTINUOUS
 10
65.381828496
 20
34.1219231823
 11
65.7298285161
 21
34.133923183
  0
LINE
  5
2BE
100
AcDbEntity
  8
0
100
AcDbLine
 62
7
  6
CONTINUOUS
 10
65.7298285161
 20
34.133923183
 11
66.0778285363
 21
34.1699231851
  0
LINE
  5
2BF
100
AcDbEntity
  8
0
100
AcDbLine
 62
7
  6
CONTINUOUS
 10
66.0778285363
 20
34.1699231851
 11
66.4138285557
 21
34.2299231885
  0
LINE
  5
2C0
100
AcDbEntity
  8
0
100
AcDbLine
 62
7
  6
CONTINUOUS
 10
66.4138285557
 20
34.2299231885
 11
66.7618285759
 21
34.3139231934
  0
LINE
  5
2C1
100
AcDbEntity
  8
0
100
AcDbLine
 62
7
  6
CONTINUOUS
 10
66.7618285759
 20
34.3139231934
 11
67.0978285953
 21
34.4339232004
  0
LINE
  5
2C2
100
AcDbEntity
  8
0
100
AcDbLine
 62
7
  6
CONTINUOUS
 10
67.0978285953
 20
34.4339232004
 11
67.4098286134
 21
34.5779232087
  0
LINE
  5
2C3
100
AcDbEntity
  8
0
100
AcDbLine
 62
7
  6
CONTINUOUS
 10
67.4098286134
 20
34.5779232087
 11
67.7218286314
 21
34.7459232184
  0
LINE
  5
2C4
100
AcDbEntity
  8
0
100
AcDbLine
 62
7
  6
CONTINUOUS
 10
67.7218286314
 20
34.7459232184
 11
68.0098286481
 21
34.9379232295
  0
LINE
  5
2C5
100
AcDbEntity
  8
0
100
AcDbLine
 62
7
  6
CONTINUOUS
 10
68.0098286481
 20
34.9379232295
 11
68.2858286641
 21
35.1659232427
  0
LINE
  5
2C6
100
AcDbEntity
  8
0
100
AcDbLine
 62
7
  6
CONTINUOUS
 10
68.2858286641
 20
35.1659232427
 11
68.5258286779
 21
35.4179232573
  0
LINE
  5
2C7
100
AcDbEntity
  8
0
100
AcDbLine
 62
7
  6
CONTINUOUS
 10
68.5258286779
 20
35.4179232573
 11
68.7418286904
 21
35.705923274
  0
LINE
  5
2C8
100
AcDbEntity
  8
0
100
AcDbLine
 62
7
  6
CONTINUOUS
 10
68.7418286904
 20
35.705923274
 11
68.9218287009
 21
36.017923292
  0
LINE
  5
2C9
100
AcDbEntity
  8
0
100
AcDbLine
 62
7
  6
CONTINUOUS
 10
68.9218287009
 20
36.017923292
 11
69.0658287092
 21
36.3659233122
  0
LINE
  5
2CA
100
AcDbEntity
  8
0
100
AcDbLine
 62
7
  6
CONTINUOUS
 10
69.0658287092
 20
36.3659233122
 11
69.1858287161
 21
36.7379233337
  0
LINE
  5
2CB
100
AcDbEntity
  8
0
100
AcDbLine
 62
7
  6
CONTINUOUS
 10
69.1858287161
 20
36.7379233337
 11
69.2458287196
 21
37.1339233566
  0
LINE
  5
2CC
100
AcDbEntity
  8
0
100
AcDbLine
 62
7
  6
CONTINUOUS
 10
69.2458287196
 20
37.1339233566
 11
69.269828721
 21
37.5779233823
  0
LINE
  5
2CD
100
AcDbEntity
  8
0
100
AcDbLine
 62
7
  6
CONTINUOUS
 10
69.269828721
 20
37.5779233823
 11
69.2458287196
 21
38.0099234073
  0
LINE
  5
2CE
100
AcDbEntity
  8
0
100
AcDbLine
 62
7
  6
CONTINUOUS
 10
69.2458287196
 20
38.0099234073
 11
69.1858287161
 21
38.4179234309
  0
LINE
  5
2CF
100
AcDbEntity
  8
0
100
AcDbLine
 62
7
  6
CONTINUOUS
 10
69.1858287161
 20
38.4179234309
 11
69.0658287092
 21
38.7899234524
  0
LINE
  5
2D0
100
AcDbEntity
  8
0
100
AcDbLine
 62
7
  6
CONTINUOUS
 10
69.0658287092
 20
38.7899234524
 11
68.9218287009
 21
39.1379234726
  0
LINE
  5
2D1
100
AcDbEntity
  8
0
100
AcDbLine
 62
7
  6
CONTINUOUS
 10
68.9218287009
 20
39.1379234726
 11
68.7418286904
 21
39.4499234906
  0
LINE
  5
2D2
100
AcDbEntity
  8
0
100
AcDbLine
 62
7
  6
CONTINUOUS
 10
68.7418286904
 20
39.4499234906
 11
68.5258286779
 21
39.7379235073
  0
LINE
  5
2D3
100
AcDbEntity
  8
0
100
AcDbLine
 62
7
  6
CONTINUOUS
 10
68.5258286779
 20
39.7379235073
 11
68.2858286641
 21
39.9899235219
  0
LINE
  5
2D4
100
AcDbEntity
  8
0
100
AcDbLine
 62
7
  6
CONTINUOUS
 10
68.2858286641
 20
39.9899235219
 11
68.0098286481
 21
40.2179235351
  0
LINE
  5
2D5
100
AcDbEntity
  8
0
100
AcDbLine
 62
7
  6
CONTINUOUS
 10
68.0098286481
 20
40.2179235351
 11
67.7218286314
 21
40.4099235462
  0
LINE
  5
2D6
100
AcDbEntity
  8
0
100
AcDbLine
 62
7
  6
CONTINUOUS
 10
67.7218286314
 20
40.4099235462
 11
67.4098286134
 21
40.5779235559
  0
LINE
  5
2D7
100
AcDbEntity
  8
0
100
AcDbLine
 62
7
  6
CONTINUOUS
 10
67.4098286134
 20
40.5779235559
 11
67.0978285953
 21
40.7219235642
  0
LINE
  5
2D8
100
AcDbEntity
  8
0
100
AcDbLine
 62
7
  6
CONTINUOUS
 10
67.0978285953
 20
40.7219235642
 11
66.7618285759
 21
40.8299235705
  0
LINE
  5
2D9
100
AcDbEntity
  8
0
100
AcDbLine
 62
7
  6
CONTINUOUS
 10
66.7618285759
 20
40.8299235705
 11
66.4138285557
 21
40.925923576
  0
LINE
  5
2DA
100
AcDbEntity
  8
0
100
AcDbLine
 62
7
  6
CONTINUOUS
 10
66.4138285557
 20
40.925923576
 11
66.0778285363
 21
40.9859235795
  0
LINE
  5
2DB
100
AcDbEntity
  8
0
100
AcDbLine
 62
7
  6
CONTINUOUS
 10
66.0778285363
 20
40.9859235795
 11
65.7298285161
 21
41.0219235816
  0
LINE
  5
2DC
100
AcDbEntity
  8
0
100
AcDbLine
 62
7
  6
CONTINUOUS
 10
65.7298285161
 20
41.0219235816
 11
65.381828496
 21
41.0339235823
  0
LINE
  5
2DD
100
AcDbEntity
  8
0
100
AcDbLine
 62
7
  6
CONTINUOUS
 10
65.381828496
 20
39.4139234885
 11
65.5858285078
 21
39.4019234879
  0
LINE
  5
2DE
100
AcDbEntity
  8
0
100
AcDbLine
 62
7
  6
CONTINUOUS
 10
65.5858285078
 20
39.4019234879
 11
65.7898285196
 21
39.3779234865
  0
LINE
  5
2DF
100
AcDbEntity
  8
0
100
AcDbLine
 62
7
  6
CONTINUOUS
 10
65.7898285196
 20
39.3779234865
 11
65.9818285307
 21
39.3419234844
  0
LINE
  5
2E0
100
AcDbEntity
  8
0
100
AcDbLine
 62
7
  6
CONTINUOUS
 10
65.9818285307
 20
39.3419234844
 11
66.1618285411
 21
39.2819234809
  0
LINE
  5
2E1
100
AcDbEntity
  8
0
100
AcDbLine
 62
7
  6
CONTINUOUS
 10
66.1618285411
 20
39.2819234809
 11
66.3418285516
 21
39.2099234767
  0
LINE
  5
2E2
100
AcDbEntity
  8
0
100
AcDbLine
 62
7
  6
CONTINUOUS
 10
66.3418285516
 20
39.2099234767
 11
66.4978285606
 21
39.1259234719
  0
LINE
  5
2E3
100
AcDbEntity
  8
0
100
AcDbLine
 62
7
  6
CONTINUOUS
 10
66.4978285606
 20
39.1259234719
 11
66.6538285696
 21
39.0299234663
  0
LINE
  5
2E4
100
AcDbEntity
  8
0
100
AcDbLine
 62
7
  6
CONTINUOUS
 10
66.6538285696
 20
39.0299234663
 11
66.7978285779
 21
38.9219234601
  0
LINE
  5
2E5
100
AcDbEntity
  8
0
100
AcDbLine
 62
7
  6
CONTINUOUS
 10
66.7978285779
 20
38.9219234601
 11
66.9298285856
 21
38.7899234524
  0
LINE
  5
2E6
100
AcDbEntity
  8
0
100
AcDbLine
 62
7
  6
CONTINUOUS
 10
66.9298285856
 20
38.7899234524
 11
67.0378285918
 21
38.6579234448
  0
LINE
  5
2E7
100
AcDbEntity
  8
0
100
AcDbLine
 62
7
  6
CONTINUOUS
 10
67.0378285918
 20
38.6579234448
 11
67.1338285974
 21
38.5019234358
  0
LINE
  5
2E8
100
AcDbEntity
  8
0
100
AcDbLine
 62
7
  6
CONTINUOUS
 10
67.1338285974
 20
38.5019234358
 11
67.2178286023
 21
38.3459234267
  0
LINE
  5
2E9
100
AcDbEntity
  8
0
100
AcDbLine
 62
7
  6
CONTINUOUS
 10
67.2178286023
 20
38.3459234267
 11
67.2898286064
 21
38.1659234163
  0
LINE
  5
2EA
100
AcDbEntity
  8
0
100
AcDbLine
 62
7
  6
CONTINUOUS
 10
67.2898286064
 20
38.1659234163
 11
67.3378286092
 21
37.9859234059
  0
LINE
  5
2EB
100
AcDbEntity
  8
0
100
AcDbLine
 62
7
  6
CONTINUOUS
 10
67.3378286092
 20
37.9859234059
 11
67.3738286113
 21
37.7819233941
  0
LINE
  5
2EC
100
AcDbEntity
  8
0
100
AcDbLine
 62
7
  6
CONTINUOUS
 10
67.3738286113
 20
37.7819233941
 11
67.3738286113
 21
37.5779233823
  0
LINE
  5
2ED
100
AcDbEntity
  8
0
100
AcDbLine
 62
7
  6
CONTINUOUS
 10
67.3738286113
 20
37.5779233823
 11
67.3738286113
 21
37.3739233705
  0
LINE
  5
2EE
100
AcDbEntity
  8
0
100
AcDbLine
 62
7
  6
CONTINUOUS
 10
67.3738286113
 20
37.3739233705
 11
67.3378286092
 21
37.1699233587
  0
LINE
  5
2EF
100
AcDbEntity
  8
0
100
AcDbLine
 62
7
  6
CONTINUOUS
 10
67.3378286092
 20
37.1699233587
 11
67.2898286064
 21
36.9899233483
  0
LINE
  5
2F0
100
AcDbEntity
  8
0
100
AcDbLine
 62
7
  6
CONTINUOUS
 10
67.2898286064
 20
36.9899233483
 11
67.2178286023
 21
36.8099233379
  0
LINE
  5
2F1
100
AcDbEntity
  8
0
100
AcDbLine
 62
7
  6
CONTINUOUS
 10
67.2178286023
 20
36.8099233379
 11
67.1338285974
 21
36.6539233288
  0
LINE
  5
2F2
100
AcDbEntity
  8
0
100
AcDbLine
 62
7
  6
CONTINUOUS
 10
67.1338285974
 20
36.6539233288
 11
67.0378285918
 21
36.4979233198
  0
LINE
  5
2F3
100
AcDbEntity
  8
0
100
AcDbLine
 62
7
  6
CONTINUOUS
 10
67.0378285918
 20
36.4979233198
 11
66.9298285856
 21
36.3539233115
  0
LINE
  5
2F4
100
AcDbEntity
  8
0
100
AcDbLine
 62
7
  6
CONTINUOUS
 10
66.9298285856
 20
36.3539233115
 11
66.7978285779
 21
36.2339233045
  0
LINE
  5
2F5
100
AcDbEntity
  8
0
100
AcDbLine
 62
7
  6
CONTINUOUS
 10
66.7978285779
 20
36.2339233045
 11
66.6538285696
 21
36.1259232983
  0
LINE
  5
2F6
100
AcDbEntity
  8
0
100
AcDbLine
 62
7
  6
CONTINUOUS
 10
66.6538285696
 20
36.1259232983
 11
66.4978285606
 21
36.017923292
  0
LINE
  5
2F7
100
AcDbEntity
  8
0
100
AcDbLine
 62
7
  6
CONTINUOUS
 10
66.4978285606
 20
36.017923292
 11
66.3418285516
 21
35.9339232872
  0
LINE
  5
2F8
100
AcDbEntity
  8
0
100
AcDbLine
 62
7
  6
CONTINUOUS
 10
66.3418285516
 20
35.9339232872
 11
66.1618285411
 21
35.8739232837
  0
LINE
  5
2F9
100
AcDbEntity
  8
0
100
AcDbLine
 62
7
  6
CONTINUOUS
 10
66.1618285411
 20
35.8739232837
 11
65.9818285307
 21
35.8139232802
  0
LINE
  5
2FA
100
AcDbEntity
  8
0
100
AcDbLine
 62
7
  6
CONTINUOUS
 10
65.9818285307
 20
35.8139232802
 11
65.7898285196
 21
35.7779232781
  0
LINE
  5
2FB
100
AcDbEntity
  8
0
100
AcDbLine
 62
7
  6
CONTINUOUS
 10
65.7898285196
 20
35.7779232781
 11
65.5858285078
 21
35.7539232767
  0
LINE
  5
2FC
100
AcDbEntity
  8
0
100
AcDbLine
 62
7
  6
CONTINUOUS
 10
65.5858285078
 20
35.7539232767
 11
65.381828496
 21
35.741923276
  0
LINE
  5
2FD
100
AcDbEntity
  8
0
100
AcDbLine
 62
7
  6
CONTINUOUS
 10
65.381828496
 20
35.741923276
 11
65.1778284842
 21
35.7539232767
  0
LINE
  5
2FE
100
AcDbEntity
  8
0
100
AcDbLine
 62
7
  6
CONTINUOUS
 10
65.1778284842
 20
35.7539232767
 11
64.9738284724
 21
35.7779232781
  0
LINE
  5
2FF
100
AcDbEntity
  8
0
100
AcDbLine
 62
7
  6
CONTINUOUS
 10
64.9738284724
 20
35.7779232781
 11
64.7818284613
 21
35.8139232802
  0
LINE
  5
300
100
AcDbEntity
  8
0
100
AcDbLine
 62
7
  6
CONTINUOUS
 10
64.7818284613
 20
35.8139232802
 11
64.6018284509
 21
35.8739232837
  0
LINE
  5
301
100
AcDbEntity
  8
0
100
AcDbLine
 62
7
  6
CONTINUOUS
 10
64.6018284509
 20
35.8739232837
 11
64.4338284411
 21
35.9339232872
  0
LINE
  5
302
100
AcDbEntity
  8
0
100
AcDbLine
 62
7
  6
CONTINUOUS
 10
64.4338284411
 20
35.9339232872
 11
64.2658284314
 21
36.017923292
  0
LINE
  5
303
100
AcDbEntity
  8
0
100
AcDbLine
 62
7
  6
CONTINUOUS
 10
64.2658284314
 20
36.017923292
 11
64.1098284224
 21
36.1259232983
  0
LINE
  5
304
100
AcDbEntity
  8
0
100
AcDbLine
 62
7
  6
CONTINUOUS
 10
64.1098284224
 20
36.1259232983
 11
63.9658284141
 21
36.2339233045
  0
LINE
  5
305
100
AcDbEntity
  8
0
100
AcDbLine
 62
7
  6
CONTINUOUS
 10
63.9658284141
 20
36.2339233045
 11
63.8458284071
 21
36.3539233115
  0
LINE
  5
306
100
AcDbEntity
  8
0
100
AcDbLine
 62
7
  6
CONTINUOUS
 10
63.8458284071
 20
36.3539233115
 11
63.7258284002
 21
36.4979233198
  0
LINE
  5
307
100
AcDbEntity
  8
0
100
AcDbLine
 62
7
  6
CONTINUOUS
 10
63.7258284002
 20
36.4979233198
 11
63.6298283946
 21
36.6539233288
  0
LINE
  5
308
100
AcDbEntity
  8
0
100
AcDbLine
 62
7
  6
CONTINUOUS
 10
63.6298283946
 20
36.6539233288
 11
63.5458283898
 21
36.8099233379
  0
LINE
  5
309
100
AcDbEntity
  8
0
100
AcDbLine
 62
7
  6
CONTINUOUS
 10
63.5458283898
 20
36.8099233379
 11
63.4738283856
 21
36.9899233483
  0
LINE
  5
30A
100
AcDbEntity
  8
0
100
AcDbLine
 62
7
  6
CONTINUOUS
 10
63.4738283856
 20
36.9899233483
 11
63.4258283828
 21
37.1699233587
  0
LINE
  5
30B
100
AcDbEntity
  8
0
100
AcDbLine
 62
7
  6
CONTINUOUS
 10
63.4258283828
 20
37.1699233587
 11
63.4018283814
 21
37.3739233705
  0
LINE
  5
30C
100
AcDbEntity
  8
0
100
AcDbLine
 62
7
  6
CONTINUOUS
 10
63.4018283814
 20
37.3739233705
 11
63.3898283807
 21
37.5779233823
  0
LINE
  5
30D
100
AcDbEntity
  8
0
100
AcDbLine
 62
7
  6
CONTINUOUS
 10
63.3898283807
 20
37.5779233823
 11
63.4018283814
 21
37.7819233941
  0
LINE
  5
30E
100
AcDbEntity
  8
0
100
AcDbLine
 62
7
  6
CONTINUOUS
 10
63.4018283814
 20
37.7819233941
 11
63.4258283828
 21
37.9859234059
  0
LINE
  5
30F
100
AcDbEntity
  8
0
100
AcDbLine
 62
7
  6
CONTINUOUS
 10
63.4258283828
 20
37.9859234059
 11
63.4738283856
 21
38.1659234163
  0
LINE
  5
310
100
AcDbEntity
  8
0
100
AcDbLine
 62
7
  6
CONTINUOUS
 10
63.4738283856
 20
38.1659234163
 11
63.5458283898
 21
38.3459234267
  0
LINE
  5
311
100
AcDbEntity
  8
0
100
AcDbLine
 62
7
  6
CONTINUOUS
 10
63.5458283898
 20
38.3459234267
 11
63.6298283946
 21
38.5019234358
  0
LINE
  5
312
100
AcDbEntity
  8
0
100
AcDbLine
 62
7
  6
CONTINUOUS
 10
63.6298283946
 20
38.5019234358
 11
63.7258284002
 21
38.6579234448
  0
LINE
  5
313
100
AcDbEntity
  8
0
100
AcDbLine
 62
7
  6
CONTINUOUS
 10
63.7258284002
 20
38.6579234448
 11
63.8458284071
 21
38.7899234524
  0
LINE
  5
314
100
AcDbEntity
  8
0
100
AcDbLine
 62
7
  6
CONTINUOUS
 10
63.8458284071
 20
38.7899234524
 11
63.9658284141
 21
38.9219234601
  0
LINE
  5
315
100
AcDbEntity
  8
0
100
AcDbLine
 62
7
  6
CONTINUOUS
 10
63.9658284141
 20
38.9219234601
 11
64.1098284224
 21
39.0299234663
  0
LINE
  5
316
100
AcDbEntity
  8
0
100
AcDbLine
 62
7
  6
CONTINUOUS
 10
64.1098284224
 20
39.0299234663
 11
64.2658284314
 21
39.1259234719
  0
LINE
  5
317
100
AcDbEntity
  8
0
100
AcDbLine
 62
7
  6
CONTINUOUS
 10
64.2658284314
 20
39.1259234719
 11
64.4338284411
 21
39.2099234767
  0
LINE
  5
318
100
AcDbEntity
  8
0
100
AcDbLine
 62
7
  6
CONTINUOUS
 10
64.4338284411
 20
39.2099234767
 11
64.6018284509
 21
39.2819234809
  0
LINE
  5
319
100
AcDbEntity
  8
0
100
AcDbLine
 62
7
  6
CONTINUOUS
 10
64.6018284509
 20
39.2819234809
 11
64.7818284613
 21
39.3419234844
  0
LINE
  5
31A
100
AcDbEntity
  8
0
100
AcDbLine
 62
7
  6
CONTINUOUS
 10
64.7818284613
 20
39.3419234844
 11
64.9738284724
 21
39.3779234865
  0
LINE
  5
31B
100
AcDbEntity
  8
0
100
AcDbLine
 62
7
  6
CONTINUOUS
 10
64.9738284724
 20
39.3779234865
 11
65.1778284842
 21
39.4019234879
  0
LINE
  5
31C
100
AcDbEntity
  8
0
100
AcDbLine
 62
7
  6
CONTINUOUS
 10
65.1778284842
 20
39.4019234879
 11
65.381828496
 21
39.4139234885
  0
LINE
  5
31D
100
AcDbEntity
  8
0
100
AcDbLine
 62
7
  6
CONTINUOUS
 10
33.3658266432
 20
34.1819231858
 11
33.0298266238
 21
34.1939231865
  0
LINE
  5
31E
100
AcDbEntity
  8
0
100
AcDbLine
 62
7
  6
CONTINUOUS
 10
33.0298266238
 20
34.1939231865
 11
32.6818266036
 21
34.2419231892
  0
LINE
  5
31F
100
AcDbEntity
  8
0
100
AcDbLine
 62
7
  6
CONTINUOUS
 10
32.6818266036
 20
34.2419231892
 11
32.3458265842
 21
34.3019231927
  0
LINE
  5
320
100
AcDbEntity
  8
0
100
AcDbLine
 62
7
  6
CONTINUOUS
 10
32.3458265842
 20
34.3019231927
 11
32.0098265648
 21
34.3859231976
  0
LINE
  5
321
100
AcDbEntity
  8
0
100
AcDbLine
 62
7
  6
CONTINUOUS
 10
32.0098265648
 20
34.3859231976
 11
31.6738265453
 21
34.4939232038
  0
LINE
  5
322
100
AcDbEntity
  8
0
100
AcDbLine
 62
7
  6
CONTINUOUS
 10
31.6738265453
 20
34.4939232038
 11
31.3618265273
 21
34.6379232122
  0
LINE
  5
323
100
AcDbEntity
  8
0
100
AcDbLine
 62
7
  6
CONTINUOUS
 10
31.3618265273
 20
34.6379232122
 11
31.0498265092
 21
34.8059232219
  0
LINE
  5
324
100
AcDbEntity
  8
0
100
AcDbLine
 62
7
  6
CONTINUOUS
 10
31.0498265092
 20
34.8059232219
 11
30.7618264925
 21
34.997923233
  0
LINE
  5
325
100
AcDbEntity
  8
0
100
AcDbLine
 62
7
  6
CONTINUOUS
 10
30.7618264925
 20
34.997923233
 11
30.4978264773
 21
35.2259232462
  0
LINE
  5
326
100
AcDbEntity
  8
0
100
AcDbLine
 62
7
  6
CONTINUOUS
 10
30.4978264773
 20
35.2259232462
 11
30.2578264634
 21
35.4779232608
  0
LINE
  5
327
100
AcDbEntity
  8
0
100
AcDbLine
 62
7
  6
CONTINUOUS
 10
30.2578264634
 20
35.4779232608
 11
30.0418264509
 21
35.7539232767
  0
LINE
  5
328
100
AcDbEntity
  8
0
100
AcDbLine
 62
7
  6
CONTINUOUS
 10
30.0418264509
 20
35.7539232767
 11
29.8618264404
 21
36.0659232948
  0
LINE
  5
329
100
AcDbEntity
  8
0
100
AcDbLine
 62
7
  6
CONTINUOUS
 10
29.8618264404
 20
36.0659232948
 11
29.7178264321
 21
36.4019233142
  0
LINE
  5
32A
100
AcDbEntity
  8
0
100
AcDbLine
 62
7
  6
CONTINUOUS
 10
29.7178264321
 20
36.4019233142
 11
29.6098264259
 21
36.7739233358
  0
LINE
  5
32B
100
AcDbEntity
  8
0
100
AcDbLine
 62
7
  6
CONTINUOUS
 10
29.6098264259
 20
36.7739233358
 11
29.5378264217
 21
37.1819233594
  0
LINE
  5
32C
100
AcDbEntity
  8
0
100
AcDbLine
 62
7
  6
CONTINUOUS
 10
29.5378264217
 20
37.1819233594
 11
29.5138264203
 21
37.6139233844
  0
LINE
  5
32D
100
AcDbEntity
  8
0
100
AcDbLine
 62
7
  6
CONTINUOUS
 10
29.5138264203
 20
37.6139233844
 11
29.5378264217
 21
38.0459234094
  0
LINE
  5
32E
100
AcDbEntity
  8
0
100
AcDbLine
 62
7
  6
CONTINUOUS
 10
29.5378264217
 20
38.0459234094
 11
29.6098264259
 21
38.4419234323
  0
LINE
  5
32F
100
AcDbEntity
  8
0
100
AcDbLine
 62
7
  6
CONTINUOUS
 10
29.6098264259
 20
38.4419234323
 11
29.7178264321
 21
38.8139234538
  0
LINE
  5
330
100
AcDbEntity
  8
0
100
AcDbLine
 62
7
  6
CONTINUOUS
 10
29.7178264321
 20
38.8139234538
 11
29.8618264404
 21
39.161923474
  0
LINE
  5
331
100
AcDbEntity
  8
0
100
AcDbLine
 62
7
  6
CONTINUOUS
 10
29.8618264404
 20
39.161923474
 11
30.0418264509
 21
39.4619234913
  0
LINE
  5
332
100
AcDbEntity
  8
0
100
AcDbLine
 62
7
  6
CONTINUOUS
 10
30.0418264509
 20
39.4619234913
 11
30.2578264634
 21
39.749923508
  0
LINE
  5
333
100
AcDbEntity
  8
0
100
AcDbLine
 62
7
  6
CONTINUOUS
 10
30.2578264634
 20
39.749923508
 11
30.4978264773
 21
40.0019235226
  0
LINE
  5
334
100
AcDbEntity
  8
0
100
AcDbLine
 62
7
  6
CONTINUOUS
 10
30.4978264773
 20
40.0019235226
 11
30.7618264925
 21
40.2179235351
  0
LINE
  5
335
100
AcDbEntity
  8
0
100
AcDbLine
 62
7
  6
CONTINUOUS
 10
30.7618264925
 20
40.2179235351
 11
31.0498265092
 21
40.4099235462
  0
LINE
  5
336
100
AcDbEntity
  8
0
100
AcDbLine
 62
7
  6
CONTINUOUS
 10
31.0498265092
 20
40.4099235462
 11
31.3618265273
 21
40.5779235559
  0
LINE
  5
337
100
AcDbEntity
  8
0
100
AcDbLine
 62
7
  6
CONTINUOUS
 10
31.3618265273
 20
40.5779235559
 11
31.6738265453
 21
40.7219235642
  0
LINE
  5
338
100
AcDbEntity
  8
0
100
AcDbLine
 62
7
  6
CONTINUOUS
 10
31.6738265453
 20
40.7219235642
 11
32.0098265648
 21
40.8419235712
  0
LINE
  5
339
100
AcDbEntity
  8
0
100
AcDbLine
 62
7
  6
CONTINUOUS
 10
32.0098265648
 20
40.8419235712
 11
32.3458265842
 21
40.925923576
  0
LINE
  5
33A
100
AcDbEntity
  8
0
100
AcDbLine
 62
7
  6
CONTINUOUS
 10
32.3458265842
 20
40.925923576
 11
32.6938266043
 21
40.9859235795
  0
LINE
  5
33B
100
AcDbEntity
  8
0
100
AcDbLine
 62
7
  6
CONTINUOUS
 10
32.6938266043
 20
40.9859235795
 11
33.0298266238
 21
41.0219235816
  0
LINE
  5
33C
100
AcDbEntity
  8
0
100
AcDbLine
 62
7
  6
CONTINUOUS
 10
33.0298266238
 20
41.0219235816
 11
33.3778266439
 21
41.0339235823
  0
LINE
  5
33D
100
AcDbEntity
  8
0
100
AcDbLine
 62
7
  6
CONTINUOUS
 10
33.3778266439
 20
41.0339235823
 11
36.9538268509
 21
41.0339235823
  0
LINE
  5
33E
100
AcDbEntity
  8
0
100
AcDbLine
 62
7
  6
CONTINUOUS
 10
36.9538268509
 20
41.0339235823
 11
36.2578268106
 21
39.4259234892
  0
LINE
  5
33F
100
AcDbEntity
  8
0
100
AcDbLine
 62
7
  6
CONTINUOUS
 10
36.2578268106
 20
39.4259234892
 11
33.3898266446
 21
39.4259234892
  0
LINE
  5
340
100
AcDbEntity
  8
0
100
AcDbLine
 62
7
  6
CONTINUOUS
 10
33.3898266446
 20
39.4259234892
 11
33.0778266266
 21
39.4139234885
  0
LINE
  5
341
100
AcDbEntity
  8
0
100
AcDbLine
 62
7
  6
CONTINUOUS
 10
33.0778266266
 20
39.4139234885
 11
32.7778266092
 21
39.3539234851
  0
LINE
  5
342
100
AcDbEntity
  8
0
100
AcDbLine
 62
7
  6
CONTINUOUS
 10
32.7778266092
 20
39.3539234851
 11
32.5018265932
 21
39.2579234795
  0
LINE
  5
343
100
AcDbEntity
  8
0
100
AcDbLine
 62
7
  6
CONTINUOUS
 10
32.5018265932
 20
39.2579234795
 11
32.2498265786
 21
39.1259234719
  0
LINE
  5
344
100
AcDbEntity
  8
0
100
AcDbLine
 62
7
  6
CONTINUOUS
 10
32.2498265786
 20
39.1259234719
 11
32.0218265654
 21
38.9699234629
  0
LINE
  5
345
100
AcDbEntity
  8
0
100
AcDbLine
 62
7
  6
CONTINUOUS
 10
32.0218265654
 20
38.9699234629
 11
31.8298265543
 21
38.7779234517
  0
LINE
  5
346
100
AcDbEntity
  8
0
100
AcDbLine
 62
7
  6
CONTINUOUS
 10
31.8298265543
 20
38.7779234517
 11
31.6618265446
 21
38.5499234385
  0
LINE
  5
347
100
AcDbEntity
  8
0
100
AcDbLine
 62
7
  6
CONTINUOUS
 10
31.6618265446
 20
38.5499234385
 11
31.5418265377
 21
38.297923424
  0
LINE
  5
348
100
AcDbEntity
  8
0
100
AcDbLine
 62
7
  6
CONTINUOUS
 10
31.5418265377
 20
38.297923424
 11
35.0458267404
 21
38.297923424
  0
LINE
  5
349
100
AcDbEntity
  8
0
100
AcDbLine
 62
7
  6
CONTINUOUS
 10
35.0458267404
 20
38.297923424
 11
35.0458267404
 21
36.9179233441
  0
LINE
  5
34A
100
AcDbEntity
  8
0
100
AcDbLine
 62
7
  6
CONTINUOUS
 10
35.0458267404
 20
36.9179233441
 11
31.5418265377
 21
36.9179233441
  0
LINE
  5
34B
100
AcDbEntity
  8
0
100
AcDbLine
 62
7
  6
CONTINUOUS
 10
31.5418265377
 20
36.9179233441
 11
31.6618265446
 21
36.6659233295
  0
LINE
  5
34C
100
AcDbEntity
  8
0
100
AcDbLine
 62
7
  6
CONTINUOUS
 10
31.6618265446
 20
36.6659233295
 11
31.8298265543
 21
36.449923317
  0
LINE
  5
34D
100
AcDbEntity
  8
0
100
AcDbLine
 62
7
  6
CONTINUOUS
 10
31.8298265543
 20
36.449923317
 11
32.0218265654
 21
36.2579233059
  0
LINE
  5
34E
100
AcDbEntity
  8
0
100
AcDbLine
 62
7
  6
CONTINUOUS
 10
32.0218265654
 20
36.2579233059
 11
32.2498265786
 21
36.0899232962
  0
LINE
  5
34F
100
AcDbEntity
  8
0
100
AcDbLine
 62
7
  6
CONTINUOUS
 10
32.2498265786
 20
36.0899232962
 11
32.5018265932
 21
35.9579232885
  0
LINE
  5
350
100
AcDbEntity
  8
0
100
AcDbLine
 62
7
  6
CONTINUOUS
 10
32.5018265932
 20
35.9579232885
 11
32.7778266092
 21
35.8739232837
  0
LINE
  5
351
100
AcDbEntity
  8
0
100
AcDbLine
 62
7
  6
CONTINUOUS
 10
32.7778266092
 20
35.8739232837
 11
33.0778266266
 21
35.8139232802
  0
LINE
  5
352
100
AcDbEntity
  8
0
100
AcDbLine
 62
7
  6
CONTINUOUS
 10
33.0778266266
 20
35.8139232802
 11
33.3898266446
 21
35.7899232788
  0
LINE
  5
353
100
AcDbEntity
  8
0
100
AcDbLine
 62
7
  6
CONTINUOUS
 10
33.3898266446
 20
35.7899232788
 11
36.9538268509
 21
35.7899232788
  0
LINE
  5
354
100
AcDbEntity
  8
0
100
AcDbLine
 62
7
  6
CONTINUOUS
 10
36.9538268509
 20
35.7899232788
 11
36.2578268106
 21
34.1939231865
  0
LINE
  5
355
100
AcDbEntity
  8
0
100
AcDbLine
 62
7
  6
CONTINUOUS
 10
36.2578268106
 20
34.1939231865
 11
33.3778266439
 21
34.1819231858
  0
LINE
  5
356
100
AcDbEntity
  8
0
100
AcDbLine
 62
7
  6
CONTINUOUS
 10
33.3778266439
 20
34.1819231858
 11
33.3658266432
 21
34.1819231858
  0
LINE
  5
357
100
AcDbEntity
  8
0
100
AcDbLine
 62
7
  6
CONTINUOUS
 10
56.8138280002
 20
34.1939231865
 11
56.8138280002
 21
39.4259234892
  0
LINE
  5
358
100
AcDbEntity
  8
0
100
AcDbLine
 62
7
  6
CONTINUOUS
 10
56.8138280002
 20
39.4259234892
 11
54.2098278495
 21
39.4379234899
  0
LINE
  5
359
100
AcDbEntity
  8
0
100
AcDbLine
 62
7
  6
CONTINUOUS
 10
54.2098278495
 20
39.4379234899
 11
54.8818278884
 21
41.0219235816
  0
LINE
  5
35A
100
AcDbEntity
  8
0
100
AcDbLine
 62
7
  6
CONTINUOUS
 10
54.8818278884
 20
41.0219235816
 11
60.8218282321
 21
41.0219235816
  0
LINE
  5
35B
100
AcDbEntity
  8
0
100
AcDbLine
 62
7
  6
CONTINUOUS
 10
60.8218282321
 20
41.0219235816
 11
61.5058282717
 21
39.4379234899
  0
LINE
  5
35C
100
AcDbEntity
  8
0
100
AcDbLine
 62
7
  6
CONTINUOUS
 10
61.5058282717
 20
39.4379234899
 11
58.9258281224
 21
39.4379234899
  0
LINE
  5
35D
100
AcDbEntity
  8
0
100
AcDbLine
 62
7
  6
CONTINUOUS
 10
58.9258281224
 20
39.4379234899
 11
58.9258281224
 21
34.1939231865
  0
LINE
  5
35E
100
AcDbEntity
  8
0
100
AcDbLine
 62
7
  6
CONTINUOUS
 10
58.9258281224
 20
34.1939231865
 11
56.8138280002
 21
34.1939231865
  0
ENDBLK
  5
35F
100
AcDbEntity
  8
0
  6
BYBLOCK
 62
0
100
AcDbBlockEnd
  0
BLOCK
  5
360
100
AcDbEntity
  8
0
100
AcDbBlockBegin
 62
2
  6
CONTINUOUS
  2
*D0
 70
65
 10
0.0
 20
0.0
  3
*D0
  1

  0
TEXT
  5
361
100
AcDbEntity
  8
0
100
AcDbText
 62
2
  6
CONTINUOUS
 10
29.0
 20
143.9553903346
  7
STANDARD
 40
2.0
  1
65
 50
90.0
 41
1.0
 72
0
100
AcDbText
  0
TEXT
  5
362
100
AcDbEntity
  8
0
100
AcDbText
 62
2
  6
CONTINUOUS
 10
29.0
 20
149.063197026
  7
STANDARD
 40
2.0
  1
[2.56]
 50
90.0
 41
1.0
 72
0
100
AcDbText
  0
LINE
  5
363
100
AcDbEntity
  8
0
100
AcDbLine
 62
2
  6
CONTINUOUS
 10
44.75
 20
182.5
 11
28.5
 21
182.5
  0
LINE
  5
364
100
AcDbEntity
  8
0
100
AcDbLine
 62
2
  6
CONTINUOUS
 10
44.75
 20
117.5
 11
28.5
 21
117.5
  0
LINE
  5
365
100
AcDbEntity
  8
0
100
AcDbLine
 62
2
  6
CONTINUOUS
 10
29.5
 20
182.5
 11
29.5
 21
150.0
  0
LINE
  5
366
100
AcDbEntity
  8
0
100
AcDbLine
 62
2
  6
CONTINUOUS
 10
29.5
 20
117.5
 11
29.5
 21
150.0
  0
INSERT
  5
367
100
AcDbEntity
  8
0
100
AcDbBlockReference
 62
2
  6
CONTINUOUS
  2
_FILLED
 10
29.5
 20
182.5
 41
2.0
 42
2.0
 43
2.0
 50
90.0
  0
INSERT
  5
368
100
AcDbEntity
  8
0
100
AcDbBlockReference
 62
2
  6
CONTINUOUS
  2
_FILLED
 10
29.5
 20
117.5
 41
2.0
 42
2.0
 43
2.0
 50
270.0
  0
ENDBLK
  5
369
100
AcDbEntity
  8
0
  6
BYBLOCK
 62
0
100
AcDbBlockEnd
  0
BLOCK
  5
36A
100
AcDbEntity
  8
0
100
AcDbBlockBegin
 62
2
  6
CONTINUOUS
  2
*D1
 70
65
 10
0.0
 20
0.0
  3
*D1
  1

  0
TEXT
  5
36B
100
AcDbEntity
  8
0
100
AcDbText
 62
2
  6
CONTINUOUS
 10
33.0
 20
143.9553903346
  7
STANDARD
 40
2.0
  1
58
 50
90.0
 41
1.0
 72
0
100
AcDbText
  0
TEXT
  5
36C
100
AcDbEntity
  8
0
100
AcDbText
 62
2
  6
CONTINUOUS
 10
33.0
 20
149.063197026
  7
STANDARD
 40
2.0
  1
[2.28]
 50
90.0
 41
1.0
 72
0
100
AcDbText
  0
LINE
  5
36D
100
AcDbEntity
  8
0
100
AcDbLine
 62
2
  6
CONTINUOUS
 10
38.25
 20
179.0
 11
32.5
 21
179.0
  0
LINE
  5
36E
100
AcDbEntity
  8
0
100
AcDbLine
 62
2
  6
CONTINUOUS
 10
38.25
 20
121.0
 11
32.5
 21
121.0
  0
LINE
  5
36F
100
AcDbEntity
  8
0
100
AcDbLine
 62
2
  6
CONTINUOUS
 10
33.5
 20
179.0
 11
33.5
 21
150.0
  0
LINE
  5
370
100
AcDbEntity
  8
0
100
AcDbLine
 62
2
  6
CONTINUOUS
 10
33.5
 20
121.0
 11
33.5
 21
150.0
  0
INSERT
  5
371
100
AcDbEntity
  8
0
100
AcDbBlockReference
 62
2
  6
CONTINUOUS
  2
_FILLED
 10
33.5
 20
179.0
 41
2.0
 42
2.0
 43
2.0
 50
90.0
  0
INSERT
  5
372
100
AcDbEntity
  8
0
100
AcDbBlockReference
 62
2
  6
CONTINUOUS
  2
_FILLED
 10
33.5
 20
121.0
 41
2.0
 42
2.0
 43
2.0
 50
270.0
  0
ENDBLK
  5
373
100
AcDbEntity
  8
0
  6
BYBLOCK
 62
0
100
AcDbBlockEnd
  0
BLOCK
  5
374
100
AcDbEntity
  8
0
100
AcDbBlockBegin
 62
2
  6
CONTINUOUS
  2
*D2
 70
65
 10
0.0
 20
0.0
  3
*D2
  1

  0
TEXT
  5
375
100
AcDbEntity
  8
0
100
AcDbText
 62
2
  6
CONTINUOUS
 10
78.9553903346
 20
109.0
  7
STANDARD
 40
2.0
  1
93
 41
1.0
 72
0
100
AcDbText
  0
TEXT
  5
376
100
AcDbEntity
  8
0
100
AcDbText
 62
2
  6
CONTINUOUS
 10
84.063197026
 20
109.0
  7
STANDARD
 40
2.0
  1
[3.66]
 41
1.0
 72
0
100
AcDbText
  0
LINE
  5
377
100
AcDbEntity
  8
0
100
AcDbLine
 62
2
  6
CONTINUOUS
 10
38.5
 20
118.0
 11
38.5
 21
107.5
  0
LINE
  5
378
100
AcDbEntity
  8
0
100
AcDbLine
 62
2
  6
CONTINUOUS
 10
131.5
 20
118.0
 11
131.5
 21
107.5
  0
LINE
  5
379
100
AcDbEntity
  8
0
100
AcDbLine
 62
2
  6
CONTINUOUS
 10
38.5
 20
108.5
 11
85.0
 21
108.5
  0
LINE
  5
37A
100
AcDbEntity
  8
0
100
AcDbLine
 62
2
  6
CONTINUOUS
 10
131.5
 20
108.5
 11
85.0
 21
108.5
  0
INSERT
  5
37B
100
AcDbEntity
  8
0
100
AcDbBlockReference
 62
2
  6
CONTINUOUS
  2
_FILLED
 10
38.5
 20
108.5
 41
2.0
 42
2.0
 43
2.0
 50
180.0
  0
INSERT
  5
37C
100
AcDbEntity
  8
0
100
AcDbBlockReference
 62
2
  6
CONTINUOUS
  2
_FILLED
 10
131.5
 20
108.5
 41
2.0
 42
2.0
 43
2.0
  0
ENDBLK
  5
37D
100
AcDbEntity
  8
0
  6
BYBLOCK
 62
0
100
AcDbBlockEnd
  0
BLOCK
  5
37E
100
AcDbEntity
  8
0
100
AcDbBlockBegin
 62
2
  6
CONTINUOUS
  2
*D3
 70
65
 10
0.0
 20
0.0
  3
*D3
  1

  0
TEXT
  5
37F
100
AcDbEntity
  8
0
100
AcDbText
 62
2
  6
CONTINUOUS
 10
77.7918215613
 20
113.0
  7
STANDARD
 40
2.0
  1
81.5
 41
1.0
 72
0
100
AcDbText
  0
TEXT
  5
380
100
AcDbEntity
  8
0
100
AcDbText
 62
2
  6
CONTINUOUS
 10
85.2267657993
 20
113.0
  7
STANDARD
 40
2.0
  1
[3.21]
 41
1.0
 72
0
100
AcDbText
  0
LINE
  5
381
100
AcDbEntity
  8
0
100
AcDbLine
 62
2
  6
CONTINUOUS
 10
44.25
 20
115.0
 11
44.25
 21
111.5
  0
LINE
  5
382
100
AcDbEntity
  8
0
100
AcDbLine
 62
2
  6
CONTINUOUS
 10
125.75
 20
115.0
 11
125.75
 21
111.5
  0
LINE
  5
383
100
AcDbEntity
  8
0
100
AcDbLine
 62
2
  6
CONTINUOUS
 10
44.25
 20
112.5
 11
85.0
 21
112.5
  0
LINE
  5
384
100
AcDbEntity
  8
0
100
AcDbLine
 62
2
  6
CONTINUOUS
 10
125.75
 20
112.5
 11
85.0
 21
112.5
  0
INSERT
  5
385
100
AcDbEntity
  8
0
100
AcDbBlockReference
 62
2
  6
CONTINUOUS
  2
_FILLED
 10
44.25
 20
112.5
 41
2.0
 42
2.0
 43
2.0
 50
180.0
  0
INSERT
  5
386
100
AcDbEntity
  8
0
100
AcDbBlockReference
 62
2
  6
CONTINUOUS
  2
_FILLED
 10
125.75
 20
112.5
 41
2.0
 42
2.0
 43
2.0
  0
ENDBLK
  5
387
100
AcDbEntity
  8
0
  6
BYBLOCK
 62
0
100
AcDbBlockEnd
  0
BLOCK
  5
388
100
AcDbEntity
  8
0
100
AcDbBlockBegin
 62
2
  6
CONTINUOUS
  2
*D4
 70
65
 10
0.0
 20
0.0
  3
*D4
  1

  0
TEXT
  5
389
100
AcDbEntity
  8
0
100
AcDbText
 62
2
  6
CONTINUOUS
 10
109.4432588714
 20
188.0
  7
STANDARD
 40
2.0
  1
5.8
 41
1.0
 72
0
100
AcDbText
  0
TEXT
  5
38A
100
AcDbEntity
  8
0
100
AcDbText
 62
2
  6
CONTINUOUS
 10
115.3242997636
 20
188.0
  7
STANDARD
 40
2.0
  1
[0.23]
 41
1.0
 72
0
100
AcDbText
  0
LINE
  5
38B
100
AcDbEntity
  8
0
100
AcDbLine
 62
2
  6
CONTINUOUS
 10
125.75
 20
180.5
 11
125.75
 21
188.5
  0
LINE
  5
38C
100
AcDbEntity
  8
0
100
AcDbLine
 62
2
  6
CONTINUOUS
 10
131.5
 20
182.0
 11
131.5
 21
188.5
  0
LINE
  5
38D
100
AcDbEntity
  8
0
100
AcDbLine
 62
2
  6
CONTINUOUS
 10
125.75
 20
187.5
 11
109.4432588714
 21
187.5
  0
LINE
  5
38E
100
AcDbEntity
  8
0
100
AcDbLine
 62
2
  6
CONTINUOUS
 10
109.4432588714
 20
187.5
 11
128.625
 21
187.5
  0
LINE
  5
38F
100
AcDbEntity
  8
0
100
AcDbLine
 62
2
  6
CONTINUOUS
 10
131.5
 20
187.5
 11
136.5
 21
187.5
  0
LINE
  5
390
100
AcDbEntity
  8
0
100
AcDbLine
 62
2
  6
CONTINUOUS
 10
136.5
 20
187.5
 11
128.625
 21
187.5
  0
INSERT
  5
391
100
AcDbEntity
  8
0
100
AcDbBlockReference
 62
2
  6
CONTINUOUS
  2
_FILLED
 10
125.75
 20
187.5
 41
2.0
 42
2.0
 43
2.0
  0
INSERT
  5
392
100
AcDbEntity
  8
0
100
AcDbBlockReference
 62
2
  6
CONTINUOUS
  2
_FILLED
 10
131.5
 20
187.5
 41
2.0
 42
2.0
 43
2.0
 50
180.0
  0
ENDBLK
  5
393
100
AcDbEntity
  8
0
  6
BYBLOCK
 62
0
100
AcDbBlockEnd
  0
BLOCK
  5
394
100
AcDbEntity
  8
0
100
AcDbBlockBegin
 62
2
  6
CONTINUOUS
  2
*D5
 70
65
 10
0.0
 20
0.0
  3
*D5
  1

  0
TEXT
  5
395
100
AcDbEntity
  8
0
100
AcDbText
 62
2
  6
CONTINUOUS
 10
140.0
 20
163.437749631
  7
STANDARD
 40
2.0
  1
3.5
 50
90.0
 41
1.0
 72
0
100
AcDbText
  0
TEXT
  5
396
100
AcDbEntity
  8
0
100
AcDbText
 62
2
  6
CONTINUOUS
 10
140.0
 20
169.3187905232
  7
STANDARD
 40
2.0
  1
[0.14]
 50
90.0
 41
1.0
 72
0
100
AcDbText
  0
LINE
  5
397
100
AcDbEntity
  8
0
100
AcDbLine
 62
2
  6
CONTINUOUS
 10
131.75
 20
179.0
 11
141.5
 21
179.0
  0
LINE
  5
398
100
AcDbEntity
  8
0
100
AcDbLine
 62
2
  6
CONTINUOUS
 10
131.0
 20
182.5
 11
141.5
 21
182.5
  0
LINE
  5
399
100
AcDbEntity
  8
0
100
AcDbLine
 62
2
  6
CONTINUOUS
 10
140.5
 20
179.0
 11
140.5
 21
163.437749631
  0
LINE
  5
39A
100
AcDbEntity
  8
0
100
AcDbLine
 62
2
  6
CONTINUOUS
 10
140.5
 20
163.437749631
 11
140.5
 21
180.75
  0
LINE
  5
39B
100
AcDbEntity
  8
0
100
AcDbLine
 62
2
  6
CONTINUOUS
 10
140.5
 20
182.5
 11
140.5
 21
187.5
  0
LINE
  5
39C
100
AcDbEntity
  8
0
100
AcDbLine
 62
2
  6
CONTINUOUS
 10
140.5
 20
187.5
 11
140.5
 21
180.75
  0
INSERT
  5
39D
100
AcDbEntity
  8
0
100
AcDbBlockReference
 62
2
  6
CONTINUOUS
  2
_FILLED
 10
140.5
 20
179.0
 41
2.0
 42
2.0
 43
2.0
 50
90.0
  0
INSERT
  5
39E
100
AcDbEntity
  8
0
100
AcDbBlockReference
 62
2
  6
CONTINUOUS
  2
_FILLED
 10
140.5
 20
182.5
 41
2.0
 42
2.0
 43
2.0
 50
270.0
  0
ENDBLK
  5
39F
100
AcDbEntity
  8
0
  6
BYBLOCK
 62
0
100
AcDbBlockEnd
  0
BLOCK
  5
3A0
100
AcDbEntity
  8
0
100
AcDbBlockBegin
 62
2
  6
CONTINUOUS
  2
*D6
 70
65
 10
0.0
 20
0.0
  3
*D6
  1

  0
TEXT
  5
3A1
100
AcDbEntity
  8
0
100
AcDbText
 62
2
  6
CONTINUOUS
 10
111.3319789484
 20
167.0647256309
  7
STANDARD
 40
2.0
  1
%%c4
 50
41.1487983814
 41
1.0
 72
0
100
AcDbText
  0
TEXT
  5
3A2
100
AcDbEntity
  8
0
100
AcDbText
 62
2
  6
CONTINUOUS
 10
116.0160883071
 20
171.1579652763
  7
STANDARD
 40
2.0
  1
[0.16]
 50
41.1487983814
 41
1.0
 72
0
100
AcDbText
  0
LINE
  5
3A3
100
AcDbEntity
  8
0
100
AcDbLine
 62
2
  6
CONTINUOUS
 10
124.2439935249
 20
177.6839663769
 11
111.6609873541
 21
166.6882240121
  0
INSERT
  5
3A4
100
AcDbEntity
  8
0
100
AcDbBlockReference
 62
2
  6
CONTINUOUS
  2
_FILLED
 10
124.2439935249
 20
177.6839663769
 41
2.0
 42
2.0
 43
2.0
 50
41.1487983814
  0
ENDBLK
  5
3A5
100
AcDbEntity
  8
0
  6
BYBLOCK
 62
0
100
AcDbBlockEnd
  0
BLOCK
  5
3A6
100
AcDbEntity
  8
0
100
AcDbBlockBegin
 62
2
  6
CONTINUOUS
  2
*D7
 70
65
 10
0.0
 20
0.0
  3
*D7
  1

  0
TEXT
  5
3A7
100
AcDbEntity
  8
0
100
AcDbText
 62
2
  6
CONTINUOUS
 10
146.3875464684
 20
188.0
  7
STANDARD
 40
2.0
  1
1.5
 41
1.0
 72
0
100
AcDbText
  0
TEXT
  5
3A8
100
AcDbEntity
  8
0
100
AcDbText
 62
2
  6
CONTINUOUS
 10
152.2685873606
 20
188.0
  7
STANDARD
 40
2.0
  1
[0.06]
 41
1.0
 72
0
100
AcDbText
  0
LINE
  5
3A9
100
AcDbEntity
  8
0
100
AcDbLine
 62
2
  6
CONTINUOUS
 10
165.75
 20
184.0
 11
165.75
 21
188.5
  0
LINE
  5
3AA
100
AcDbEntity
  8
0
100
AcDbLine
 62
2
  6
CONTINUOUS
 10
164.25
 20
184.0
 11
164.25
 21
188.5
  0
LINE
  5
3AB
100
AcDbEntity
  8
0
100
AcDbLine
 62
2
  6
CONTINUOUS
 10
165.75
 20
187.5
 11
170.75
 21
187.5
  0
LINE
  5
3AC
100
AcDbEntity
  8
0
100
AcDbLine
 62
2
  6
CONTINUOUS
 10
170.75
 20
187.5
 11
165.0
 21
187.5
  0
LINE
  5
3AD
100
AcDbEntity
  8
0
100
AcDbLine
 62
2
  6
CONTINUOUS
 10
164.25
 20
187.5
 11
146.3875464684
 21
187.5
  0
LINE
  5
3AE
100
AcDbEntity
  8
0
100
AcDbLine
 62
2
  6
CONTINUOUS
 10
146.3875464684
 20
187.5
 11
165.0
 21
187.5
  0
INSERT
  5
3AF
100
AcDbEntity
  8
0
100
AcDbBlockReference
 62
2
  6
CONTINUOUS
  2
_FILLED
 10
165.75
 20
187.5
 41
2.0
 42
2.0
 43
2.0
 50
180.0
  0
INSERT
  5
3B0
100
AcDbEntity
  8
0
100
AcDbBlockReference
 62
2
  6
CONTINUOUS
  2
_FILLED
 10
164.25
 20
187.5
 41
2.0
 42
2.0
 43
2.0
  0
ENDBLK
  5
3B1
100
AcDbEntity
  8
0
  6
BYBLOCK
 62
0
100
AcDbBlockEnd
  0
BLOCK
  5
3B2
100
AcDbEntity
  8
0
100
AcDbBlockBegin
  2
_FILLED
 70
64
 10
0.0
 20
0.0
  3
_FILLED
  1

  0
SOLID
  5
3B3
100
AcDbEntity
  8
0
  6
BYBLOCK
 62
0
100
AcDbTrace
 10
0.0
 20
0.0
 11
-1.0
 21
0.2
 12
-1.0
 22
-0.2
 13
-1.0
 23
-0.2
  0
ENDBLK
  5
3B4
100
AcDbEntity
  8
0
  6
BYBLOCK
 62
0
100
AcDbBlockEnd
  0
ENDSEC
  0
SECTION
  2
ENTITIES
  0
TEXT
  5
3B5
100
AcDbEntity
  8
0
100
AcDbText
 62
2
  6
CONTINUOUS
 10
163.9435114782
 20
57.6988375141
  7
TEXTSTYLE_1
 40
2.0
  1
Dimensions in mm [inches]
 41
1.0
 72
0
100
AcDbText
  0
INSERT
  5
3B6
100
AcDbEntity
  8
0
100
AcDbBlockReference
 62
2
  6
CONTINUOUS
  2
ENSTO_BL0
 10
49.3918275707
 20
37.5779233823
  0
DIMENSION
  5
3B7
100
AcDbEntity
  8
0
100
AcDbDimension
 62
2
  6
CONTINUOUS
  2
*D0
 10
29.5
 20
117.5
 11
28.0
 21
150.0
 70
160
 42
65.0
  3
DIMSTYLE_1
100
AcDbAlignedDimension
 13
44.75
 23
182.5
 14
44.75
 24
117.5
 50
270.0
100
AcDbRotatedDimension
  0
DIMENSION
  5
3B8
100
AcDbEntity
  8
0
100
AcDbDimension
 62
2
  6
CONTINUOUS
  2
*D1
 10
33.5
 20
121.0
 11
32.0
 21
150.0
 70
160
 42
58.0
  3
DIMSTYLE_1
100
AcDbAlignedDimension
 13
38.25
 23
179.0
 14
38.25
 24
121.0
 50
270.0
100
AcDbRotatedDimension
  0
DIMENSION
  5
3B9
100
AcDbEntity
  8
0
100
AcDbDimension
 62
2
  6
CONTINUOUS
  2
*D2
 10
131.5
 20
108.5
 11
85.0
 21
110.0
 70
160
 42
93.0
  3
DIMSTYLE_1
100
AcDbAlignedDimension
 13
38.5
 23
118.0
 14
131.5
 24
118.0
100
AcDbRotatedDimension
  0
DIMENSION
  5
3BA
100
AcDbEntity
  8
0
100
AcDbDimension
 62
2
  6
CONTINUOUS
  2
*D3
 10
125.75
 20
112.5
 11
85.0
 21
114.0
 70
160
 42
81.5
  3
DIMSTYLE_1
100
AcDbAlignedDimension
 13
44.25
 23
115.0
 14
125.75
 24
115.0
100
AcDbRotatedDimension
  0
DIMENSION
  5
3BB
100
AcDbEntity
  8
0
100
AcDbDimension
 62
2
  6
CONTINUOUS
  2
*D4
 10
131.5
 20
187.5
 11
115.8744856372
 21
189.0
 70
160
 42
5.75
  3
DIMSTYLE_2
100
AcDbAlignedDimension
 13
125.75
 23
180.5
 14
131.5
 24
182.0
100
AcDbRotatedDimension
  0
DIMENSION
  5
3BC
100
AcDbEntity
  8
0
100
AcDbDimension
 62
2
  6
CONTINUOUS
  2
*D5
 10
140.5
 20
182.5
 11
139.0
 21
169.8689763968
 70
160
 42
3.5
  3
DIMSTYLE_2
100
AcDbAlignedDimension
 13
131.75
 23
179.0
 14
131.0
 24
182.5
 50
90.0
100
AcDbRotatedDimension
  0
DIMENSION
  5
3BD
100
AcDbEntity
  8
0
100
AcDbDimension
 62
2
  6
CONTINUOUS
  2
*D6
 10
124.2439935249
 20
177.6839663769
 11
115.6445299762
 21
172.1612921336
 70
163
 42
4.0
  1
<>
  3
DIMSTYLE_3
100
AcDbDiametricDimension
 15
127.2560064751
 25
180.3160336231
  0
DIMENSION
  5
3BE
100
AcDbEntity
  8
0
100
AcDbDimension
 62
2
  6
CONTINUOUS
  2
*D7
 10
164.25
 20
187.5
 11
152.8187732342
 21
189.0
 70
160
 42
1.5
  3
DIMSTYLE_2
100
AcDbAlignedDimension
 13
165.75
 23
184.0
 14
164.25
 24
184.0
 50
180.0
100
AcDbRotatedDimension
  0
LINE
  5
3BF
100
AcDbEntity
  8
0
100
AcDbLine
 62
2
  6
CONTINUOUS
 10
201.9999978361
 20
266.0000036655
 11
16.9999978361
 21
266.0000036655
  0
LINE
  5
3C0
100
AcDbEntity
  8
0
100
AcDbLine
 62
2
  6
CONTINUOUS
 10
201.9999978361
 20
266.0000036655
 11
201.9999978361
 21
290.0000036655
  0
LINE
  5
3C1
100
AcDbEntity
  8
0
100
AcDbLine
 62
2
  6
CONTINUOUS
 10
201.9999978361
 20
272.0000036655
 11
16.9999978361
 21
272.0000036655
  0
LINE
  5
3C2
100
AcDbEntity
  8
0
100
AcDbLine
 62
2
  6
CONTINUOUS
 10
201.9999978361
 20
278.0000036655
 11
16.9999978361
 21
278.0000036655
  0
LINE
  5
3C3
100
AcDbEntity
  8
0
100
AcDbLine
 62
2
  6
CONTINUOUS
 10
201.9999978361
 20
284.0000036655
 11
16.9999978361
 21
284.0000036655
  0
LINE
  5
3C4
100
AcDbEntity
  8
0
100
AcDbLine
 62
2
  6
CONTINUOUS
 10
201.9999978361
 20
290.0000036655
 11
16.9999978361
 21
290.0000036655
  0
LINE
  5
3C5
100
AcDbEntity
  8
0
100
AcDbLine
 62
2
  6
CONTINUOUS
 10
183.9999978361
 20
266.0000036655
 11
183.9999978361
 21
290.0000036655
  0
LINE
  5
3C6
100
AcDbEntity
  8
0
100
AcDbLine
 62
2
  6
CONTINUOUS
 10
165.9999978361
 20
266.0000036655
 11
165.9999978361
 21
290.0000036655
  0
LINE
  5
3C7
100
AcDbEntity
  8
0
100
AcDbLine
 62
2
  6
CONTINUOUS
 10
147.9999978361
 20
266.0000036655
 11
147.9999978361
 21
290.0000036655
  0
LINE
  5
3C8
100
AcDbEntity
  8
0
100
AcDbLine
 62
2
  6
CONTINUOUS
 10
27.9999978361
 20
266.0000036655
 11
27.9999978361
 21
290.0000036655
  0
LINE
  5
3C9
100
AcDbEntity
  8
0
100
AcDbLine
 62
2
  6
CONTINUOUS
 10
16.9999978361
 20
266.0000036655
 11
16.9999978361
 21
290.0000036655
  0
TEXT
  5
3CA
100
AcDbEntity
  8
0
100
AcDbText
 62
2
  6
CONTINUOUS
 10
21.3382877989
 20
267.7500036655
  7
TEXTSTYLE_1
 40
2.5
  1
A
 41
1.0
 72
1
 11
22.4999978361
 21
267.7500036655
100
AcDbText
  0
TEXT
  5
3CB
100
AcDbEntity
  8
0
100
AcDbText
 62
2
  6
CONTINUOUS
 10
189.6654253454
 20
285.9961838279
  7
TEXTSTYLE_1
 40
2.0
  1
Appr.
 41
1.0
 51
5.0
 72
1
 11
192.9999978361
 21
285.9961838279
100
AcDbText
  0
TEXT
  5
3CC
100
AcDbEntity
  8
0
100
AcDbText
 62
2
  6
CONTINUOUS
 10
173.371745048
 20
285.9961838279
  7
TEXTSTYLE_1
 40
2.0
  1
By
 41
1.0
 51
5.0
 72
1
 11
174.9999978361
 21
285.9961838279
100
AcDbText
  0
TEXT
  5
3CD
100
AcDbEntity
  8
0
100
AcDbText
 62
2
  6
CONTINUOUS
 10
154.0520424457
 20
285.9961838279
  7
TEXTSTYLE_1
 40
2.0
  1
Date
 41
1.0
 51
5.0
 72
1
 11
156.9999978361
 21
285.9961838279
100
AcDbText
  0
TEXT
  5
3CE
100
AcDbEntity
  8
0
100
AcDbText
 62
2
  6
CONTINUOUS
 10
81.0185851967
 20
285.9961838279
  7
TEXTSTYLE_1
 40
2.0
  1
Description
 41
1.0
 51
5.0
 72
1
 11
87.9999978361
 21
285.9961838279
100
AcDbText
  0
TEXT
  5
3CF
100
AcDbEntity
  8
0
100
AcDbText
 62
2
  6
CONTINUOUS
 10
21.1059457915
 20
285.9961838279
  7
TEXTSTYLE_1
 40
2.0
  1
ID
 41
1.0
 51
5.0
 72
1
 11
22.4999978361
 21
285.9961838279
100
AcDbText
  0
LINE
  5
3D0
100
AcDbEntity
  8
0
100
AcDbLine
 62
2
  6
CONTINUOUS
 10
26.9999255792
 20
55.0000012973
 11
201.9999255792
 21
55.0000012973
  0
LINE
  5
3D1
100
AcDbEntity
  8
0
100
AcDbLine
 62
2
  6
CONTINUOUS
 10
26.9999255792
 20
55.0000012973
 11
26.9999255792
 21
49.0000012973
  0
LINE
  5
3D2
100
AcDbEntity
  8
0
100
AcDbLine
 62
2
  6
CONTINUOUS
 10
26.9999255792
 20
49.0000012973
 11
201.9999255792
 21
49.0000012973
  0
LINE
  5
3D3
100
AcDbEntity
  8
0
100
AcDbLine
 62
2
  6
CONTINUOUS
 10
119.9999255792
 20
55.0000012973
 11
119.9999255792
 21
49.0000012973
  0
LINE
  5
3D4
100
AcDbEntity
  8
0
100
AcDbLine
 62
2
  6
CONTINUOUS
 10
201.9999255792
 20
55.0000012973
 11
201.9999255792
 21
49.0000012973
  0
TEXT
  5
3D5
100
AcDbEntity
  8
0
100
AcDbText
 62
2
  6
CONTINUOUS
 10
28.0499255792
 20
51.1216589394
  7
TEXTSTYLE_1
 40
1.75
  1
Material:
 41
1.0
 51
5.0
 72
0
100
AcDbText
  0
TEXT
  5
3D6
100
AcDbEntity
  8
0
100
AcDbText
 62
2
  6
CONTINUOUS
 10
40.0499255792
 20
50.7500012973
  7
TEXTSTYLE_1
 40
2.5
  1
Galvanized steel
 41
1.0
 72
0
100
AcDbText
  0
TEXT
  5
3D7
100
AcDbEntity
  8
0
100
AcDbText
 62
2
  6
CONTINUOUS
 10
121.0499255792
 20
51.1216589394
  7
TEXTSTYLE_1
 40
1.75
  1
Color:
 41
1.0
 51
5.0
 72
0
100
AcDbText
  0
TEXT
  5
3D8
100
AcDbEntity
  8
0
100
AcDbText
 62
2
  6
CONTINUOUS
 10
136.0499255792
 20
50.7500012973
  7
TEXTSTYLE_1
 40
2.5
  1
-
 41
1.0
 72
0
100
AcDbText
  0
LINE
  5
3D9
100
AcDbEntity
  8
0
100
AcDbLine
 62
2
  6
CONTINUOUS
 10
26.9999216353
 20
49.0000005993
 11
119.9999216353
 21
49.0000005993
  0
LINE
  5
3DA
100
AcDbEntity
  8
0
100
AcDbLine
 62
2
  6
CONTINUOUS
 10
26.9999216353
 20
49.0000005993
 11
26.9999216353
 21
43.0000005993
  0
LINE
  5
3DB
100
AcDbEntity
  8
0
100
AcDbLine
 62
2
  6
CONTINUOUS
 10
26.9999216353
 20
43.0000005993
 11
119.9999216353
 21
43.0000005993
  0
LINE
  5
3DC
100
AcDbEntity
  8
0
100
AcDbLine
 62
2
  6
CONTINUOUS
 10
70.9999216353
 20
49.0000005993
 11
70.9999216353
 21
43.0000005993
  0
LINE
  5
3DD
100
AcDbEntity
  8
0
100
AcDbLine
 62
2
  6
CONTINUOUS
 10
119.9999216353
 20
49.0000005993
 11
119.9999216353
 21
43.0000005993
  0
TEXT
  5
3DE
100
AcDbEntity
  8
0
100
AcDbText
 62
2
  6
CONTINUOUS
 10
28.0499216353
 20
45.1216582415
  7
TEXTSTYLE_1
 40
1.75
  1
Supplier:
 41
1.0
 51
5.0
 72
0
100
AcDbText
  0
TEXT
  5
3DF
100
AcDbEntity
  8
0
100
AcDbText
 62
2
  6
CONTINUOUS
 10
81.7250145721
 20
45.1216582415
  7
TEXTSTYLE_1
 40
1.75
  1
Tool No:
 41
1.0
 51
5.0
 72
2
 11
90.9499216353
 21
45.1216582415
100
AcDbText
  0
LINE
  5
3E0
100
AcDbEntity
  8
0
100
AcDbLine
 62
2
  6
CONTINUOUS
 10
119.9999200787
 20
49.0000032543
 11
201.9999200787
 21
49.0000032543
  0
LINE
  5
3E1
100
AcDbEntity
  8
0
100
AcDbLine
 62
2
  6
CONTINUOUS
 10
119.9999200787
 20
49.0000032543
 11
119.9999200787
 21
43.0000032543
  0
LINE
  5
3E2
100
AcDbEntity
  8
0
100
AcDbLine
 62
2
  6
CONTINUOUS
 10
119.9999200787
 20
43.0000032543
 11
201.9999200787
 21
43.0000032543
  0
LINE
  5
3E3
100
AcDbEntity
  8
0
100
AcDbLine
 62
2
  6
CONTINUOUS
 10
161.9999200787
 20
49.0000032543
 11
161.9999200787
 21
43.0000032543
  0
LINE
  5
3E4
100
AcDbEntity
  8
0
100
AcDbLine
 62
2
  6
CONTINUOUS
 10
201.9999200787
 20
49.0000032543
 11
201.9999200787
 21
43.0000032543
  0
TEXT
  5
3E5
100
AcDbEntity
  8
0
100
AcDbText
 62
2
  6
CONTINUOUS
 10
121.1999200787
 20
45.1216608964
  7
TEXTSTYLE_1
 40
1.75
  1
Weight [kg]:
 41
1.0
 51
5.0
 72
0
100
AcDbText
  0
TEXT
  5
3E6
100
AcDbEntity
  8
0
100
AcDbText
 62
2
  6
CONTINUOUS
 10
136.1999200787
 20
44.7500032543
  7
TEXTSTYLE_1
 40
2.5
  1
0.07
 41
1.0
 72
0
100
AcDbText
  0
TEXT
  5
3E7
100
AcDbEntity
  8
0
100
AcDbText
 62
2
  6
CONTINUOUS
 10
163.1999200787
 20
45.1216608964
  7
TEXTSTYLE_1
 40
1.75
  1
Volume:
 41
1.0
 51
5.0
 72
0
100
AcDbText
  0
LINE
  5
3E8
100
AcDbEntity
  8
0
100
AcDbLine
 62
2
  6
CONTINUOUS
 10
201.9999338812
 20
7.0000033963
 11
91.9999338812
 21
7.0000033963
  0
LINE
  5
3E9
100
AcDbEntity
  8
0
100
AcDbLine
 62
2
  6
CONTINUOUS
 10
201.9999338812
 20
7.0000033963
 11
201.9999338812
 21
42.9996033963
  0
LINE
  5
3EA
100
AcDbEntity
  8
0
100
AcDbLine
 62
2
  6
CONTINUOUS
 10
201.9999338812
 20
12.5548033963
 11
161.9999338812
 21
12.5548033963
  0
LINE
  5
3EB
100
AcDbEntity
  8
0
100
AcDbLine
 62
2
  6
CONTINUOUS
 10
201.9999338812
 20
18.7028033963
 11
161.9999338812
 21
18.7028033963
  0
LINE
  5
3EC
100
AcDbEntity
  8
0
100
AcDbLine
 62
2
  6
CONTINUOUS
 10
201.9999338812
 20
24.8512033963
 11
161.9999338812
 21
24.8512033963
  0
LINE
  5
3ED
100
AcDbEntity
  8
0
100
AcDbLine
 62
2
  6
CONTINUOUS
 10
201.9999338812
 20
30.9996033963
 11
161.9999338812
 21
30.9996033963
  0
LINE
  5
3EE
100
AcDbEntity
  8
0
100
AcDbLine
 62
2
  6
CONTINUOUS
 10
201.9999338812
 20
36.9996033963
 11
161.9999338812
 21
36.9996033963
  0
LINE
  5
3EF
100
AcDbEntity
  8
0
100
AcDbLine
 62
2
  6
CONTINUOUS
 10
201.9999338812
 20
42.9996033963
 11
91.9999338812
 21
42.9996033963
  0
LINE
  5
3F0
100
AcDbEntity
  8
0
100
AcDbLine
 62
2
  6
CONTINUOUS
 10
161.9999338812
 20
7.0000033963
 11
161.9999338812
 21
42.9996033963
  0
LINE
  5
3F1
100
AcDbEntity
  8
0
100
AcDbLine
 62
2
  6
CONTINUOUS
 10
91.9999338812
 20
7.0000033963
 11
91.9999338812
 21
42.9996033963
  0
TEXT
  5
3F2
100
AcDbEntity
  8
0
100
AcDbText
 62
2
  6
CONTINUOUS
 10
175.0499338812
 20
8.5548033963
  7
TEXTSTYLE_1
 40
2.5
  1
 
 41
1.0
 72
0
100
AcDbText
  0
TEXT
  5
3F3
100
AcDbEntity
  8
0
100
AcDbText
 62
2
  6
CONTINUOUS
 10
163.0499338812
 20
8.8990610385
  7
TEXTSTYLE_1
 40
1.75
  1
Sheet No:
 41
1.0
 51
5.0
 72
0
100
AcDbText
  0
TEXT
  5
3F4
100
AcDbEntity
  8
0
100
AcDbText
 62
2
  6
CONTINUOUS
 10
126.6133167808
 20
8.5000033963
  7
TEXTSTYLE_1
 40
2.0
  1
 
 41
1.0
 72
1
 11
126.9999338812
 21
8.5000033963
100
AcDbText
  0
TEXT
  5
3F5
100
AcDbEntity
  8
0
100
AcDbText
 62
2
  6
CONTINUOUS
 10
175.0499338812
 20
14.7028033963
  7
TEXTSTYLE_1
 40
2.5
  1
DMP0812
 41
1.0
 72
0
100
AcDbText
  0
TEXT
  5
3F6
100
AcDbEntity
  8
0
100
AcDbText
 62
2
  6
CONTINUOUS
 10
163.0499338812
 20
14.7504610385
  7
TEXTSTYLE_1
 40
1.75
  1
Code:
 41
1.0
 51
5.0
 72
0
100
AcDbText
  0
TEXT
  5
3F7
100
AcDbEntity
  8
0
100
AcDbText
 62
2
  6
CONTINUOUS
 10
126.5166625057
 20
14.0548033963
  7
TEXTSTYLE_1
 40
2.5
  1
 
 41
1.0
 72
1
 11
126.9999338812
 21
14.0548033963
100
AcDbText
  0
TEXT
  5
3F8
100
AcDbEntity
  8
0
100
AcDbText
 62
2
  6
CONTINUOUS
 10
175.0499338812
 20
20.8512033963
  7
TEXTSTYLE_1
 40
2.5
  1
Cubo D
 41
1.0
 72
0
100
AcDbText
  0
TEXT
  5
3F9
100
AcDbEntity
  8
0
100
AcDbText
 62
2
  6
CONTINUOUS
 10
163.0499338812
 20
20.8986610385
  7
TEXTSTYLE_1
 40
1.75
  1
Ref:
 41
1.0
 51
5.0
 72
0
100
AcDbText
  0
TEXT
  5
3FA
100
AcDbEntity
  8
0
100
AcDbText
 62
2
  6
CONTINUOUS
 10
126.4200082307
 20
20.2028033963
  7
TEXTSTYLE_1
 40
3.0
  1
 
 41
1.0
 72
1
 11
126.9999338812
 21
20.2028033963
100
AcDbText
  0
TEXT
  5
3FB
100
AcDbEntity
  8
0
100
AcDbText
 62
2
  6
CONTINUOUS
 10
192.0499338812
 20
26.9996033963
  7
TEXTSTYLE_1
 40
2.5
  1
A
 41
1.0
 72
0
100
AcDbText
  0
TEXT
  5
3FC
100
AcDbEntity
  8
0
100
AcDbText
 62
2
  6
CONTINUOUS
 10
163.0499338812
 20
27.0470610385
  7
TEXTSTYLE_1
 40
1.75
  1
Drw No:
 41
1.0
 51
5.0
 72
0
100
AcDbText
  0
TEXT
  5
3FD
100
AcDbEntity
  8
0
100
AcDbText
 62
2
  6
CONTINUOUS
 10
126.4200082307
 20
26.3512033963
  7
TEXTSTYLE_1
 40
3.0
  1
 
 41
1.0
 72
1
 11
126.9999338812
 21
26.3512033963
100
AcDbText
  0
TEXT
  5
3FE
100
AcDbEntity
  8
0
100
AcDbText
 62
2
  6
CONTINUOUS
 10
175.0499338812
 20
32.9996033963
  7
TEXTSTYLE_1
 40
2.5
  1
 
 41
1.0
 72
0
100
AcDbText
  0
TEXT
  5
3FF
100
AcDbEntity
  8
0
100
AcDbText
 62
2
  6
CONTINUOUS
 10
163.0499338812
 20
33.1212610385
  7
TEXTSTYLE_1
 40
1.75
  1
Replaced:
 41
1.0
 51
5.0
 72
0
100
AcDbText
  0
TEXT
  5
400
100
AcDbEntity
  8
0
100
AcDbText
 62
2
  6
CONTINUOUS
 10
114.5910119481
 20
32.4996033963
  7
TEXTSTYLE_1
 40
4.0
  1
DMP0812
 41
1.0
 72
1
 11
126.9999338812
 21
32.4996033963
100
AcDbText
  0
TEXT
  5
401
100
AcDbEntity
  8
0
100
AcDbText
 62
2
  6
CONTINUOUS
 10
175.0499338812
 20
38.9996033963
  7
TEXTSTYLE_1
 40
2.5
  1
 
 41
1.0
 72
0
100
AcDbText
  0
TEXT
  5
402
100
AcDbEntity
  8
0
100
AcDbText
 62
2
  6
CONTINUOUS
 10
163.0499338812
 20
39.1212610385
  7
TEXTSTYLE_1
 40
1.75
  1
Replaces:
 41
1.0
 51
5.0
 72
0
100
AcDbText
  0
LINE
  5
403
100
AcDbEntity
  8
0
100
AcDbLine
 62
2
  6
CONTINUOUS
 10
91.9999338817
 20
7.0000034085
 11
26.9999338817
 21
7.0000034085
  0
LINE
  5
404
100
AcDbEntity
  8
0
100
AcDbLine
 62
2
  6
CONTINUOUS
 10
91.9999338817
 20
7.0000034085
 11
91.9999338817
 21
43.0000034085
  0
LINE
  5
405
100
AcDbEntity
  8
0
100
AcDbLine
 62
2
  6
CONTINUOUS
 10
91.9999338817
 20
12.0000034085
 11
56.9999338817
 21
12.0000034085
  0
LINE
  5
406
100
AcDbEntity
  8
0
100
AcDbLine
 62
2
  6
CONTINUOUS
 10
91.9999338817
 20
17.0000034085
 11
56.9999338817
 21
17.0000034085
  0
LINE
  5
407
100
AcDbEntity
  8
0
100
AcDbLine
 62
2
  6
CONTINUOUS
 10
91.9999338817
 20
22.0000034085
 11
26.9999338817
 21
22.0000034085
  0
LINE
  5
408
100
AcDbEntity
  8
0
100
AcDbLine
 62
2
  6
CONTINUOUS
 10
91.9999338817
 20
27.0000034085
 11
26.9999338817
 21
27.0000034085
  0
LINE
  5
409
100
AcDbEntity
  8
0
100
AcDbLine
 62
2
  6
CONTINUOUS
 10
91.9999338817
 20
43.0000034085
 11
26.9999338817
 21
43.0000034085
  0
LINE
  5
40A
100
AcDbEntity
  8
0
100
AcDbLine
 62
2
  6
CONTINUOUS
 10
70.9999338817
 20
7.0000034085
 11
70.9999338817
 21
43.0000034085
  0
LINE
  5
40B
100
AcDbEntity
  8
0
100
AcDbLine
 62
2
  6
CONTINUOUS
 10
56.9999338817
 20
7.0000034085
 11
56.9999338817
 21
27.0000034085
  0
LINE
  5
40C
100
AcDbEntity
  8
0
100
AcDbLine
 62
2
  6
CONTINUOUS
 10
26.9999338817
 20
7.0000034085
 11
26.9999338817
 21
43.0000034085
  0
TEXT
  5
40D
100
AcDbEntity
  8
0
100
AcDbText
 62
2
  6
CONTINUOUS
 10
72.0499338817
 20
8.2500034085
  7
TEXTSTYLE_1
 40
2.5
  1
 
 41
1.0
 72
0
100
AcDbText
  0
TEXT
  5
40E
100
AcDbEntity
  8
0
100
AcDbText
 62
2
  6
CONTINUOUS
 10
58.0499338817
 20
8.6216610506
  7
TEXTSTYLE_1
 40
1.75
  1
Ctrl
 41
1.0
 51
5.0
 72
0
100
AcDbText
  0
TEXT
  5
40F
100
AcDbEntity
  8
0
100
AcDbText
 62
2
  6
CONTINUOUS
 10
41.4190788631
 20
8.2500034085
  7
TEXTSTYLE_1
 40
2.5
  1
-
 41
1.0
 72
1
 11
41.9999338817
 21
8.2500034085
100
AcDbText
  0
TEXT
  5
410
100
AcDbEntity
  8
0
100
AcDbText
 62
2
  6
CONTINUOUS
 10
72.0499338817
 20
13.2500034085
  7
TEXTSTYLE_1
 40
2.5
  1
 
 41
1.0
 72
0
100
AcDbText
  0
TEXT
  5
411
100
AcDbEntity
  8
0
100
AcDbText
 62
2
  6
CONTINUOUS
 10
58.0499338817
 20
13.6216610506
  7
TEXTSTYLE_1
 40
1.75
  1
Checked
 41
1.0
 51
5.0
 72
0
100
AcDbText
  0
TEXT
  5
412
100
AcDbEntity
  8
0
100
AcDbText
 62
2
  6
CONTINUOUS
 10
41.4190788631
 20
13.2500034085
  7
TEXTSTYLE_1
 40
2.5
  1
-
 41
1.0
 72
1
 11
41.9999338817
 21
13.2500034085
100
AcDbText
  0
TEXT
  5
413
100
AcDbEntity
  8
0
100
AcDbText
 62
2
  6
CONTINUOUS
 10
72.0499338817
 20
18.2500034085
  7
TEXTSTYLE_1
 40
2.5
  1
PLe
 41
1.0
 72
0
100
AcDbText
  0
TEXT
  5
414
100
AcDbEntity
  8
0
100
AcDbText
 62
2
  6
CONTINUOUS
 10
58.0499338817
 20
18.6216610506
  7
TEXTSTYLE_1
 40
1.75
  1
By
 41
1.0
 51
5.0
 72
0
100
AcDbText
  0
TEXT
  5
415
100
AcDbEntity
  8
0
100
AcDbText
 62
2
  6
CONTINUOUS
 10
39.0891532126
 20
18.0000034085
  7
TEXTSTYLE_1
 40
3.0
  1
1:1
 41
1.0
 72
1
 11
41.9999338817
 21
18.0000034085
100
AcDbText
  0
TEXT
  5
416
100
AcDbEntity
  8
0
100
AcDbText
 62
2
  6
CONTINUOUS
 10
72.0499338817
 20
23.2500034085
  7
TEXTSTYLE_1
 40
2.5
  1
03.02.09
 41
1.0
 72
0
100
AcDbText
  0
TEXT
  5
417
100
AcDbEntity
  8
0
100
AcDbText
 62
2
  6
CONTINUOUS
 10
58.0499338817
 20
23.6216610506
  7
TEXTSTYLE_1
 40
1.75
  1
Date
 41
1.0
 51
5.0
 72
0
100
AcDbText
  0
TEXT
  5
418
100
AcDbEntity
  8
0
100
AcDbText
 62
2
  6
CONTINUOUS
 10
38.945565852
 20
23.6216610506
  7
TEXTSTYLE_1
 40
1.75
  1
Scale
 41
1.0
 51
5.0
 72
1
 11
41.9999338817
 21
23.6216610506
100
AcDbText
  0
LINE
  5
419
100
AcDbEntity
  8
0
100
AcDbLine
 62
2
  6
CONTINUOUS
 10
26.9999338006
 20
43.0000035528
 11
70.9999338006
 21
43.0000035528
  0
LINE
  5
41A
100
AcDbEntity
  8
0
100
AcDbLine
 62
2
  6
CONTINUOUS
 10
26.9999338006
 20
43.0000035528
 11
26.9999338006
 21
27.0000035528
  0
LINE
  5
41B
100
AcDbEntity
  8
0
100
AcDbLine
 62
2
  6
CONTINUOUS
 10
26.9999338006
 20
27.0000035528
 11
70.9999338006
 21
27.0000035528
  0
LINE
  5
41C
100
AcDbEntity
  8
0
100
AcDbLine
 62
2
  6
CONTINUOUS
 10
70.9999338006
 20
43.0000035528
 11
70.9999338006
 21
27.0000035528
  0
TEXT
  5
41D
100
AcDbEntity
  8
0
100
AcDbText
 62
2
  6
CONTINUOUS
 10
30.2635025738
 20
28.7000035528
  7
TEXTSTYLE_1
 40
2.6
  1
ENSTO CONTROL OY
 41
1.0
 72
1
 11
48.9999338006
 21
28.7000035528
100
AcDbText
  0
LINE
  5
41E
100
AcDbEntity
  8
0
100
AcDbLine
 62
2
  6
CONTINUOUS
 10
16.9999254007
 20
7.0000024496
 11
16.9999254007
 21
49.0000024496
  0
LINE
  5
41F
100
AcDbEntity
  8
0
100
AcDbLine
 62
2
  6
CONTINUOUS
 10
16.9999254007
 20
7.0000024496
 11
26.9999254007
 21
7.0000024496
  0
LINE
  5
420
100
AcDbEntity
  8
0
100
AcDbLine
 62
2
  6
CONTINUOUS
 10
21.9999254007
 20
7.0000024496
 11
21.9999254007
 21
49.0000024496
  0
LINE
  5
421
100
AcDbEntity
  8
0
100
AcDbLine
 62
2
  6
CONTINUOUS
 10
26.9999254007
 20
7.0000024496
 11
26.9999254007
 21
49.0000024496
  0
LINE
  5
422
100
AcDbEntity
  8
0
100
AcDbLine
 62
2
  6
CONTINUOUS
 10
16.9999254007
 20
49.0000024496
 11
26.9999254007
 21
49.0000024496
  0
TEXT
  5
423
100
AcDbEntity
  8
0
100
AcDbText
 62
2
  6
CONTINUOUS
 10
20.2527902789
 20
8.0500024496
  7
TEXTSTYLE_1
 40
1.5
  1
model
 50
90.0
 41
1.0
 51
5.0
 72
0
100
AcDbText
  0
MTEXT
  5
424
100
AcDbEntity
  8
0
100
AcDbMText
 62
2
  6
CONTINUOUS
  7
TEXTSTYLE_1
 71
1
 72
1
 10
18.2499254007
 20
18.0500024496
 30
0.0
 11
0.0
 21
1.0
 31
0.0
  1
DMP0812_\H1.0000000000;.PART
 40
2.5
 41
21.594795539
  0
TEXT
  5
425
100
AcDbEntity
  8
0
100
AcDbText
 62
2
  6
CONTINUOUS
 10
25.2527902789
 20
8.0500024496
  7
TEXTSTYLE_1
 40
1.5
  1
drawing
 50
90.0
 41
1.0
 51
5.0
 72
0
100
AcDbText
  0
MTEXT
  5
426
100
AcDbEntity
  8
0
100
AcDbMText
 62
2
  6
CONTINUOUS
  7
TEXTSTYLE_1
 71
1
 72
1
 10
23.2499254007
 20
18.0500024496
 30
0.0
 11
0.0
 21
1.0
 31
0.0
  1
DMP\H1.0000000000;.DRAWING
 40
2.5
 41
14.8680297398
  0
LINE
  5
427
100
AcDbEntity
  8
0
100
AcDbLine
 62
7
  6
CONTINUOUS
 10
17.0
 20
7.0
 11
202.0
 21
7.0
  0
LINE
  5
428
100
AcDbEntity
  8
0
100
AcDbLine
 62
2
  6
CONTINUOUS
 10
72.6876968233
 20
34.8664854626
 11
89.3903951458
 21
34.8664854626
  0
LINE
  5
429
100
AcDbEntity
  8
0
100
AcDbLine
 62
7
  6
CONTINUOUS
 10
74.6149312451
 20
33.5816625147
 11
81.0390459845
 21
32.2968395668
  0
LINE
  5
42A
100
AcDbEntity
  8
0
100
AcDbLine
 62
7
  6
CONTINUOUS
 10
74.6149312451
 20
36.1513084105
 11
81.0390459845
 21
37.4361313584
  0
LINE
  5
42B
100
AcDbEntity
  8
0
100
AcDbLine
 62
2
  6
CONTINUOUS
 10
202.0
 20
43.0
 11
200.0
 21
43.0
  0
LINE
  5
42C
100
AcDbEntity
  8
0
100
AcDbLine
 62
7
  6
CONTINUOUS
 10
17.0
 20
7.0
 11
17.0
 21
290.0
  0
LINE
  5
42D
100
AcDbEntity
  8
0
100
AcDbLine
 62
2
  6
CONTINUOUS
 10
27.0
 20
7.0
 11
27.0
 21
9.0
  0
LINE
  5
42E
100
AcDbEntity
  8
0
100
AcDbLine
 62
7
  6
CONTINUOUS
 10
74.6149312451
 20
33.5816625147
 11
74.6149312451
 21
36.1513084105
  0
LINE
  5
42F
100
AcDbEntity
  8
0
100
AcDbLine
 62
7
  6
CONTINUOUS
 10
81.0390459845
 20
37.4361313584
 11
81.0390459845
 21
32.2968395668
  0
LINE
  5
430
100
AcDbEntity
  8
0
100
AcDbLine
 62
2
  6
CONTINUOUS
 10
86.1783377761
 20
38.0785428323
 11
86.1783377761
 21
31.6544280929
  0
LINE
  5
431
100
AcDbEntity
  8
0
100
AcDbLine
 62
2
  6
CONTINUOUS
 10
92.0
 20
7.0
 11
92.0
 21
9.0
  0
LINE
  5
432
100
AcDbEntity
  8
0
100
AcDbLine
 62
2
  6
CONTINUOUS
 10
17.0
 20
150.5
 11
12.0
 21
150.5
  0
LINE
  5
433
100
AcDbEntity
  8
0
100
AcDbLine
 62
7
  6
CONTINUOUS
 10
202.0
 20
7.0
 11
202.0
 21
290.0
  0
LINE
  5
434
100
AcDbEntity
  8
0
100
AcDbLine
 62
7
  6
CONTINUOUS
 10
17.0
 20
290.0
 11
202.0
 21
290.0
  0
LINE
  5
435
100
AcDbEntity
  8
0
100
AcDbLine
 62
7
  6
CONTINUOUS
 10
40.5
 20
182.5
 11
38.5
 21
180.5
  0
LINE
  5
436
100
AcDbEntity
  8
0
100
AcDbLine
 62
7
  6
CONTINUOUS
 10
38.5
 20
119.5
 11
40.5
 21
117.5
  0
LINE
  5
437
100
AcDbEntity
  8
0
100
AcDbLine
 62
7
  6
CONTINUOUS
 10
38.5
 20
180.5
 11
38.5
 21
119.5
  0
LINE
  5
438
100
AcDbEntity
  8
0
100
AcDbLine
 62
7
  6
CONTINUOUS
 10
42.25
 20
182.5
 11
42.25
 21
179.0
  0
LINE
  5
439
100
AcDbEntity
  8
0
100
AcDbLine
 62
7
  6
CONTINUOUS
 10
42.25
 20
117.5
 11
42.25
 21
121.0
  0
LINE
  5
43A
100
AcDbEntity
  8
DEFAULT_1
100
AcDbLine
 62
7
  6
CENTER
 10
44.25
 20
179.0
 11
44.25
 21
174.5
  0
LINE
  5
43B
100
AcDbEntity
  8
DEFAULT_1
100
AcDbLine
 62
7
  6
CENTER
 10
44.25
 20
121.0
 11
44.25
 21
116.5
  0
LINE
  5
43C
100
AcDbEntity
  8
DEFAULT_1
100
AcDbLine
 62
7
  6
CENTER
 10
44.25
 20
121.0
 11
44.25
 21
125.5
  0
LINE
  5
43D
100
AcDbEntity
  8
DEFAULT_1
100
AcDbLine
 62
7
  6
CENTER
 10
44.25
 20
179.0
 11
44.25
 21
183.5
  0
LINE
  5
43E
100
AcDbEntity
  8
0
100
AcDbLine
 62
7
  6
CONTINUOUS
 10
46.25
 20
182.5
 11
46.25
 21
179.0
  0
LINE
  5
43F
100
AcDbEntity
  8
0
100
AcDbLine
 62
7
  6
CONTINUOUS
 10
46.25
 20
117.5
 11
46.25
 21
121.0
  0
LINE
  5
440
100
AcDbEntity
  8
0
100
AcDbLine
 62
7
  6
CONTINUOUS
 10
40.5
 20
117.5
 11
42.25
 21
117.5
  0
LINE
  5
441
100
AcDbEntity
  8
0
100
AcDbLine
 62
7
  6
CONTINUOUS
 10
46.25
 20
117.5
 11
123.75
 21
117.5
  0
LINE
  5
442
100
AcDbEntity
  8
0
100
AcDbLine
 62
7
  6
CONTINUOUS
 10
127.75
 20
117.5
 11
129.5
 21
117.5
  0
LINE
  5
443
100
AcDbEntity
  8
DEFAULT_1
100
AcDbLine
 62
7
  6
CENTER
 10
125.75
 20
121.0
 11
121.25
 21
121.0
  0
LINE
  5
444
100
AcDbEntity
  8
DEFAULT_1
100
AcDbLine
 62
7
  6
CENTER
 10
44.25
 20
121.0
 11
39.75
 21
121.0
  0
LINE
  5
445
100
AcDbEntity
  8
DEFAULT_1
100
AcDbLine
 62
7
  6
CENTER
 10
44.25
 20
121.0
 11
48.75
 21
121.0
  0
LINE
  5
446
100
AcDbEntity
  8
DEFAULT_1
100
AcDbLine
 62
7
  6
CENTER
 10
125.75
 20
121.0
 11
130.25
 21
121.0
  0
LINE
  5
447
100
AcDbEntity
  8
DEFAULT_1
100
AcDbLine
 62
7
  6
CENTER
 10
125.75
 20
179.0
 11
121.25
 21
179.0
  0
LINE
  5
448
100
AcDbEntity
  8
DEFAULT_1
100
AcDbLine
 62
7
  6
CENTER
 10
44.25
 20
179.0
 11
39.75
 21
179.0
  0
LINE
  5
449
100
AcDbEntity
  8
DEFAULT_1
100
AcDbLine
 62
7
  6
CENTER
 10
44.25
 20
179.0
 11
48.75
 21
179.0
  0
LINE
  5
44A
100
AcDbEntity
  8
DEFAULT_1
100
AcDbLine
 62
7
  6
CENTER
 10
125.75
 20
179.0
 11
130.25
 21
179.0
  0
LINE
  5
44B
100
AcDbEntity
  8
0
100
AcDbLine
 62
7
  6
CONTINUOUS
 10
129.5
 20
182.5
 11
127.75
 21
182.5
  0
LINE
  5
44C
100
AcDbEntity
  8
0
100
AcDbLine
 62
7
  6
CONTINUOUS
 10
123.75
 20
182.5
 11
46.25
 21
182.5
  0
LINE
  5
44D
100
AcDbEntity
  8
0
100
AcDbLine
 62
7
  6
CONTINUOUS
 10
42.25
 20
182.5
 11
40.5
 21
182.5
  0
LINE
  5
44E
100
AcDbEntity
  8
0
100
AcDbLine
 62
7
  6
CONTINUOUS
 10
123.75
 20
182.5
 11
123.75
 21
179.0
  0
LINE
  5
44F
100
AcDbEntity
  8
0
100
AcDbLine
 62
7
  6
CONTINUOUS
 10
123.75
 20
117.5
 11
123.75
 21
121.0
  0
LINE
  5
450
100
AcDbEntity
  8
DEFAULT_1
100
AcDbLine
 62
7
  6
CENTER
 10
125.75
 20
179.0
 11
125.75
 21
174.5
  0
LINE
  5
451
100
AcDbEntity
  8
DEFAULT_1
100
AcDbLine
 62
7
  6
CENTER
 10
125.75
 20
121.0
 11
125.75
 21
116.5
  0
LINE
  5
452
100
AcDbEntity
  8
DEFAULT_1
100
AcDbLine
 62
7
  6
CENTER
 10
125.75
 20
121.0
 11
125.75
 21
125.5
  0
LINE
  5
453
100
AcDbEntity
  8
DEFAULT_1
100
AcDbLine
 62
7
  6
CENTER
 10
125.75
 20
179.0
 11
125.75
 21
183.5
  0
LINE
  5
454
100
AcDbEntity
  8
0
100
AcDbLine
 62
7
  6
CONTINUOUS
 10
127.75
 20
182.5
 11
127.75
 21
179.0
  0
LINE
  5
455
100
AcDbEntity
  8
0
100
AcDbLine
 62
7
  6
CONTINUOUS
 10
127.75
 20
117.5
 11
127.75
 21
121.0
  0
LINE
  5
456
100
AcDbEntity
  8
0
100
AcDbLine
 62
7
  6
CONTINUOUS
 10
131.5
 20
119.5
 11
131.5
 21
180.5
  0
LINE
  5
457
100
AcDbEntity
  8
0
100
AcDbLine
 62
7
  6
CONTINUOUS
 10
129.5
 20
117.5
 11
131.5
 21
119.5
  0
LINE
  5
458
100
AcDbEntity
  8
0
100
AcDbLine
 62
7
  6
CONTINUOUS
 10
131.5
 20
180.5
 11
129.5
 21
182.5
  0
LINE
  5
459
100
AcDbEntity
  8
0
100
AcDbLine
 62
7
  6
CONTINUOUS
 10
164.25
 20
117.5
 11
165.75
 21
117.5
  0
LINE
  5
45A
100
AcDbEntity
  8
0
100
AcDbLine
 62
7
  6
CONTINUOUS
 10
164.25
 20
119.5
 11
165.75
 21
119.5
  0
LINE
  5
45B
100
AcDbEntity
  8
0
100
AcDbLine
 62
7
  6
CONTINUOUS
 10
164.25
 20
182.5
 11
164.25
 21
117.5
  0
LINE
  5
45C
100
AcDbEntity
  8
0
100
AcDbLine
 62
7
  6
CONTINUOUS
 10
165.75
 20
182.5
 11
165.75
 21
117.5
  0
LINE
  5
45D
100
AcDbEntity
  8
0
100
AcDbLine
 62
7
  6
CONTINUOUS
 10
164.25
 20
180.5
 11
165.75
 21
180.5
  0
LINE
  5
45E
100
AcDbEntity
  8
0
100
AcDbLine
 62
7
  6
CONTINUOUS
 10
164.25
 20
182.5
 11
165.75
 21
182.5
  0
CIRCLE
  5
45F
100
AcDbEntity
  8
0
100
AcDbCircle
 62
7
  6
CONTINUOUS
 10
86.1783377761
 20
34.8664854626
 40
2.5696458958
  0
CIRCLE
  5
460
100
AcDbEntity
  8
0
100
AcDbCircle
 62
7
  6
CONTINUOUS
 10
86.1783377761
 20
34.8664854626
 40
1.2848229479
  0
ARC
  5
461
100
AcDbEntity
  8
0
100
AcDbCircle
 62
7
  6
CONTINUOUS
 10
125.75
 20
179.0
 40
2.0
100
AcDbArc
 50
180.0
 51
360.0
  0
ARC
  5
462
100
AcDbEntity
  8
0
100
AcDbCircle
 62
7
  6
CONTINUOUS
 10
44.25
 20
179.0
 40
2.0
100
AcDbArc
 50
180.0
 51
360.0
  0
ARC
  5
463
100
AcDbEntity
  8
0
100
AcDbCircle
 62
7
  6
CONTINUOUS
 10
44.25
 20
121.0
 40
2.0
100
AcDbArc
 50
0.0
 51
180.0
  0
ARC
  5
464
100
AcDbEntity
  8
0
100
AcDbCircle
 62
7
  6
CONTINUOUS
 10
125.75
 20
121.0
 40
2.0
100
AcDbArc
 50
0.0
 51
180.0
  0
ENDSEC
  0
SECTION
  2
OBJECTS
  0
DICTIONARY
  5
C
100
AcDbDictionary
280
0
281
1
  3
ACAD_GROUP
350
D
  3
ACAD_MLINESTYLE
350
17
  3
ACAD_LAYOUT
350
1A
  3
ACAD_PLOTSETTINGS
350
19
  3
ACAD_PLOTSTYLENAME
350
E
  0
DICTIONARY
  5
D
102
{ACAD_REACTORS
330
C
102
}
100
AcDbDictionary
280
0
281
1
  0
ACDBDICTIONARYWDFLT
  5
E
102
{ACAD_REACTORS
330
C
102
}
100
AcDbDictionary
281
1
  3
Normal
350
F
100
AcDbDictionaryWithDefault
340
F
  0
DICTIONARY
  5
17
102
{ACAD_REACTORS
330
C
102
}
100
AcDbDictionary
280
0
281
1
  3
Standard
350
18
  0
DICTIONARY
  5
19
102
{ACAD_REACTORS
330
C
102
}
100
AcDbDictionary
281
1
  0
DICTIONARY
  5
1A
102
{ACAD_REACTORS
330
C
102
}
100
AcDbDictionary
281
1
  3
Layout1
350
1E
  3
Model
350
22
  0
ACDBPLACEHOLDER
  5
F
102
{ACAD_REACTORS
330
E
102
}
  0
MLINESTYLE
  5
18
102
{ACAD_REACTORS
330
17
102
}
100
AcDbMlineStyle
  2
STANDARD
 70
0
  3

 62
256
 51
90.0
 52
90.0
 71
2
 49
0.5
 62
256
  6
BYLAYER
 49
-0.5
 62
256
  6
BYLAYER
  0
LAYOUT
  5
1E
102
{ACAD_REACTORS
330
1A
102
}
100
AcDbPlotSettings
  1

  2

  4

  6

 40
0.0
 41
0.0
 42
0.0
 43
0.0
 44
0.0
 45
0.0
 46
0.0
 47
0.0
 48
0.0
 49
0.0
140
0.0
141
0.0
142
1.0
143
1.0
 70
0
 72
0
 73
0
 74
0
  7

 75
0
147
1.0
148
0.0
149
0.0
100
AcDbLayout
  1
Layout1
 70
0
 71
0
 10
0.0
 20
0.0
 11
0.0
 21
0.0
 12
0.0
 22
0.0
 32
0.0
 14
0.0
 24
0.0
 34
0.0
 15
0.0
 25
0.0
 35
0.0
146
0.0
 13
0.0
 23
0.0
 33
0.0
 16
0.0
 26
0.0
 36
0.0
 17
0.0
 27
0.0
 37
0.0
 76
0
330
1B
331
0
345
0
346
0
  0
LAYOUT
  5
22
102
{ACAD_REACTORS
330
1A
102
}
100
AcDbPlotSettings
  1

  2

  4

  6

 40
0.0
 41
0.0
 42
0.0
 43
0.0
 44
0.0
 45
0.0
 46
0.0
 47
0.0
 48
0.0
 49
0.0
140
0.0
141
0.0
142
1.0
143
1.0
 70
1024
 72
0
 73
0
 74
0
  7

 75
0
147
1.0
148
0.0
149
0.0
100
AcDbLayout
  1
Model
 70
0
 71
0
 10
0.0
 20
0.0
 11
0.0
 21
0.0
 12
0.0
 22
0.0
 32
0.0
 14
0.0
 24
0.0
 34
0.0
 15
0.0
 25
0.0
 35
0.0
146
0.0
 13
0.0
 23
0.0
 33
0.0
 16
0.0
 26
0.0
 36
0.0
 17
0.0
 27
0.0
 37
0.0
 76
0
330
1F
331
0
345
0
346
0
  0
ENDSEC
  0
EOF
