999
DXF file: BVD22_PK1.dxf
999
Pro/ENGINEER 2013230 by Parametric Technology Corporation
  0
SECTION
  2
HEADER
  9
$ACADVER
  1
AC1021
  9
$DWGCODEPAGE
  3
ANSI_1252
  9
$EXTMAX
 10
210.0
 20
297.0
 30
0.0
  9
$EXTMIN
 10
0.0
 20
0.0
 30
0.0
  9
$LIMMIN
 10
0.0
 20
0.0
  9
$LIMMAX
 10
210.0
 20
297.0
  9
$VIEWCTR
 10
105.0
 20
148.5
  9
$VIEWSIZE
 40
297.0
  9
$CLAYER
  8
0
  9
$LTSCALE
 40
19.36
  9
$CELTYPE
  6
BYLAYER
  9
$DIMSCALE
 40
1.0
  9
$DIMASZ
 40
2.0
  9
$DIMEXO
 40
1.5
  9
$DIMDLI
 40
13.376
  9
$DIMEXE
 40
1.0
  9
$DIMCEN
 40
3.168
  9
$DIMLFAC
 40
1.0
  9
$DIMBLK
  1
_FILLED
  9
$DIMTXT
 40
2.0
  9
$DIMTOL
 70
1
  9
$DIMLIM
 70
0
  9
$DIMTFAC
 40
1.0
  9
$DIMTP
 40
0.01
  9
$DIMTM
 40
0.01
  9
$DIMGAP
 40
0.625
  9
$DIMDSEP
 70
46
  9
$PDMODE
 70
3
  9
$PDSIZE
 40
0.1
  9
$HANDSEED
  5
6B3
  9
$TILEMODE
 70
1
  9
$MEASUREMENT
 70
1
  9
$INSUNITS
 70
4
  0
ENDSEC
  0
SECTION
  2
CLASSES
  0
CLASS
  1
ACDBDICTIONARYWDFLT
  2
AcDbDictionaryWithDefault
  3
AutoCAD 2000
 90
0
 91
1
280
0
281
0
  0
CLASS
  1
ACDBPLACEHOLDER
  2
AcDbPlaceHolder
  3
AutoCAD 2000
 90
0
 91
1
280
0
281
0
  0
CLASS
  1
LAYOUT
  2
AcDbLayout
  3
AutoCAD 2000
 90
0
 91
0
280
0
281
0
  0
CLASS
  1
TABLESTYLE
  2
AcDbTableStyle
  3
ObjectDBX Classes
 90
2047
 91
1
280
0
281
0
  0
CLASS
  1
ACAD_TABLE
  2
AcDbTable
  3
ObjectDBX Classes
 90
1025
 91
8
280
0
281
1
  0
ENDSEC
  0
SECTION
  2
TABLES
  0
TABLE
  2
VPORT
  5
8
100
AcDbSymbolTable
 70
2
  0
VPORT
  5
1F4
100
AcDbSymbolTableRecord
100
AcDbViewportTableRecord
  2
*ACTIVE
 70
0
 10
0.0
 20
0.0
 11
1.0
 21
1.0
 12
105.0
 22
148.5
 13
0.0
 23
0.0
 14
1.0
 24
1.0
 15
0.0
 25
0.0
 16
0.0
 26
0.0
 36
1.0
 17
0.0
 27
0.0
 37
0.0
 40
297.0
 41
0.7070707071
 42
50.0
 43
0.0
 44
0.0
 50
0.0
 51
0.0
 71
0
 72
100
 73
1
 74
1
 75
0
 76
0
 77
0
 78
0
  0
ENDTAB
  0
TABLE
  2
LTYPE
  5
5
100
AcDbSymbolTable
 70
6
  0
LTYPE
  5
14
100
AcDbSymbolTableRecord
100
AcDbLinetypeTableRecord
  2
BYBLOCK
 70
0
  3

 72
65
 73
0
 40
0.0
  0
LTYPE
  5
15
100
AcDbSymbolTableRecord
100
AcDbLinetypeTableRecord
  2
BYLAYER
 70
0
  3

 72
65
 73
0
 40
0.0
  0
LTYPE
  5
16
100
AcDbSymbolTableRecord
100
AcDbLinetypeTableRecord
  2
CONTINUOUS
 70
64
  3
Solid line
 72
65
 73
0
 40
0.0
  0
LTYPE
  5
1F5
100
AcDbSymbolTableRecord
100
AcDbLinetypeTableRecord
  2
CENTER
 70
64
  3
____ _ ____ _ ____ _ ____ _ ____ _ ____ _ ____
 72
65
 73
4
 40
0.6
 49
0.375
 74
0
 49
-0.075
 74
0
 49
0.075
 74
0
 49
-0.075
 74
0
  0
LTYPE
  5
1F6
100
AcDbSymbolTableRecord
100
AcDbLinetypeTableRecord
  2
HIDDEN
 70
64
  3
- - - - - - - - - - - - - - - - - - - -
 72
65
 73
2
 40
0.2
 49
0.1
 74
0
 49
-0.1
 74
0
  0
LTYPE
  5
1F7
100
AcDbSymbolTableRecord
100
AcDbLinetypeTableRecord
  2
PHANTOM
 70
64
  3
_____ _ _ _____ _ _ _____ _ _ _____
 72
65
 73
6
 40
0.8
 49
0.45
 74
0
 49
-0.05
 74
0
 49
0.1
 74
0
 49
-0.05
 74
0
 49
0.1
 74
0
 49
-0.05
 74
0
  0
LTYPE
  5
1F8
100
AcDbSymbolTableRecord
100
AcDbLinetypeTableRecord
  2
DOT
 70
64
  3
. . . . . . . . . . . . . . . . . . . .
 72
65
 73
2
 40
0.2
 49
0.1
 74
0
 49
-0.1
 74
0
  0
LTYPE
  5
1F9
100
AcDbSymbolTableRecord
100
AcDbLinetypeTableRecord
  2
DASHED
 70
64
  3
- - - - - - - - - - - - - - - - - - - -
 72
65
 73
2
 40
0.2
 49
0.1
 74
0
 49
-0.1
 74
0
  0
ENDTAB
  0
TABLE
  2
LAYER
  5
2
100
AcDbSymbolTable
 70
36
  0
LAYER
  5
10
100
AcDbSymbolTableRecord
100
AcDbLayerTableRecord
  2
0
 70
0
 62
7
  6
CONTINUOUS
370
-3
390
F
  0
LAYER
  5
1FA
100
AcDbSymbolTableRecord
100
AcDbLayerTableRecord
  2
DEFAULT_1
 70
0
 62
7
  6
CENTER
370
-3
390
F
  0
LAYER
  5
1FB
100
AcDbSymbolTableRecord
100
AcDbLayerTableRecord
  2
DEFAULT_2
 70
0
 62
8
  6
HIDDEN
370
-3
390
F
  0
LAYER
  5
1FC
100
AcDbSymbolTableRecord
100
AcDbLayerTableRecord
  2
DEFAULT_3
 70
0
 62
7
  6
PHANTOM
370
-3
390
F
  0
LAYER
  5
1FD
100
AcDbSymbolTableRecord
100
AcDbLayerTableRecord
  2
CSYS
 70
0
 62
7
  6
CONTINUOUS
370
-3
390
F
  0
LAYER
  5
1FE
100
AcDbSymbolTableRecord
100
AcDbLayerTableRecord
  2
DTM_CSYS
 70
0
 62
7
  6
CONTINUOUS
370
-3
390
F
  0
LAYER
  5
1FF
100
AcDbSymbolTableRecord
100
AcDbLayerTableRecord
  2
DTM_PLANE
 70
0
 62
7
  6
CONTINUOUS
370
-3
390
F
  0
LAYER
  5
200
100
AcDbSymbolTableRecord
100
AcDbLayerTableRecord
  2
NOGEOM
 70
0
 62
7
  6
CONTINUOUS
370
-3
390
F
  0
LAYER
  5
201
100
AcDbSymbolTableRecord
100
AcDbLayerTableRecord
  2
XSEC_DATUMS
 70
0
 62
7
  6
CONTINUOUS
370
-3
390
F
  0
ENDTAB
  0
TABLE
  2
STYLE
  5
3
100
AcDbSymbolTable
 70
1
  0
STYLE
  5
11
100
AcDbSymbolTableRecord
100
AcDbTextStyleTableRecord
  2
STANDARD
 70
0
 40
0.0
 41
1.0
 50
0.0
 71
0
 42
0.2
  3
arial.ttf
  4

  0
STYLE
  5
202
100
AcDbSymbolTableRecord
100
AcDbTextStyleTableRecord
  2
TEXTSTYLE_1
 70
0
 40
0.0
 41
0.8
 50
0.0
 71
0
 42
0.2
  3
gdt
  4

  0
STYLE
  5
203
100
AcDbSymbolTableRecord
100
AcDbTextStyleTableRecord
  2
TEXTSTYLE_2
 70
0
 40
0.0
 41
1.0
 50
0.0
 71
0
 42
0.2
  3
arial.ttf
  4

  0
ENDTAB
  0
TABLE
  2
VIEW
  5
6
100
AcDbSymbolTable
 70
0
  0
ENDTAB
  0
TABLE
  2
UCS
  5
7
100
AcDbSymbolTable
 70
0
  0
ENDTAB
  0
TABLE
  2
APPID
  5
9
100
AcDbSymbolTable
 70
1
  0
APPID
  5
204
100
AcDbSymbolTableRecord
100
AcDbRegAppTableRecord
  2
ACAD
 70
0
  0
ENDTAB
  0
TABLE
  2
BLOCK_RECORD
  5
1
100
AcDbSymbolTable
 70
0
  0
BLOCK_RECORD
  5
205
100
AcDbSymbolTableRecord
100
AcDbBlockTableRecord
  2
*Model_Space
  0
BLOCK_RECORD
  5
206
100
AcDbSymbolTableRecord
100
AcDbBlockTableRecord
  2
*Paper_Space
  0
BLOCK_RECORD
  5
207
100
AcDbSymbolTableRecord
100
AcDbBlockTableRecord
  2
_FILLED
  0
BLOCK_RECORD
  5
208
100
AcDbSymbolTableRecord
100
AcDbBlockTableRecord
  2
*D0
  0
BLOCK_RECORD
  5
209
100
AcDbSymbolTableRecord
100
AcDbBlockTableRecord
  2
*D1
  0
BLOCK_RECORD
  5
20A
100
AcDbSymbolTableRecord
100
AcDbBlockTableRecord
  2
*D2
  0
BLOCK_RECORD
  5
20B
100
AcDbSymbolTableRecord
100
AcDbBlockTableRecord
  2
*D3
  0
BLOCK_RECORD
  5
20C
100
AcDbSymbolTableRecord
100
AcDbBlockTableRecord
  2
*D4
  0
BLOCK_RECORD
  5
20D
100
AcDbSymbolTableRecord
100
AcDbBlockTableRecord
  2
*D5
  0
BLOCK_RECORD
  5
20E
100
AcDbSymbolTableRecord
100
AcDbBlockTableRecord
  2
*D6
  0
BLOCK_RECORD
  5
20F
100
AcDbSymbolTableRecord
100
AcDbBlockTableRecord
  2
*D7
  0
BLOCK_RECORD
  5
210
100
AcDbSymbolTableRecord
100
AcDbBlockTableRecord
  2
*D8
  0
BLOCK_RECORD
  5
211
100
AcDbSymbolTableRecord
100
AcDbBlockTableRecord
  2
*D9
  0
BLOCK_RECORD
  5
212
100
AcDbSymbolTableRecord
100
AcDbBlockTableRecord
  2
SYMBOL_3_BL0
  0
BLOCK_RECORD
  5
213
100
AcDbSymbolTableRecord
100
AcDbBlockTableRecord
  2
*T1
  0
BLOCK_RECORD
  5
214
100
AcDbSymbolTableRecord
100
AcDbBlockTableRecord
  2
*T2
  0
BLOCK_RECORD
  5
215
100
AcDbSymbolTableRecord
100
AcDbBlockTableRecord
  2
*T3
  0
BLOCK_RECORD
  5
216
100
AcDbSymbolTableRecord
100
AcDbBlockTableRecord
  2
*T4
  0
BLOCK_RECORD
  5
217
100
AcDbSymbolTableRecord
100
AcDbBlockTableRecord
  2
*T5
  0
BLOCK_RECORD
  5
218
100
AcDbSymbolTableRecord
100
AcDbBlockTableRecord
  2
*T6
  0
BLOCK_RECORD
  5
219
100
AcDbSymbolTableRecord
100
AcDbBlockTableRecord
  2
*T7
  0
BLOCK_RECORD
  5
21A
100
AcDbSymbolTableRecord
100
AcDbBlockTableRecord
  2
*T8
  0
ENDTAB
  0
TABLE
  2
DIMSTYLE
  5
A
100
AcDbSymbolTable
 70
1
100
AcDbDimStyleTable
 71
0
  0
DIMSTYLE
105
21B
100
AcDbSymbolTableRecord
100
AcDbDimStyleTableRecord
  2
STANDARD
 70
0
  3

  4

 40
1.0
 41
2.0
 42
1.5
 43
0.38
 44
1.0
 45
0.0
 46
0.0
 47
0.01
 48
0.01
140
2.0
141
0.09
142
0.0
143
25.4
144
1.0
145
0.0
146
1.0
147
0.625
 71
1.0
 72
0.0
 73
0
 74
0
 75
0
 76
0
 77
1
 78
8
170
0
171
2
172
0
173
0
174
0
175
0
176
0
177
0
178
0
270
2
271
2
272
2
273
2
274
2
275
0
280
0
281
0
282
0
283
1
284
8
285
0
286
0
287
3
288
0
340
11
278
46
341
207
342
207
343
207
344
207
  0
DIMSTYLE
105
21C
100
AcDbSymbolTableRecord
100
AcDbDimStyleTableRecord
  2
DIMSTYLE_1
 70
0
  3

  4

 40
1.0
 41
2.0
 42
1.5
 43
0.38
 44
1.0
 45
0.0
 46
0.0
 47
0.3
 48
0.3
140
2.0
141
0.09
142
0.0
143
25.4
144
1.0
145
0.0
146
1.0
147
0.5
 71
0.0
 72
0.0
 73
0
 74
0
 75
0
 76
0
 77
1
 78
8
170
0
171
2
172
0
173
0
174
0
175
0
176
0
177
0
178
0
270
2
271
2
272
2
273
2
274
2
275
0
280
0
281
0
282
0
283
1
284
8
285
0
286
0
287
3
288
0
340
11
278
46
341
207
342
207
343
207
344
207
  0
DIMSTYLE
105
21D
100
AcDbSymbolTableRecord
100
AcDbDimStyleTableRecord
  2
DIMSTYLE_2
 70
0
  3

  4

 40
1.0
 41
2.0
 42
1.5
 43
0.38
 44
1.0
 45
0.0
 46
0.0
 47
0.2
 48
0.2
140
2.0
141
0.09
142
0.0
143
25.4
144
1.0
145
0.0
146
1.0
147
0.5
 71
0.0
 72
0.0
 73
0
 74
0
 75
0
 76
0
 77
1
 78
8
170
0
171
2
172
0
173
0
174
0
175
0
176
0
177
0
178
0
270
2
271
2
272
2
273
2
274
2
275
0
280
0
281
0
282
0
283
1
284
8
285
0
286
0
287
3
288
0
340
11
278
46
341
207
342
207
343
207
344
207
  0
DIMSTYLE
105
21E
100
AcDbSymbolTableRecord
100
AcDbDimStyleTableRecord
  2
DIMSTYLE_3
 70
0
  3

  4

 40
1.0
 41
2.0
 42
1.5
 43
0.38
 44
1.0
 45
0.0
 46
0.0
 47
0.3
 48
0.3
140
2.0
141
0.09
142
0.0
143
25.4
144
1.0
145
0.0
146
1.0
147
0.5
 71
0.0
 72
0.0
 73
0
 74
0
 75
0
 76
0
 77
1
 78
8
170
0
171
2
172
0
173
0
174
0
175
0
176
0
177
0
178
0
270
2
271
0
272
0
273
2
274
2
275
0
280
0
281
0
282
0
283
1
284
8
285
0
286
0
287
3
288
0
340
11
278
46
341
207
342
207
343
207
344
207
  0
DIMSTYLE
105
21F
100
AcDbSymbolTableRecord
100
AcDbDimStyleTableRecord
  2
DIMSTYLE_4
 70
0
  3

  4

 40
1.0
 41
2.0
 42
1.5
 43
0.38
 44
1.0
 45
0.0
 46
0.0
 47
0.1
 48
0.1
140
2.0
141
0.09
142
0.0
143
25.4
144
1.0
145
0.0
146
1.0
147
0.5
 71
0.0
 72
0.0
 73
0
 74
0
 75
0
 76
0
 77
1
 78
8
170
0
171
2
172
0
173
0
174
0
175
0
176
0
177
0
178
0
270
2
271
2
272
2
273
2
274
2
275
0
280
0
281
0
282
0
283
1
284
8
285
0
286
0
287
3
288
0
340
11
278
46
341
207
342
207
343
207
344
207
  0
DIMSTYLE
105
220
100
AcDbSymbolTableRecord
100
AcDbDimStyleTableRecord
  2
DIMSTYLE_5
 70
0
  3
<>
  4

 40
1.0
 41
2.0
 42
1.5
 43
0.38
 44
1.0
 45
0.0
 46
0.0
 47
0.2
 48
0.2
140
2.0
141
0.09
142
0.0
143
25.4
144
1.0
145
0.0
146
1.0
147
0.625
 71
0.0
 72
0.0
 73
0
 74
0
 75
0
 76
0
 77
1
 78
8
170
0
171
2
172
1
173
0
174
0
175
0
176
0
177
0
178
0
270
2
271
2
272
2
273
2
274
2
275
0
280
0
281
0
282
0
283
1
284
8
285
0
286
0
287
3
288
1
340
11
278
46
289
2
341
207
342
207
343
207
344
207
  0
ENDTAB
  0
ENDSEC
  0
SECTION
  2
BLOCKS
  0
BLOCK
  5
20
100
AcDbEntity
  8
0
100
AcDbBlockBegin
  2
*Model_Space
 70
0
 10
0.0
 20
0.0
 30
0.0
  3
*Model_Space
  1

  0
ENDBLK
  5
21
100
AcDbEntity
  8
0
100
AcDbBlockEnd
  0
BLOCK
  5
1C
100
AcDbEntity
  8
0
100
AcDbBlockBegin
  2
*Paper_Space
 70
0
 10
0.0
 20
0.0
 30
0.0
  3
*Paper_Space
  1

  0
ENDBLK
  5
1D
100
AcDbEntity
  8
0
100
AcDbBlockEnd
  0
BLOCK
  5
221
100
AcDbEntity
  8
0
100
AcDbBlockBegin
 62
2
  6
CONTINUOUS
  2
SYMBOL_3_BL0
 70
64
 10
49.3918275707
 20
37.5779233823
  3
SYMBOL_3_BL0
  1

  0
LINE
  5
222
100
AcDbEntity
  8
0
100
AcDbLine
 62
7
  6
CONTINUOUS
 10
50.6818276453
 20
34.1219231823
 11
50.0338276078
 21
34.1459231837
  0
LINE
  5
223
100
AcDbEntity
  8
0
100
AcDbLine
 62
7
  6
CONTINUOUS
 10
50.0338276078
 20
34.1459231837
 11
49.397827571
 21
34.2179231879
  0
LINE
  5
224
100
AcDbEntity
  8
0
100
AcDbLine
 62
7
  6
CONTINUOUS
 10
49.397827571
 20
34.2179231879
 11
48.8218275377
 21
34.3139231934
  0
LINE
  5
225
100
AcDbEntity
  8
0
100
AcDbLine
 62
7
  6
CONTINUOUS
 10
48.8218275377
 20
34.3139231934
 11
48.3058275078
 21
34.4339232004
  0
LINE
  5
226
100
AcDbEntity
  8
0
100
AcDbLine
 62
7
  6
CONTINUOUS
 10
48.3058275078
 20
34.4339232004
 11
47.8618274821
 21
34.5539232073
  0
LINE
  5
227
100
AcDbEntity
  8
0
100
AcDbLine
 62
7
  6
CONTINUOUS
 10
47.8618274821
 20
34.5539232073
 11
47.5018274613
 21
34.6739232142
  0
LINE
  5
228
100
AcDbEntity
  8
0
100
AcDbLine
 62
7
  6
CONTINUOUS
 10
47.5018274613
 20
34.6739232142
 11
47.1178274391
 21
34.8059232219
  0
LINE
  5
229
100
AcDbEntity
  8
0
100
AcDbLine
 62
7
  6
CONTINUOUS
 10
47.1178274391
 20
34.8059232219
 11
47.7058274731
 21
36.1499232997
  0
LINE
  5
22A
100
AcDbEntity
  8
0
100
AcDbLine
 62
7
  6
CONTINUOUS
 10
47.7058274731
 20
36.1499232997
 11
48.1978275016
 21
35.9819232899
  0
LINE
  5
22B
100
AcDbEntity
  8
0
100
AcDbLine
 62
7
  6
CONTINUOUS
 10
48.1978275016
 20
35.9819232899
 11
48.9298275439
 21
35.7659232774
  0
LINE
  5
22C
100
AcDbEntity
  8
0
100
AcDbLine
 62
7
  6
CONTINUOUS
 10
48.9298275439
 20
35.7659232774
 11
49.3498275682
 21
35.6699232719
  0
LINE
  5
22D
100
AcDbEntity
  8
0
100
AcDbLine
 62
7
  6
CONTINUOUS
 10
49.3498275682
 20
35.6699232719
 11
49.7938275939
 21
35.585923267
  0
LINE
  5
22E
100
AcDbEntity
  8
0
100
AcDbLine
 62
7
  6
CONTINUOUS
 10
49.7938275939
 20
35.585923267
 11
50.2378276196
 21
35.5259232635
  0
LINE
  5
22F
100
AcDbEntity
  8
0
100
AcDbLine
 62
7
  6
CONTINUOUS
 10
50.2378276196
 20
35.5259232635
 11
50.6698276446
 21
35.5019232622
  0
LINE
  5
230
100
AcDbEntity
  8
0
100
AcDbLine
 62
7
  6
CONTINUOUS
 10
50.6698276446
 20
35.5019232622
 11
51.0298276654
 21
35.5139232629
  0
LINE
  5
231
100
AcDbEntity
  8
0
100
AcDbLine
 62
7
  6
CONTINUOUS
 10
51.0298276654
 20
35.5139232629
 11
51.2458276779
 21
35.5499232649
  0
LINE
  5
232
100
AcDbEntity
  8
0
100
AcDbLine
 62
7
  6
CONTINUOUS
 10
51.2458276779
 20
35.5499232649
 11
51.4738276911
 21
35.5979232677
  0
LINE
  5
233
100
AcDbEntity
  8
0
100
AcDbLine
 62
7
  6
CONTINUOUS
 10
51.4738276911
 20
35.5979232677
 11
51.6778277029
 21
35.6819232726
  0
LINE
  5
234
100
AcDbEntity
  8
0
100
AcDbLine
 62
7
  6
CONTINUOUS
 10
51.6778277029
 20
35.6819232726
 11
51.8458277127
 21
35.8019232795
  0
LINE
  5
235
100
AcDbEntity
  8
0
100
AcDbLine
 62
7
  6
CONTINUOUS
 10
51.8458277127
 20
35.8019232795
 11
51.9058277161
 21
35.8739232837
  0
LINE
  5
236
100
AcDbEntity
  8
0
100
AcDbLine
 62
7
  6
CONTINUOUS
 10
51.9058277161
 20
35.8739232837
 11
51.9538277189
 21
35.9579232885
  0
LINE
  5
237
100
AcDbEntity
  8
0
100
AcDbLine
 62
7
  6
CONTINUOUS
 10
51.9538277189
 20
35.9579232885
 11
51.989827721
 21
36.0539232941
  0
LINE
  5
238
100
AcDbEntity
  8
0
100
AcDbLine
 62
7
  6
CONTINUOUS
 10
51.989827721
 20
36.0539232941
 11
52.0018277217
 21
36.1499232997
  0
LINE
  5
239
100
AcDbEntity
  8
0
100
AcDbLine
 62
7
  6
CONTINUOUS
 10
52.0018277217
 20
36.1499232997
 11
51.9778277203
 21
36.2579233059
  0
LINE
  5
23A
100
AcDbEntity
  8
0
100
AcDbLine
 62
7
  6
CONTINUOUS
 10
51.9778277203
 20
36.2579233059
 11
51.9418277182
 21
36.3539233115
  0
LINE
  5
23B
100
AcDbEntity
  8
0
100
AcDbLine
 62
7
  6
CONTINUOUS
 10
51.9418277182
 20
36.3539233115
 11
51.8818277148
 21
36.4379233163
  0
LINE
  5
23C
100
AcDbEntity
  8
0
100
AcDbLine
 62
7
  6
CONTINUOUS
 10
51.8818277148
 20
36.4379233163
 11
51.7858277092
 21
36.4979233198
  0
LINE
  5
23D
100
AcDbEntity
  8
0
100
AcDbLine
 62
7
  6
CONTINUOUS
 10
51.7858277092
 20
36.4979233198
 11
51.6778277029
 21
36.569923324
  0
LINE
  5
23E
100
AcDbEntity
  8
0
100
AcDbLine
 62
7
  6
CONTINUOUS
 10
51.6778277029
 20
36.569923324
 11
51.557827696
 21
36.6179233267
  0
LINE
  5
23F
100
AcDbEntity
  8
0
100
AcDbLine
 62
7
  6
CONTINUOUS
 10
51.557827696
 20
36.6179233267
 11
51.2458276779
 21
36.7019233316
  0
LINE
  5
240
100
AcDbEntity
  8
0
100
AcDbLine
 62
7
  6
CONTINUOUS
 10
51.2458276779
 20
36.7019233316
 11
50.8858276571
 21
36.7739233358
  0
LINE
  5
241
100
AcDbEntity
  8
0
100
AcDbLine
 62
7
  6
CONTINUOUS
 10
50.8858276571
 20
36.7739233358
 11
50.4898276342
 21
36.8219233385
  0
LINE
  5
242
100
AcDbEntity
  8
0
100
AcDbLine
 62
7
  6
CONTINUOUS
 10
50.4898276342
 20
36.8219233385
 11
49.6138275835
 21
36.9419233455
  0
LINE
  5
243
100
AcDbEntity
  8
0
100
AcDbLine
 62
7
  6
CONTINUOUS
 10
49.6138275835
 20
36.9419233455
 11
49.1698275578
 21
37.0139233497
  0
LINE
  5
244
100
AcDbEntity
  8
0
100
AcDbLine
 62
7
  6
CONTINUOUS
 10
49.1698275578
 20
37.0139233497
 11
48.7378275328
 21
37.1219233559
  0
LINE
  5
245
100
AcDbEntity
  8
0
100
AcDbLine
 62
7
  6
CONTINUOUS
 10
48.7378275328
 20
37.1219233559
 11
48.3298275092
 21
37.2539233635
  0
LINE
  5
246
100
AcDbEntity
  8
0
100
AcDbLine
 62
7
  6
CONTINUOUS
 10
48.3298275092
 20
37.2539233635
 11
48.1498274988
 21
37.3379233684
  0
LINE
  5
247
100
AcDbEntity
  8
0
100
AcDbLine
 62
7
  6
CONTINUOUS
 10
48.1498274988
 20
37.3379233684
 11
47.9698274884
 21
37.433923374
  0
LINE
  5
248
100
AcDbEntity
  8
0
100
AcDbLine
 62
7
  6
CONTINUOUS
 10
47.9698274884
 20
37.433923374
 11
47.8138274793
 21
37.5419233802
  0
LINE
  5
249
100
AcDbEntity
  8
0
100
AcDbLine
 62
7
  6
CONTINUOUS
 10
47.8138274793
 20
37.5419233802
 11
47.669827471
 21
37.6619233872
  0
LINE
  5
24A
100
AcDbEntity
  8
0
100
AcDbLine
 62
7
  6
CONTINUOUS
 10
47.669827471
 20
37.6619233872
 11
47.5378274634
 21
37.8059233955
  0
LINE
  5
24B
100
AcDbEntity
  8
0
100
AcDbLine
 62
7
  6
CONTINUOUS
 10
47.5378274634
 20
37.8059233955
 11
47.4298274571
 21
37.9499234038
  0
LINE
  5
24C
100
AcDbEntity
  8
0
100
AcDbLine
 62
7
  6
CONTINUOUS
 10
47.4298274571
 20
37.9499234038
 11
47.3458274523
 21
38.1299234142
  0
LINE
  5
24D
100
AcDbEntity
  8
0
100
AcDbLine
 62
7
  6
CONTINUOUS
 10
47.3458274523
 20
38.1299234142
 11
47.2858274488
 21
38.3099234247
  0
LINE
  5
24E
100
AcDbEntity
  8
0
100
AcDbLine
 62
7
  6
CONTINUOUS
 10
47.2858274488
 20
38.3099234247
 11
47.2498274467
 21
38.5259234372
  0
LINE
  5
24F
100
AcDbEntity
  8
0
100
AcDbLine
 62
7
  6
CONTINUOUS
 10
47.2498274467
 20
38.5259234372
 11
47.2258274453
 21
38.7539234504
  0
LINE
  5
250
100
AcDbEntity
  8
0
100
AcDbLine
 62
7
  6
CONTINUOUS
 10
47.2258274453
 20
38.7539234504
 11
47.237827446
 21
38.9339234608
  0
LINE
  5
251
100
AcDbEntity
  8
0
100
AcDbLine
 62
7
  6
CONTINUOUS
 10
47.237827446
 20
38.9339234608
 11
47.2738274481
 21
39.1259234719
  0
LINE
  5
252
100
AcDbEntity
  8
0
100
AcDbLine
 62
7
  6
CONTINUOUS
 10
47.2738274481
 20
39.1259234719
 11
47.3218274509
 21
39.317923483
  0
LINE
  5
253
100
AcDbEntity
  8
0
100
AcDbLine
 62
7
  6
CONTINUOUS
 10
47.3218274509
 20
39.317923483
 11
47.4058274557
 21
39.5099234941
  0
LINE
  5
254
100
AcDbEntity
  8
0
100
AcDbLine
 62
7
  6
CONTINUOUS
 10
47.4058274557
 20
39.5099234941
 11
47.5018274613
 21
39.7019235052
  0
LINE
  5
255
100
AcDbEntity
  8
0
100
AcDbLine
 62
7
  6
CONTINUOUS
 10
47.5018274613
 20
39.7019235052
 11
47.6218274682
 21
39.8939235163
  0
LINE
  5
256
100
AcDbEntity
  8
0
100
AcDbLine
 62
7
  6
CONTINUOUS
 10
47.6218274682
 20
39.8939235163
 11
47.7778274773
 21
40.0739235267
  0
LINE
  5
257
100
AcDbEntity
  8
0
100
AcDbLine
 62
7
  6
CONTINUOUS
 10
47.7778274773
 20
40.0739235267
 11
47.9578274877
 21
40.2539235372
  0
LINE
  5
258
100
AcDbEntity
  8
0
100
AcDbLine
 62
7
  6
CONTINUOUS
 10
47.9578274877
 20
40.2539235372
 11
48.1618274995
 21
40.4219235469
  0
LINE
  5
259
100
AcDbEntity
  8
0
100
AcDbLine
 62
7
  6
CONTINUOUS
 10
48.1618274995
 20
40.4219235469
 11
48.4018275134
 21
40.5659235552
  0
LINE
  5
25A
100
AcDbEntity
  8
0
100
AcDbLine
 62
7
  6
CONTINUOUS
 10
48.4018275134
 20
40.5659235552
 11
48.6658275286
 21
40.6979235629
  0
LINE
  5
25B
100
AcDbEntity
  8
0
100
AcDbLine
 62
7
  6
CONTINUOUS
 10
48.6658275286
 20
40.6979235629
 11
48.9538275453
 21
40.8179235698
  0
LINE
  5
25C
100
AcDbEntity
  8
0
100
AcDbLine
 62
7
  6
CONTINUOUS
 10
48.9538275453
 20
40.8179235698
 11
49.2898275648
 21
40.9019235747
  0
LINE
  5
25D
100
AcDbEntity
  8
0
100
AcDbLine
 62
7
  6
CONTINUOUS
 10
49.2898275648
 20
40.9019235747
 11
49.6498275856
 21
40.9739235788
  0
LINE
  5
25E
100
AcDbEntity
  8
0
100
AcDbLine
 62
7
  6
CONTINUOUS
 10
49.6498275856
 20
40.9739235788
 11
50.0338276078
 21
41.0219235816
  0
LINE
  5
25F
100
AcDbEntity
  8
0
100
AcDbLine
 62
7
  6
CONTINUOUS
 10
50.0338276078
 20
41.0219235816
 11
50.4658276328
 21
41.0339235823
  0
LINE
  5
260
100
AcDbEntity
  8
0
100
AcDbLine
 62
7
  6
CONTINUOUS
 10
50.4658276328
 20
41.0339235823
 11
51.0538276668
 21
41.0099235809
  0
LINE
  5
261
100
AcDbEntity
  8
0
100
AcDbLine
 62
7
  6
CONTINUOUS
 10
51.0538276668
 20
41.0099235809
 11
51.6178276995
 21
40.9379235767
  0
LINE
  5
262
100
AcDbEntity
  8
0
100
AcDbLine
 62
7
  6
CONTINUOUS
 10
51.6178276995
 20
40.9379235767
 11
52.14582773
 21
40.8539235719
  0
LINE
  5
263
100
AcDbEntity
  8
0
100
AcDbLine
 62
7
  6
CONTINUOUS
 10
52.14582773
 20
40.8539235719
 11
52.6138277571
 21
40.7459235656
  0
LINE
  5
264
100
AcDbEntity
  8
0
100
AcDbLine
 62
7
  6
CONTINUOUS
 10
52.6138277571
 20
40.7459235656
 11
53.3338277988
 21
40.5299235531
  0
LINE
  5
265
100
AcDbEntity
  8
0
100
AcDbLine
 62
7
  6
CONTINUOUS
 10
53.3338277988
 20
40.5299235531
 11
53.6458278168
 21
40.4219235469
  0
LINE
  5
266
100
AcDbEntity
  8
0
100
AcDbLine
 62
7
  6
CONTINUOUS
 10
53.6458278168
 20
40.4219235469
 11
53.0818277842
 21
39.1259234719
  0
LINE
  5
267
100
AcDbEntity
  8
0
100
AcDbLine
 62
7
  6
CONTINUOUS
 10
53.0818277842
 20
39.1259234719
 11
52.8658277717
 21
39.2099234767
  0
LINE
  5
268
100
AcDbEntity
  8
0
100
AcDbLine
 62
7
  6
CONTINUOUS
 10
52.8658277717
 20
39.2099234767
 11
52.3018277391
 21
39.3899234872
  0
LINE
  5
269
100
AcDbEntity
  8
0
100
AcDbLine
 62
7
  6
CONTINUOUS
 10
52.3018277391
 20
39.3899234872
 11
51.9418277182
 21
39.4859234927
  0
LINE
  5
26A
100
AcDbEntity
  8
0
100
AcDbLine
 62
7
  6
CONTINUOUS
 10
51.9418277182
 20
39.4859234927
 11
51.557827696
 21
39.5699234976
  0
LINE
  5
26B
100
AcDbEntity
  8
0
100
AcDbLine
 62
7
  6
CONTINUOUS
 10
51.557827696
 20
39.5699234976
 11
51.1618276731
 21
39.629923501
  0
LINE
  5
26C
100
AcDbEntity
  8
0
100
AcDbLine
 62
7
  6
CONTINUOUS
 10
51.1618276731
 20
39.629923501
 11
50.7898276516
 21
39.6539235024
  0
LINE
  5
26D
100
AcDbEntity
  8
0
100
AcDbLine
 62
7
  6
CONTINUOUS
 10
50.7898276516
 20
39.6539235024
 11
50.3698276273
 21
39.6419235017
  0
LINE
  5
26E
100
AcDbEntity
  8
0
100
AcDbLine
 62
7
  6
CONTINUOUS
 10
50.3698276273
 20
39.6419235017
 11
50.105827612
 21
39.6179235004
  0
LINE
  5
26F
100
AcDbEntity
  8
0
100
AcDbLine
 62
7
  6
CONTINUOUS
 10
50.105827612
 20
39.6179235004
 11
49.8178275953
 21
39.5699234976
  0
LINE
  5
270
100
AcDbEntity
  8
0
100
AcDbLine
 62
7
  6
CONTINUOUS
 10
49.8178275953
 20
39.5699234976
 11
49.55382758
 21
39.4979234934
  0
LINE
  5
271
100
AcDbEntity
  8
0
100
AcDbLine
 62
7
  6
CONTINUOUS
 10
49.55382758
 20
39.4979234934
 11
49.4338275731
 21
39.4379234899
  0
LINE
  5
272
100
AcDbEntity
  8
0
100
AcDbLine
 62
7
  6
CONTINUOUS
 10
49.4338275731
 20
39.4379234899
 11
49.3378275675
 21
39.3779234865
  0
LINE
  5
273
100
AcDbEntity
  8
0
100
AcDbLine
 62
7
  6
CONTINUOUS
 10
49.3378275675
 20
39.3779234865
 11
49.241827562
 21
39.2939234816
  0
LINE
  5
274
100
AcDbEntity
  8
0
100
AcDbLine
 62
7
  6
CONTINUOUS
 10
49.241827562
 20
39.2939234816
 11
49.1818275585
 21
39.2099234767
  0
LINE
  5
275
100
AcDbEntity
  8
0
100
AcDbLine
 62
7
  6
CONTINUOUS
 10
49.1818275585
 20
39.2099234767
 11
49.1338275557
 21
39.1019234705
  0
LINE
  5
276
100
AcDbEntity
  8
0
100
AcDbLine
 62
7
  6
CONTINUOUS
 10
49.1338275557
 20
39.1019234705
 11
49.121827555
 21
38.9819234635
  0
LINE
  5
277
100
AcDbEntity
  8
0
100
AcDbLine
 62
7
  6
CONTINUOUS
 10
49.121827555
 20
38.9819234635
 11
49.1338275557
 21
38.885923458
  0
LINE
  5
278
100
AcDbEntity
  8
0
100
AcDbLine
 62
7
  6
CONTINUOUS
 10
49.1338275557
 20
38.885923458
 11
49.1818275585
 21
38.8019234531
  0
LINE
  5
279
100
AcDbEntity
  8
0
100
AcDbLine
 62
7
  6
CONTINUOUS
 10
49.1818275585
 20
38.8019234531
 11
49.241827562
 21
38.729923449
  0
LINE
  5
27A
100
AcDbEntity
  8
0
100
AcDbLine
 62
7
  6
CONTINUOUS
 10
49.241827562
 20
38.729923449
 11
49.3258275668
 21
38.6699234455
  0
LINE
  5
27B
100
AcDbEntity
  8
0
100
AcDbLine
 62
7
  6
CONTINUOUS
 10
49.3258275668
 20
38.6699234455
 11
49.5658275807
 21
38.5619234392
  0
LINE
  5
27C
100
AcDbEntity
  8
0
100
AcDbLine
 62
7
  6
CONTINUOUS
 10
49.5658275807
 20
38.5619234392
 11
49.8658275981
 21
38.4899234351
  0
LINE
  5
27D
100
AcDbEntity
  8
0
100
AcDbLine
 62
7
  6
CONTINUOUS
 10
49.8658275981
 20
38.4899234351
 11
50.2258276189
 21
38.4299234316
  0
LINE
  5
27E
100
AcDbEntity
  8
0
100
AcDbLine
 62
7
  6
CONTINUOUS
 10
50.2258276189
 20
38.4299234316
 11
50.6338276425
 21
38.3819234288
  0
LINE
  5
27F
100
AcDbEntity
  8
0
100
AcDbLine
 62
7
  6
CONTINUOUS
 10
50.6338276425
 20
38.3819234288
 11
51.5098276932
 21
38.2619234219
  0
LINE
  5
280
100
AcDbEntity
  8
0
100
AcDbLine
 62
7
  6
CONTINUOUS
 10
51.5098276932
 20
38.2619234219
 11
51.9538277189
 21
38.177923417
  0
LINE
  5
281
100
AcDbEntity
  8
0
100
AcDbLine
 62
7
  6
CONTINUOUS
 10
51.9538277189
 20
38.177923417
 11
52.3858277439
 21
38.0699234108
  0
LINE
  5
282
100
AcDbEntity
  8
0
100
AcDbLine
 62
7
  6
CONTINUOUS
 10
52.3858277439
 20
38.0699234108
 11
52.7818277668
 21
37.9259234024
  0
LINE
  5
283
100
AcDbEntity
  8
0
100
AcDbLine
 62
7
  6
CONTINUOUS
 10
52.7818277668
 20
37.9259234024
 11
52.9738277779
 21
37.8299233969
  0
LINE
  5
284
100
AcDbEntity
  8
0
100
AcDbLine
 62
7
  6
CONTINUOUS
 10
52.9738277779
 20
37.8299233969
 11
53.1418277877
 21
37.7339233913
  0
LINE
  5
285
100
AcDbEntity
  8
0
100
AcDbLine
 62
7
  6
CONTINUOUS
 10
53.1418277877
 20
37.7339233913
 11
53.3098277974
 21
37.6259233851
  0
LINE
  5
286
100
AcDbEntity
  8
0
100
AcDbLine
 62
7
  6
CONTINUOUS
 10
53.3098277974
 20
37.6259233851
 11
53.4538278057
 21
37.4939233774
  0
LINE
  5
287
100
AcDbEntity
  8
0
100
AcDbLine
 62
7
  6
CONTINUOUS
 10
53.4538278057
 20
37.4939233774
 11
53.5738278127
 21
37.3499233691
  0
LINE
  5
288
100
AcDbEntity
  8
0
100
AcDbLine
 62
7
  6
CONTINUOUS
 10
53.5738278127
 20
37.3499233691
 11
53.6818278189
 21
37.1819233594
  0
LINE
  5
289
100
AcDbEntity
  8
0
100
AcDbLine
 62
7
  6
CONTINUOUS
 10
53.6818278189
 20
37.1819233594
 11
53.7778278245
 21
37.001923349
  0
LINE
  5
28A
100
AcDbEntity
  8
0
100
AcDbLine
 62
7
  6
CONTINUOUS
 10
53.7778278245
 20
37.001923349
 11
53.8378278279
 21
36.8099233379
  0
LINE
  5
28B
100
AcDbEntity
  8
0
100
AcDbLine
 62
7
  6
CONTINUOUS
 10
53.8378278279
 20
36.8099233379
 11
53.87382783
 21
36.5939233254
  0
LINE
  5
28C
100
AcDbEntity
  8
0
100
AcDbLine
 62
7
  6
CONTINUOUS
 10
53.87382783
 20
36.5939233254
 11
53.8858278307
 21
36.3539233115
  0
LINE
  5
28D
100
AcDbEntity
  8
0
100
AcDbLine
 62
7
  6
CONTINUOUS
 10
53.8858278307
 20
36.3539233115
 11
53.87382783
 21
36.1259232983
  0
LINE
  5
28E
100
AcDbEntity
  8
0
100
AcDbLine
 62
7
  6
CONTINUOUS
 10
53.87382783
 20
36.1259232983
 11
53.8498278286
 21
35.9099232858
  0
LINE
  5
28F
100
AcDbEntity
  8
0
100
AcDbLine
 62
7
  6
CONTINUOUS
 10
53.8498278286
 20
35.9099232858
 11
53.7898278252
 21
35.705923274
  0
LINE
  5
290
100
AcDbEntity
  8
0
100
AcDbLine
 62
7
  6
CONTINUOUS
 10
53.7898278252
 20
35.705923274
 11
53.7058278203
 21
35.5019232622
  0
LINE
  5
291
100
AcDbEntity
  8
0
100
AcDbLine
 62
7
  6
CONTINUOUS
 10
53.7058278203
 20
35.5019232622
 11
53.5978278141
 21
35.309923251
  0
LINE
  5
292
100
AcDbEntity
  8
0
100
AcDbLine
 62
7
  6
CONTINUOUS
 10
53.5978278141
 20
35.309923251
 11
53.4658278064
 21
35.1179232399
  0
LINE
  5
293
100
AcDbEntity
  8
0
100
AcDbLine
 62
7
  6
CONTINUOUS
 10
53.4658278064
 20
35.1179232399
 11
53.3098277974
 21
34.9499232302
  0
LINE
  5
294
100
AcDbEntity
  8
0
100
AcDbLine
 62
7
  6
CONTINUOUS
 10
53.3098277974
 20
34.9499232302
 11
53.1178277863
 21
34.7939232212
  0
LINE
  5
295
100
AcDbEntity
  8
0
100
AcDbLine
 62
7
  6
CONTINUOUS
 10
53.1178277863
 20
34.7939232212
 11
52.9138277745
 21
34.6499232129
  0
LINE
  5
296
100
AcDbEntity
  8
0
100
AcDbLine
 62
7
  6
CONTINUOUS
 10
52.9138277745
 20
34.6499232129
 11
52.6738277606
 21
34.5179232052
  0
LINE
  5
297
100
AcDbEntity
  8
0
100
AcDbLine
 62
7
  6
CONTINUOUS
 10
52.6738277606
 20
34.5179232052
 11
52.4098277453
 21
34.3979231983
  0
LINE
  5
298
100
AcDbEntity
  8
0
100
AcDbLine
 62
7
  6
CONTINUOUS
 10
52.4098277453
 20
34.3979231983
 11
52.1218277286
 21
34.3019231927
  0
LINE
  5
299
100
AcDbEntity
  8
0
100
AcDbLine
 62
7
  6
CONTINUOUS
 10
52.1218277286
 20
34.3019231927
 11
51.8098277106
 21
34.2299231885
  0
LINE
  5
29A
100
AcDbEntity
  8
0
100
AcDbLine
 62
7
  6
CONTINUOUS
 10
51.8098277106
 20
34.2299231885
 11
51.4618276904
 21
34.1699231851
  0
LINE
  5
29B
100
AcDbEntity
  8
0
100
AcDbLine
 62
7
  6
CONTINUOUS
 10
51.4618276904
 20
34.1699231851
 11
51.0898276689
 21
34.133923183
  0
LINE
  5
29C
100
AcDbEntity
  8
0
100
AcDbLine
 62
7
  6
CONTINUOUS
 10
51.0898276689
 20
34.133923183
 11
50.6818276453
 21
34.1219231823
  0
LINE
  5
29D
100
AcDbEntity
  8
0
100
AcDbLine
 62
7
  6
CONTINUOUS
 10
45.6538273543
 20
40.5659235552
 11
45.6538273543
 21
41.0219235816
  0
LINE
  5
29E
100
AcDbEntity
  8
0
100
AcDbLine
 62
7
  6
CONTINUOUS
 10
45.6538273543
 20
41.0219235816
 11
43.8778272516
 21
41.0219235816
  0
LINE
  5
29F
100
AcDbEntity
  8
0
100
AcDbLine
 62
7
  6
CONTINUOUS
 10
43.8778272516
 20
41.0219235816
 11
43.8778272516
 21
40.5659235552
  0
LINE
  5
2A0
100
AcDbEntity
  8
0
100
AcDbLine
 62
7
  6
CONTINUOUS
 10
43.8778272516
 20
40.5659235552
 11
43.8778272516
 21
37.5059233781
  0
LINE
  5
2A1
100
AcDbEntity
  8
0
100
AcDbLine
 62
7
  6
CONTINUOUS
 10
43.8778272516
 20
37.5059233781
 11
40.7698270717
 21
41.0219235816
  0
LINE
  5
2A2
100
AcDbEntity
  8
0
100
AcDbLine
 62
7
  6
CONTINUOUS
 10
40.7698270717
 20
41.0219235816
 11
38.3938269342
 21
41.0219235816
  0
LINE
  5
2A3
100
AcDbEntity
  8
0
100
AcDbLine
 62
7
  6
CONTINUOUS
 10
38.3938269342
 20
41.0219235816
 11
38.3938269342
 21
40.5659235552
  0
LINE
  5
2A4
100
AcDbEntity
  8
0
100
AcDbLine
 62
7
  6
CONTINUOUS
 10
38.3938269342
 20
40.5659235552
 11
38.3938269342
 21
34.6619232135
  0
LINE
  5
2A5
100
AcDbEntity
  8
0
100
AcDbLine
 62
7
  6
CONTINUOUS
 10
38.3938269342
 20
34.6619232135
 11
38.3938269342
 21
34.1939231865
  0
LINE
  5
2A6
100
AcDbEntity
  8
0
100
AcDbLine
 62
7
  6
CONTINUOUS
 10
38.3938269342
 20
34.1939231865
 11
40.169827037
 21
34.1939231865
  0
LINE
  5
2A7
100
AcDbEntity
  8
0
100
AcDbLine
 62
7
  6
CONTINUOUS
 10
40.169827037
 20
34.1939231865
 11
40.169827037
 21
34.6619232135
  0
LINE
  5
2A8
100
AcDbEntity
  8
0
100
AcDbLine
 62
7
  6
CONTINUOUS
 10
40.169827037
 20
34.6619232135
 11
40.169827037
 21
38.729923449
  0
LINE
  5
2A9
100
AcDbEntity
  8
0
100
AcDbLine
 62
7
  6
CONTINUOUS
 10
40.169827037
 20
38.729923449
 11
40.1938270384
 21
38.7539234504
  0
LINE
  5
2AA
100
AcDbEntity
  8
0
100
AcDbLine
 62
7
  6
CONTINUOUS
 10
40.1938270384
 20
38.7539234504
 11
44.2618272738
 21
34.1939231865
  0
LINE
  5
2AB
100
AcDbEntity
  8
0
100
AcDbLine
 62
7
  6
CONTINUOUS
 10
44.2618272738
 20
34.1939231865
 11
45.6538273543
 21
34.1939231865
  0
LINE
  5
2AC
100
AcDbEntity
  8
0
100
AcDbLine
 62
7
  6
CONTINUOUS
 10
45.6538273543
 20
34.1939231865
 11
45.6538273543
 21
34.6619232135
  0
LINE
  5
2AD
100
AcDbEntity
  8
0
100
AcDbLine
 62
7
  6
CONTINUOUS
 10
45.6538273543
 20
34.6619232135
 11
45.6538273543
 21
40.5659235552
  0
LINE
  5
2AE
100
AcDbEntity
  8
0
100
AcDbLine
 62
7
  6
CONTINUOUS
 10
65.381828496
 20
41.0339235823
 11
65.0338284759
 21
41.0219235816
  0
LINE
  5
2AF
100
AcDbEntity
  8
0
100
AcDbLine
 62
7
  6
CONTINUOUS
 10
65.0338284759
 20
41.0219235816
 11
64.6978284564
 21
40.9859235795
  0
LINE
  5
2B0
100
AcDbEntity
  8
0
100
AcDbLine
 62
7
  6
CONTINUOUS
 10
64.6978284564
 20
40.9859235795
 11
64.3498284363
 21
40.925923576
  0
LINE
  5
2B1
100
AcDbEntity
  8
0
100
AcDbLine
 62
7
  6
CONTINUOUS
 10
64.3498284363
 20
40.925923576
 11
64.0018284161
 21
40.8299235705
  0
LINE
  5
2B2
100
AcDbEntity
  8
0
100
AcDbLine
 62
7
  6
CONTINUOUS
 10
64.0018284161
 20
40.8299235705
 11
63.6778283974
 21
40.7219235642
  0
LINE
  5
2B3
100
AcDbEntity
  8
0
100
AcDbLine
 62
7
  6
CONTINUOUS
 10
63.6778283974
 20
40.7219235642
 11
63.3538283786
 21
40.5779235559
  0
LINE
  5
2B4
100
AcDbEntity
  8
0
100
AcDbLine
 62
7
  6
CONTINUOUS
 10
63.3538283786
 20
40.5779235559
 11
63.0418283606
 21
40.4099235462
  0
LINE
  5
2B5
100
AcDbEntity
  8
0
100
AcDbLine
 62
7
  6
CONTINUOUS
 10
63.0418283606
 20
40.4099235462
 11
62.7538283439
 21
40.2179235351
  0
LINE
  5
2B6
100
AcDbEntity
  8
0
100
AcDbLine
 62
7
  6
CONTINUOUS
 10
62.7538283439
 20
40.2179235351
 11
62.4898283286
 21
39.9899235219
  0
LINE
  5
2B7
100
AcDbEntity
  8
0
100
AcDbLine
 62
7
  6
CONTINUOUS
 10
62.4898283286
 20
39.9899235219
 11
62.2378283141
 21
39.7379235073
  0
LINE
  5
2B8
100
AcDbEntity
  8
0
100
AcDbLine
 62
7
  6
CONTINUOUS
 10
62.2378283141
 20
39.7379235073
 11
62.0218283016
 21
39.4499234906
  0
LINE
  5
2B9
100
AcDbEntity
  8
0
100
AcDbLine
 62
7
  6
CONTINUOUS
 10
62.0218283016
 20
39.4499234906
 11
61.8418282911
 21
39.1379234726
  0
LINE
  5
2BA
100
AcDbEntity
  8
0
100
AcDbLine
 62
7
  6
CONTINUOUS
 10
61.8418282911
 20
39.1379234726
 11
61.6978282828
 21
38.7899234524
  0
LINE
  5
2BB
100
AcDbEntity
  8
0
100
AcDbLine
 62
7
  6
CONTINUOUS
 10
61.6978282828
 20
38.7899234524
 11
61.5898282766
 21
38.4179234309
  0
LINE
  5
2BC
100
AcDbEntity
  8
0
100
AcDbLine
 62
7
  6
CONTINUOUS
 10
61.5898282766
 20
38.4179234309
 11
61.5178282724
 21
38.0099234073
  0
LINE
  5
2BD
100
AcDbEntity
  8
0
100
AcDbLine
 62
7
  6
CONTINUOUS
 10
61.5178282724
 20
38.0099234073
 11
61.493828271
 21
37.5779233823
  0
LINE
  5
2BE
100
AcDbEntity
  8
0
100
AcDbLine
 62
7
  6
CONTINUOUS
 10
61.493828271
 20
37.5779233823
 11
61.5178282724
 21
37.1339233566
  0
LINE
  5
2BF
100
AcDbEntity
  8
0
100
AcDbLine
 62
7
  6
CONTINUOUS
 10
61.5178282724
 20
37.1339233566
 11
61.5898282766
 21
36.7379233337
  0
LINE
  5
2C0
100
AcDbEntity
  8
0
100
AcDbLine
 62
7
  6
CONTINUOUS
 10
61.5898282766
 20
36.7379233337
 11
61.6978282828
 21
36.3659233122
  0
LINE
  5
2C1
100
AcDbEntity
  8
0
100
AcDbLine
 62
7
  6
CONTINUOUS
 10
61.6978282828
 20
36.3659233122
 11
61.8418282911
 21
36.017923292
  0
LINE
  5
2C2
100
AcDbEntity
  8
0
100
AcDbLine
 62
7
  6
CONTINUOUS
 10
61.8418282911
 20
36.017923292
 11
62.0218283016
 21
35.705923274
  0
LINE
  5
2C3
100
AcDbEntity
  8
0
100
AcDbLine
 62
7
  6
CONTINUOUS
 10
62.0218283016
 20
35.705923274
 11
62.2378283141
 21
35.4179232573
  0
LINE
  5
2C4
100
AcDbEntity
  8
0
100
AcDbLine
 62
7
  6
CONTINUOUS
 10
62.2378283141
 20
35.4179232573
 11
62.4898283286
 21
35.1659232427
  0
LINE
  5
2C5
100
AcDbEntity
  8
0
100
AcDbLine
 62
7
  6
CONTINUOUS
 10
62.4898283286
 20
35.1659232427
 11
62.7538283439
 21
34.9379232295
  0
LINE
  5
2C6
100
AcDbEntity
  8
0
100
AcDbLine
 62
7
  6
CONTINUOUS
 10
62.7538283439
 20
34.9379232295
 11
63.0418283606
 21
34.7459232184
  0
LINE
  5
2C7
100
AcDbEntity
  8
0
100
AcDbLine
 62
7
  6
CONTINUOUS
 10
63.0418283606
 20
34.7459232184
 11
63.3538283786
 21
34.5779232087
  0
LINE
  5
2C8
100
AcDbEntity
  8
0
100
AcDbLine
 62
7
  6
CONTINUOUS
 10
63.3538283786
 20
34.5779232087
 11
63.6778283974
 21
34.4339232004
  0
LINE
  5
2C9
100
AcDbEntity
  8
0
100
AcDbLine
 62
7
  6
CONTINUOUS
 10
63.6778283974
 20
34.4339232004
 11
64.0018284161
 21
34.3139231934
  0
LINE
  5
2CA
100
AcDbEntity
  8
0
100
AcDbLine
 62
7
  6
CONTINUOUS
 10
64.0018284161
 20
34.3139231934
 11
64.3498284363
 21
34.2299231885
  0
LINE
  5
2CB
100
AcDbEntity
  8
0
100
AcDbLine
 62
7
  6
CONTINUOUS
 10
64.3498284363
 20
34.2299231885
 11
64.6978284564
 21
34.1699231851
  0
LINE
  5
2CC
100
AcDbEntity
  8
0
100
AcDbLine
 62
7
  6
CONTINUOUS
 10
64.6978284564
 20
34.1699231851
 11
65.0338284759
 21
34.133923183
  0
LINE
  5
2CD
100
AcDbEntity
  8
0
100
AcDbLine
 62
7
  6
CONTINUOUS
 10
65.0338284759
 20
34.133923183
 11
65.381828496
 21
34.1219231823
  0
LINE
  5
2CE
100
AcDbEntity
  8
0
100
AcDbLine
 62
7
  6
CONTINUOUS
 10
65.381828496
 20
34.1219231823
 11
65.7298285161
 21
34.133923183
  0
LINE
  5
2CF
100
AcDbEntity
  8
0
100
AcDbLine
 62
7
  6
CONTINUOUS
 10
65.7298285161
 20
34.133923183
 11
66.0778285363
 21
34.1699231851
  0
LINE
  5
2D0
100
AcDbEntity
  8
0
100
AcDbLine
 62
7
  6
CONTINUOUS
 10
66.0778285363
 20
34.1699231851
 11
66.4138285557
 21
34.2299231885
  0
LINE
  5
2D1
100
AcDbEntity
  8
0
100
AcDbLine
 62
7
  6
CONTINUOUS
 10
66.4138285557
 20
34.2299231885
 11
66.7618285759
 21
34.3139231934
  0
LINE
  5
2D2
100
AcDbEntity
  8
0
100
AcDbLine
 62
7
  6
CONTINUOUS
 10
66.7618285759
 20
34.3139231934
 11
67.0978285953
 21
34.4339232004
  0
LINE
  5
2D3
100
AcDbEntity
  8
0
100
AcDbLine
 62
7
  6
CONTINUOUS
 10
67.0978285953
 20
34.4339232004
 11
67.4098286134
 21
34.5779232087
  0
LINE
  5
2D4
100
AcDbEntity
  8
0
100
AcDbLine
 62
7
  6
CONTINUOUS
 10
67.4098286134
 20
34.5779232087
 11
67.7218286314
 21
34.7459232184
  0
LINE
  5
2D5
100
AcDbEntity
  8
0
100
AcDbLine
 62
7
  6
CONTINUOUS
 10
67.7218286314
 20
34.7459232184
 11
68.0098286481
 21
34.9379232295
  0
LINE
  5
2D6
100
AcDbEntity
  8
0
100
AcDbLine
 62
7
  6
CONTINUOUS
 10
68.0098286481
 20
34.9379232295
 11
68.2858286641
 21
35.1659232427
  0
LINE
  5
2D7
100
AcDbEntity
  8
0
100
AcDbLine
 62
7
  6
CONTINUOUS
 10
68.2858286641
 20
35.1659232427
 11
68.5258286779
 21
35.4179232573
  0
LINE
  5
2D8
100
AcDbEntity
  8
0
100
AcDbLine
 62
7
  6
CONTINUOUS
 10
68.5258286779
 20
35.4179232573
 11
68.7418286904
 21
35.705923274
  0
LINE
  5
2D9
100
AcDbEntity
  8
0
100
AcDbLine
 62
7
  6
CONTINUOUS
 10
68.7418286904
 20
35.705923274
 11
68.9218287009
 21
36.017923292
  0
LINE
  5
2DA
100
AcDbEntity
  8
0
100
AcDbLine
 62
7
  6
CONTINUOUS
 10
68.9218287009
 20
36.017923292
 11
69.0658287092
 21
36.3659233122
  0
LINE
  5
2DB
100
AcDbEntity
  8
0
100
AcDbLine
 62
7
  6
CONTINUOUS
 10
69.0658287092
 20
36.3659233122
 11
69.1858287161
 21
36.7379233337
  0
LINE
  5
2DC
100
AcDbEntity
  8
0
100
AcDbLine
 62
7
  6
CONTINUOUS
 10
69.1858287161
 20
36.7379233337
 11
69.2458287196
 21
37.1339233566
  0
LINE
  5
2DD
100
AcDbEntity
  8
0
100
AcDbLine
 62
7
  6
CONTINUOUS
 10
69.2458287196
 20
37.1339233566
 11
69.269828721
 21
37.5779233823
  0
LINE
  5
2DE
100
AcDbEntity
  8
0
100
AcDbLine
 62
7
  6
CONTINUOUS
 10
69.269828721
 20
37.5779233823
 11
69.2458287196
 21
38.0099234073
  0
LINE
  5
2DF
100
AcDbEntity
  8
0
100
AcDbLine
 62
7
  6
CONTINUOUS
 10
69.2458287196
 20
38.0099234073
 11
69.1858287161
 21
38.4179234309
  0
LINE
  5
2E0
100
AcDbEntity
  8
0
100
AcDbLine
 62
7
  6
CONTINUOUS
 10
69.1858287161
 20
38.4179234309
 11
69.0658287092
 21
38.7899234524
  0
LINE
  5
2E1
100
AcDbEntity
  8
0
100
AcDbLine
 62
7
  6
CONTINUOUS
 10
69.0658287092
 20
38.7899234524
 11
68.9218287009
 21
39.1379234726
  0
LINE
  5
2E2
100
AcDbEntity
  8
0
100
AcDbLine
 62
7
  6
CONTINUOUS
 10
68.9218287009
 20
39.1379234726
 11
68.7418286904
 21
39.4499234906
  0
LINE
  5
2E3
100
AcDbEntity
  8
0
100
AcDbLine
 62
7
  6
CONTINUOUS
 10
68.7418286904
 20
39.4499234906
 11
68.5258286779
 21
39.7379235073
  0
LINE
  5
2E4
100
AcDbEntity
  8
0
100
AcDbLine
 62
7
  6
CONTINUOUS
 10
68.5258286779
 20
39.7379235073
 11
68.2858286641
 21
39.9899235219
  0
LINE
  5
2E5
100
AcDbEntity
  8
0
100
AcDbLine
 62
7
  6
CONTINUOUS
 10
68.2858286641
 20
39.9899235219
 11
68.0098286481
 21
40.2179235351
  0
LINE
  5
2E6
100
AcDbEntity
  8
0
100
AcDbLine
 62
7
  6
CONTINUOUS
 10
68.0098286481
 20
40.2179235351
 11
67.7218286314
 21
40.4099235462
  0
LINE
  5
2E7
100
AcDbEntity
  8
0
100
AcDbLine
 62
7
  6
CONTINUOUS
 10
67.7218286314
 20
40.4099235462
 11
67.4098286134
 21
40.5779235559
  0
LINE
  5
2E8
100
AcDbEntity
  8
0
100
AcDbLine
 62
7
  6
CONTINUOUS
 10
67.4098286134
 20
40.5779235559
 11
67.0978285953
 21
40.7219235642
  0
LINE
  5
2E9
100
AcDbEntity
  8
0
100
AcDbLine
 62
7
  6
CONTINUOUS
 10
67.0978285953
 20
40.7219235642
 11
66.7618285759
 21
40.8299235705
  0
LINE
  5
2EA
100
AcDbEntity
  8
0
100
AcDbLine
 62
7
  6
CONTINUOUS
 10
66.7618285759
 20
40.8299235705
 11
66.4138285557
 21
40.925923576
  0
LINE
  5
2EB
100
AcDbEntity
  8
0
100
AcDbLine
 62
7
  6
CONTINUOUS
 10
66.4138285557
 20
40.925923576
 11
66.0778285363
 21
40.9859235795
  0
LINE
  5
2EC
100
AcDbEntity
  8
0
100
AcDbLine
 62
7
  6
CONTINUOUS
 10
66.0778285363
 20
40.9859235795
 11
65.7298285161
 21
41.0219235816
  0
LINE
  5
2ED
100
AcDbEntity
  8
0
100
AcDbLine
 62
7
  6
CONTINUOUS
 10
65.7298285161
 20
41.0219235816
 11
65.381828496
 21
41.0339235823
  0
LINE
  5
2EE
100
AcDbEntity
  8
0
100
AcDbLine
 62
7
  6
CONTINUOUS
 10
65.381828496
 20
39.4139234885
 11
65.5858285078
 21
39.4019234879
  0
LINE
  5
2EF
100
AcDbEntity
  8
0
100
AcDbLine
 62
7
  6
CONTINUOUS
 10
65.5858285078
 20
39.4019234879
 11
65.7898285196
 21
39.3779234865
  0
LINE
  5
2F0
100
AcDbEntity
  8
0
100
AcDbLine
 62
7
  6
CONTINUOUS
 10
65.7898285196
 20
39.3779234865
 11
65.9818285307
 21
39.3419234844
  0
LINE
  5
2F1
100
AcDbEntity
  8
0
100
AcDbLine
 62
7
  6
CONTINUOUS
 10
65.9818285307
 20
39.3419234844
 11
66.1618285411
 21
39.2819234809
  0
LINE
  5
2F2
100
AcDbEntity
  8
0
100
AcDbLine
 62
7
  6
CONTINUOUS
 10
66.1618285411
 20
39.2819234809
 11
66.3418285516
 21
39.2099234767
  0
LINE
  5
2F3
100
AcDbEntity
  8
0
100
AcDbLine
 62
7
  6
CONTINUOUS
 10
66.3418285516
 20
39.2099234767
 11
66.4978285606
 21
39.1259234719
  0
LINE
  5
2F4
100
AcDbEntity
  8
0
100
AcDbLine
 62
7
  6
CONTINUOUS
 10
66.4978285606
 20
39.1259234719
 11
66.6538285696
 21
39.0299234663
  0
LINE
  5
2F5
100
AcDbEntity
  8
0
100
AcDbLine
 62
7
  6
CONTINUOUS
 10
66.6538285696
 20
39.0299234663
 11
66.7978285779
 21
38.9219234601
  0
LINE
  5
2F6
100
AcDbEntity
  8
0
100
AcDbLine
 62
7
  6
CONTINUOUS
 10
66.7978285779
 20
38.9219234601
 11
66.9298285856
 21
38.7899234524
  0
LINE
  5
2F7
100
AcDbEntity
  8
0
100
AcDbLine
 62
7
  6
CONTINUOUS
 10
66.9298285856
 20
38.7899234524
 11
67.0378285918
 21
38.6579234448
  0
LINE
  5
2F8
100
AcDbEntity
  8
0
100
AcDbLine
 62
7
  6
CONTINUOUS
 10
67.0378285918
 20
38.6579234448
 11
67.1338285974
 21
38.5019234358
  0
LINE
  5
2F9
100
AcDbEntity
  8
0
100
AcDbLine
 62
7
  6
CONTINUOUS
 10
67.1338285974
 20
38.5019234358
 11
67.2178286023
 21
38.3459234267
  0
LINE
  5
2FA
100
AcDbEntity
  8
0
100
AcDbLine
 62
7
  6
CONTINUOUS
 10
67.2178286023
 20
38.3459234267
 11
67.2898286064
 21
38.1659234163
  0
LINE
  5
2FB
100
AcDbEntity
  8
0
100
AcDbLine
 62
7
  6
CONTINUOUS
 10
67.2898286064
 20
38.1659234163
 11
67.3378286092
 21
37.9859234059
  0
LINE
  5
2FC
100
AcDbEntity
  8
0
100
AcDbLine
 62
7
  6
CONTINUOUS
 10
67.3378286092
 20
37.9859234059
 11
67.3738286113
 21
37.7819233941
  0
LINE
  5
2FD
100
AcDbEntity
  8
0
100
AcDbLine
 62
7
  6
CONTINUOUS
 10
67.3738286113
 20
37.7819233941
 11
67.3738286113
 21
37.5779233823
  0
LINE
  5
2FE
100
AcDbEntity
  8
0
100
AcDbLine
 62
7
  6
CONTINUOUS
 10
67.3738286113
 20
37.5779233823
 11
67.3738286113
 21
37.3739233705
  0
LINE
  5
2FF
100
AcDbEntity
  8
0
100
AcDbLine
 62
7
  6
CONTINUOUS
 10
67.3738286113
 20
37.3739233705
 11
67.3378286092
 21
37.1699233587
  0
LINE
  5
300
100
AcDbEntity
  8
0
100
AcDbLine
 62
7
  6
CONTINUOUS
 10
67.3378286092
 20
37.1699233587
 11
67.2898286064
 21
36.9899233483
  0
LINE
  5
301
100
AcDbEntity
  8
0
100
AcDbLine
 62
7
  6
CONTINUOUS
 10
67.2898286064
 20
36.9899233483
 11
67.2178286023
 21
36.8099233379
  0
LINE
  5
302
100
AcDbEntity
  8
0
100
AcDbLine
 62
7
  6
CONTINUOUS
 10
67.2178286023
 20
36.8099233379
 11
67.1338285974
 21
36.6539233288
  0
LINE
  5
303
100
AcDbEntity
  8
0
100
AcDbLine
 62
7
  6
CONTINUOUS
 10
67.1338285974
 20
36.6539233288
 11
67.0378285918
 21
36.4979233198
  0
LINE
  5
304
100
AcDbEntity
  8
0
100
AcDbLine
 62
7
  6
CONTINUOUS
 10
67.0378285918
 20
36.4979233198
 11
66.9298285856
 21
36.3539233115
  0
LINE
  5
305
100
AcDbEntity
  8
0
100
AcDbLine
 62
7
  6
CONTINUOUS
 10
66.9298285856
 20
36.3539233115
 11
66.7978285779
 21
36.2339233045
  0
LINE
  5
306
100
AcDbEntity
  8
0
100
AcDbLine
 62
7
  6
CONTINUOUS
 10
66.7978285779
 20
36.2339233045
 11
66.6538285696
 21
36.1259232983
  0
LINE
  5
307
100
AcDbEntity
  8
0
100
AcDbLine
 62
7
  6
CONTINUOUS
 10
66.6538285696
 20
36.1259232983
 11
66.4978285606
 21
36.017923292
  0
LINE
  5
308
100
AcDbEntity
  8
0
100
AcDbLine
 62
7
  6
CONTINUOUS
 10
66.4978285606
 20
36.017923292
 11
66.3418285516
 21
35.9339232872
  0
LINE
  5
309
100
AcDbEntity
  8
0
100
AcDbLine
 62
7
  6
CONTINUOUS
 10
66.3418285516
 20
35.9339232872
 11
66.1618285411
 21
35.8739232837
  0
LINE
  5
30A
100
AcDbEntity
  8
0
100
AcDbLine
 62
7
  6
CONTINUOUS
 10
66.1618285411
 20
35.8739232837
 11
65.9818285307
 21
35.8139232802
  0
LINE
  5
30B
100
AcDbEntity
  8
0
100
AcDbLine
 62
7
  6
CONTINUOUS
 10
65.9818285307
 20
35.8139232802
 11
65.7898285196
 21
35.7779232781
  0
LINE
  5
30C
100
AcDbEntity
  8
0
100
AcDbLine
 62
7
  6
CONTINUOUS
 10
65.7898285196
 20
35.7779232781
 11
65.5858285078
 21
35.7539232767
  0
LINE
  5
30D
100
AcDbEntity
  8
0
100
AcDbLine
 62
7
  6
CONTINUOUS
 10
65.5858285078
 20
35.7539232767
 11
65.381828496
 21
35.741923276
  0
LINE
  5
30E
100
AcDbEntity
  8
0
100
AcDbLine
 62
7
  6
CONTINUOUS
 10
65.381828496
 20
35.741923276
 11
65.1778284842
 21
35.7539232767
  0
LINE
  5
30F
100
AcDbEntity
  8
0
100
AcDbLine
 62
7
  6
CONTINUOUS
 10
65.1778284842
 20
35.7539232767
 11
64.9738284724
 21
35.7779232781
  0
LINE
  5
310
100
AcDbEntity
  8
0
100
AcDbLine
 62
7
  6
CONTINUOUS
 10
64.9738284724
 20
35.7779232781
 11
64.7818284613
 21
35.8139232802
  0
LINE
  5
311
100
AcDbEntity
  8
0
100
AcDbLine
 62
7
  6
CONTINUOUS
 10
64.7818284613
 20
35.8139232802
 11
64.6018284509
 21
35.8739232837
  0
LINE
  5
312
100
AcDbEntity
  8
0
100
AcDbLine
 62
7
  6
CONTINUOUS
 10
64.6018284509
 20
35.8739232837
 11
64.4338284411
 21
35.9339232872
  0
LINE
  5
313
100
AcDbEntity
  8
0
100
AcDbLine
 62
7
  6
CONTINUOUS
 10
64.4338284411
 20
35.9339232872
 11
64.2658284314
 21
36.017923292
  0
LINE
  5
314
100
AcDbEntity
  8
0
100
AcDbLine
 62
7
  6
CONTINUOUS
 10
64.2658284314
 20
36.017923292
 11
64.1098284224
 21
36.1259232983
  0
LINE
  5
315
100
AcDbEntity
  8
0
100
AcDbLine
 62
7
  6
CONTINUOUS
 10
64.1098284224
 20
36.1259232983
 11
63.9658284141
 21
36.2339233045
  0
LINE
  5
316
100
AcDbEntity
  8
0
100
AcDbLine
 62
7
  6
CONTINUOUS
 10
63.9658284141
 20
36.2339233045
 11
63.8458284071
 21
36.3539233115
  0
LINE
  5
317
100
AcDbEntity
  8
0
100
AcDbLine
 62
7
  6
CONTINUOUS
 10
63.8458284071
 20
36.3539233115
 11
63.7258284002
 21
36.4979233198
  0
LINE
  5
318
100
AcDbEntity
  8
0
100
AcDbLine
 62
7
  6
CONTINUOUS
 10
63.7258284002
 20
36.4979233198
 11
63.6298283946
 21
36.6539233288
  0
LINE
  5
319
100
AcDbEntity
  8
0
100
AcDbLine
 62
7
  6
CONTINUOUS
 10
63.6298283946
 20
36.6539233288
 11
63.5458283898
 21
36.8099233379
  0
LINE
  5
31A
100
AcDbEntity
  8
0
100
AcDbLine
 62
7
  6
CONTINUOUS
 10
63.5458283898
 20
36.8099233379
 11
63.4738283856
 21
36.9899233483
  0
LINE
  5
31B
100
AcDbEntity
  8
0
100
AcDbLine
 62
7
  6
CONTINUOUS
 10
63.4738283856
 20
36.9899233483
 11
63.4258283828
 21
37.1699233587
  0
LINE
  5
31C
100
AcDbEntity
  8
0
100
AcDbLine
 62
7
  6
CONTINUOUS
 10
63.4258283828
 20
37.1699233587
 11
63.4018283814
 21
37.3739233705
  0
LINE
  5
31D
100
AcDbEntity
  8
0
100
AcDbLine
 62
7
  6
CONTINUOUS
 10
63.4018283814
 20
37.3739233705
 11
63.3898283807
 21
37.5779233823
  0
LINE
  5
31E
100
AcDbEntity
  8
0
100
AcDbLine
 62
7
  6
CONTINUOUS
 10
63.3898283807
 20
37.5779233823
 11
63.4018283814
 21
37.7819233941
  0
LINE
  5
31F
100
AcDbEntity
  8
0
100
AcDbLine
 62
7
  6
CONTINUOUS
 10
63.4018283814
 20
37.7819233941
 11
63.4258283828
 21
37.9859234059
  0
LINE
  5
320
100
AcDbEntity
  8
0
100
AcDbLine
 62
7
  6
CONTINUOUS
 10
63.4258283828
 20
37.9859234059
 11
63.4738283856
 21
38.1659234163
  0
LINE
  5
321
100
AcDbEntity
  8
0
100
AcDbLine
 62
7
  6
CONTINUOUS
 10
63.4738283856
 20
38.1659234163
 11
63.5458283898
 21
38.3459234267
  0
LINE
  5
322
100
AcDbEntity
  8
0
100
AcDbLine
 62
7
  6
CONTINUOUS
 10
63.5458283898
 20
38.3459234267
 11
63.6298283946
 21
38.5019234358
  0
LINE
  5
323
100
AcDbEntity
  8
0
100
AcDbLine
 62
7
  6
CONTINUOUS
 10
63.6298283946
 20
38.5019234358
 11
63.7258284002
 21
38.6579234448
  0
LINE
  5
324
100
AcDbEntity
  8
0
100
AcDbLine
 62
7
  6
CONTINUOUS
 10
63.7258284002
 20
38.6579234448
 11
63.8458284071
 21
38.7899234524
  0
LINE
  5
325
100
AcDbEntity
  8
0
100
AcDbLine
 62
7
  6
CONTINUOUS
 10
63.8458284071
 20
38.7899234524
 11
63.9658284141
 21
38.9219234601
  0
LINE
  5
326
100
AcDbEntity
  8
0
100
AcDbLine
 62
7
  6
CONTINUOUS
 10
63.9658284141
 20
38.9219234601
 11
64.1098284224
 21
39.0299234663
  0
LINE
  5
327
100
AcDbEntity
  8
0
100
AcDbLine
 62
7
  6
CONTINUOUS
 10
64.1098284224
 20
39.0299234663
 11
64.2658284314
 21
39.1259234719
  0
LINE
  5
328
100
AcDbEntity
  8
0
100
AcDbLine
 62
7
  6
CONTINUOUS
 10
64.2658284314
 20
39.1259234719
 11
64.4338284411
 21
39.2099234767
  0
LINE
  5
329
100
AcDbEntity
  8
0
100
AcDbLine
 62
7
  6
CONTINUOUS
 10
64.4338284411
 20
39.2099234767
 11
64.6018284509
 21
39.2819234809
  0
LINE
  5
32A
100
AcDbEntity
  8
0
100
AcDbLine
 62
7
  6
CONTINUOUS
 10
64.6018284509
 20
39.2819234809
 11
64.7818284613
 21
39.3419234844
  0
LINE
  5
32B
100
AcDbEntity
  8
0
100
AcDbLine
 62
7
  6
CONTINUOUS
 10
64.7818284613
 20
39.3419234844
 11
64.9738284724
 21
39.3779234865
  0
LINE
  5
32C
100
AcDbEntity
  8
0
100
AcDbLine
 62
7
  6
CONTINUOUS
 10
64.9738284724
 20
39.3779234865
 11
65.1778284842
 21
39.4019234879
  0
LINE
  5
32D
100
AcDbEntity
  8
0
100
AcDbLine
 62
7
  6
CONTINUOUS
 10
65.1778284842
 20
39.4019234879
 11
65.381828496
 21
39.4139234885
  0
LINE
  5
32E
100
AcDbEntity
  8
0
100
AcDbLine
 62
7
  6
CONTINUOUS
 10
33.3658266432
 20
34.1819231858
 11
33.0298266238
 21
34.1939231865
  0
LINE
  5
32F
100
AcDbEntity
  8
0
100
AcDbLine
 62
7
  6
CONTINUOUS
 10
33.0298266238
 20
34.1939231865
 11
32.6818266036
 21
34.2419231892
  0
LINE
  5
330
100
AcDbEntity
  8
0
100
AcDbLine
 62
7
  6
CONTINUOUS
 10
32.6818266036
 20
34.2419231892
 11
32.3458265842
 21
34.3019231927
  0
LINE
  5
331
100
AcDbEntity
  8
0
100
AcDbLine
 62
7
  6
CONTINUOUS
 10
32.3458265842
 20
34.3019231927
 11
32.0098265648
 21
34.3859231976
  0
LINE
  5
332
100
AcDbEntity
  8
0
100
AcDbLine
 62
7
  6
CONTINUOUS
 10
32.0098265648
 20
34.3859231976
 11
31.6738265453
 21
34.4939232038
  0
LINE
  5
333
100
AcDbEntity
  8
0
100
AcDbLine
 62
7
  6
CONTINUOUS
 10
31.6738265453
 20
34.4939232038
 11
31.3618265273
 21
34.6379232122
  0
LINE
  5
334
100
AcDbEntity
  8
0
100
AcDbLine
 62
7
  6
CONTINUOUS
 10
31.3618265273
 20
34.6379232122
 11
31.0498265092
 21
34.8059232219
  0
LINE
  5
335
100
AcDbEntity
  8
0
100
AcDbLine
 62
7
  6
CONTINUOUS
 10
31.0498265092
 20
34.8059232219
 11
30.7618264925
 21
34.997923233
  0
LINE
  5
336
100
AcDbEntity
  8
0
100
AcDbLine
 62
7
  6
CONTINUOUS
 10
30.7618264925
 20
34.997923233
 11
30.4978264773
 21
35.2259232462
  0
LINE
  5
337
100
AcDbEntity
  8
0
100
AcDbLine
 62
7
  6
CONTINUOUS
 10
30.4978264773
 20
35.2259232462
 11
30.2578264634
 21
35.4779232608
  0
LINE
  5
338
100
AcDbEntity
  8
0
100
AcDbLine
 62
7
  6
CONTINUOUS
 10
30.2578264634
 20
35.4779232608
 11
30.0418264509
 21
35.7539232767
  0
LINE
  5
339
100
AcDbEntity
  8
0
100
AcDbLine
 62
7
  6
CONTINUOUS
 10
30.0418264509
 20
35.7539232767
 11
29.8618264404
 21
36.0659232948
  0
LINE
  5
33A
100
AcDbEntity
  8
0
100
AcDbLine
 62
7
  6
CONTINUOUS
 10
29.8618264404
 20
36.0659232948
 11
29.7178264321
 21
36.4019233142
  0
LINE
  5
33B
100
AcDbEntity
  8
0
100
AcDbLine
 62
7
  6
CONTINUOUS
 10
29.7178264321
 20
36.4019233142
 11
29.6098264259
 21
36.7739233358
  0
LINE
  5
33C
100
AcDbEntity
  8
0
100
AcDbLine
 62
7
  6
CONTINUOUS
 10
29.6098264259
 20
36.7739233358
 11
29.5378264217
 21
37.1819233594
  0
LINE
  5
33D
100
AcDbEntity
  8
0
100
AcDbLine
 62
7
  6
CONTINUOUS
 10
29.5378264217
 20
37.1819233594
 11
29.5138264203
 21
37.6139233844
  0
LINE
  5
33E
100
AcDbEntity
  8
0
100
AcDbLine
 62
7
  6
CONTINUOUS
 10
29.5138264203
 20
37.6139233844
 11
29.5378264217
 21
38.0459234094
  0
LINE
  5
33F
100
AcDbEntity
  8
0
100
AcDbLine
 62
7
  6
CONTINUOUS
 10
29.5378264217
 20
38.0459234094
 11
29.6098264259
 21
38.4419234323
  0
LINE
  5
340
100
AcDbEntity
  8
0
100
AcDbLine
 62
7
  6
CONTINUOUS
 10
29.6098264259
 20
38.4419234323
 11
29.7178264321
 21
38.8139234538
  0
LINE
  5
341
100
AcDbEntity
  8
0
100
AcDbLine
 62
7
  6
CONTINUOUS
 10
29.7178264321
 20
38.8139234538
 11
29.8618264404
 21
39.161923474
  0
LINE
  5
342
100
AcDbEntity
  8
0
100
AcDbLine
 62
7
  6
CONTINUOUS
 10
29.8618264404
 20
39.161923474
 11
30.0418264509
 21
39.4619234913
  0
LINE
  5
343
100
AcDbEntity
  8
0
100
AcDbLine
 62
7
  6
CONTINUOUS
 10
30.0418264509
 20
39.4619234913
 11
30.2578264634
 21
39.749923508
  0
LINE
  5
344
100
AcDbEntity
  8
0
100
AcDbLine
 62
7
  6
CONTINUOUS
 10
30.2578264634
 20
39.749923508
 11
30.4978264773
 21
40.0019235226
  0
LINE
  5
345
100
AcDbEntity
  8
0
100
AcDbLine
 62
7
  6
CONTINUOUS
 10
30.4978264773
 20
40.0019235226
 11
30.7618264925
 21
40.2179235351
  0
LINE
  5
346
100
AcDbEntity
  8
0
100
AcDbLine
 62
7
  6
CONTINUOUS
 10
30.7618264925
 20
40.2179235351
 11
31.0498265092
 21
40.4099235462
  0
LINE
  5
347
100
AcDbEntity
  8
0
100
AcDbLine
 62
7
  6
CONTINUOUS
 10
31.0498265092
 20
40.4099235462
 11
31.3618265273
 21
40.5779235559
  0
LINE
  5
348
100
AcDbEntity
  8
0
100
AcDbLine
 62
7
  6
CONTINUOUS
 10
31.3618265273
 20
40.5779235559
 11
31.6738265453
 21
40.7219235642
  0
LINE
  5
349
100
AcDbEntity
  8
0
100
AcDbLine
 62
7
  6
CONTINUOUS
 10
31.6738265453
 20
40.7219235642
 11
32.0098265648
 21
40.8419235712
  0
LINE
  5
34A
100
AcDbEntity
  8
0
100
AcDbLine
 62
7
  6
CONTINUOUS
 10
32.0098265648
 20
40.8419235712
 11
32.3458265842
 21
40.925923576
  0
LINE
  5
34B
100
AcDbEntity
  8
0
100
AcDbLine
 62
7
  6
CONTINUOUS
 10
32.3458265842
 20
40.925923576
 11
32.6938266043
 21
40.9859235795
  0
LINE
  5
34C
100
AcDbEntity
  8
0
100
AcDbLine
 62
7
  6
CONTINUOUS
 10
32.6938266043
 20
40.9859235795
 11
33.0298266238
 21
41.0219235816
  0
LINE
  5
34D
100
AcDbEntity
  8
0
100
AcDbLine
 62
7
  6
CONTINUOUS
 10
33.0298266238
 20
41.0219235816
 11
33.3778266439
 21
41.0339235823
  0
LINE
  5
34E
100
AcDbEntity
  8
0
100
AcDbLine
 62
7
  6
CONTINUOUS
 10
33.3778266439
 20
41.0339235823
 11
36.9538268509
 21
41.0339235823
  0
LINE
  5
34F
100
AcDbEntity
  8
0
100
AcDbLine
 62
7
  6
CONTINUOUS
 10
36.9538268509
 20
41.0339235823
 11
36.2578268106
 21
39.4259234892
  0
LINE
  5
350
100
AcDbEntity
  8
0
100
AcDbLine
 62
7
  6
CONTINUOUS
 10
36.2578268106
 20
39.4259234892
 11
33.3898266446
 21
39.4259234892
  0
LINE
  5
351
100
AcDbEntity
  8
0
100
AcDbLine
 62
7
  6
CONTINUOUS
 10
33.3898266446
 20
39.4259234892
 11
33.0778266266
 21
39.4139234885
  0
LINE
  5
352
100
AcDbEntity
  8
0
100
AcDbLine
 62
7
  6
CONTINUOUS
 10
33.0778266266
 20
39.4139234885
 11
32.7778266092
 21
39.3539234851
  0
LINE
  5
353
100
AcDbEntity
  8
0
100
AcDbLine
 62
7
  6
CONTINUOUS
 10
32.7778266092
 20
39.3539234851
 11
32.5018265932
 21
39.2579234795
  0
LINE
  5
354
100
AcDbEntity
  8
0
100
AcDbLine
 62
7
  6
CONTINUOUS
 10
32.5018265932
 20
39.2579234795
 11
32.2498265786
 21
39.1259234719
  0
LINE
  5
355
100
AcDbEntity
  8
0
100
AcDbLine
 62
7
  6
CONTINUOUS
 10
32.2498265786
 20
39.1259234719
 11
32.0218265654
 21
38.9699234629
  0
LINE
  5
356
100
AcDbEntity
  8
0
100
AcDbLine
 62
7
  6
CONTINUOUS
 10
32.0218265654
 20
38.9699234629
 11
31.8298265543
 21
38.7779234517
  0
LINE
  5
357
100
AcDbEntity
  8
0
100
AcDbLine
 62
7
  6
CONTINUOUS
 10
31.8298265543
 20
38.7779234517
 11
31.6618265446
 21
38.5499234385
  0
LINE
  5
358
100
AcDbEntity
  8
0
100
AcDbLine
 62
7
  6
CONTINUOUS
 10
31.6618265446
 20
38.5499234385
 11
31.5418265377
 21
38.297923424
  0
LINE
  5
359
100
AcDbEntity
  8
0
100
AcDbLine
 62
7
  6
CONTINUOUS
 10
31.5418265377
 20
38.297923424
 11
35.0458267404
 21
38.297923424
  0
LINE
  5
35A
100
AcDbEntity
  8
0
100
AcDbLine
 62
7
  6
CONTINUOUS
 10
35.0458267404
 20
38.297923424
 11
35.0458267404
 21
36.9179233441
  0
LINE
  5
35B
100
AcDbEntity
  8
0
100
AcDbLine
 62
7
  6
CONTINUOUS
 10
35.0458267404
 20
36.9179233441
 11
31.5418265377
 21
36.9179233441
  0
LINE
  5
35C
100
AcDbEntity
  8
0
100
AcDbLine
 62
7
  6
CONTINUOUS
 10
31.5418265377
 20
36.9179233441
 11
31.6618265446
 21
36.6659233295
  0
LINE
  5
35D
100
AcDbEntity
  8
0
100
AcDbLine
 62
7
  6
CONTINUOUS
 10
31.6618265446
 20
36.6659233295
 11
31.8298265543
 21
36.449923317
  0
LINE
  5
35E
100
AcDbEntity
  8
0
100
AcDbLine
 62
7
  6
CONTINUOUS
 10
31.8298265543
 20
36.449923317
 11
32.0218265654
 21
36.2579233059
  0
LINE
  5
35F
100
AcDbEntity
  8
0
100
AcDbLine
 62
7
  6
CONTINUOUS
 10
32.0218265654
 20
36.2579233059
 11
32.2498265786
 21
36.0899232962
  0
LINE
  5
360
100
AcDbEntity
  8
0
100
AcDbLine
 62
7
  6
CONTINUOUS
 10
32.2498265786
 20
36.0899232962
 11
32.5018265932
 21
35.9579232885
  0
LINE
  5
361
100
AcDbEntity
  8
0
100
AcDbLine
 62
7
  6
CONTINUOUS
 10
32.5018265932
 20
35.9579232885
 11
32.7778266092
 21
35.8739232837
  0
LINE
  5
362
100
AcDbEntity
  8
0
100
AcDbLine
 62
7
  6
CONTINUOUS
 10
32.7778266092
 20
35.8739232837
 11
33.0778266266
 21
35.8139232802
  0
LINE
  5
363
100
AcDbEntity
  8
0
100
AcDbLine
 62
7
  6
CONTINUOUS
 10
33.0778266266
 20
35.8139232802
 11
33.3898266446
 21
35.7899232788
  0
LINE
  5
364
100
AcDbEntity
  8
0
100
AcDbLine
 62
7
  6
CONTINUOUS
 10
33.3898266446
 20
35.7899232788
 11
36.9538268509
 21
35.7899232788
  0
LINE
  5
365
100
AcDbEntity
  8
0
100
AcDbLine
 62
7
  6
CONTINUOUS
 10
36.9538268509
 20
35.7899232788
 11
36.2578268106
 21
34.1939231865
  0
LINE
  5
366
100
AcDbEntity
  8
0
100
AcDbLine
 62
7
  6
CONTINUOUS
 10
36.2578268106
 20
34.1939231865
 11
33.3778266439
 21
34.1819231858
  0
LINE
  5
367
100
AcDbEntity
  8
0
100
AcDbLine
 62
7
  6
CONTINUOUS
 10
33.3778266439
 20
34.1819231858
 11
33.3658266432
 21
34.1819231858
  0
LINE
  5
368
100
AcDbEntity
  8
0
100
AcDbLine
 62
7
  6
CONTINUOUS
 10
56.8138280002
 20
34.1939231865
 11
56.8138280002
 21
39.4259234892
  0
LINE
  5
369
100
AcDbEntity
  8
0
100
AcDbLine
 62
7
  6
CONTINUOUS
 10
56.8138280002
 20
39.4259234892
 11
54.2098278495
 21
39.4379234899
  0
LINE
  5
36A
100
AcDbEntity
  8
0
100
AcDbLine
 62
7
  6
CONTINUOUS
 10
54.2098278495
 20
39.4379234899
 11
54.8818278884
 21
41.0219235816
  0
LINE
  5
36B
100
AcDbEntity
  8
0
100
AcDbLine
 62
7
  6
CONTINUOUS
 10
54.8818278884
 20
41.0219235816
 11
60.8218282321
 21
41.0219235816
  0
LINE
  5
36C
100
AcDbEntity
  8
0
100
AcDbLine
 62
7
  6
CONTINUOUS
 10
60.8218282321
 20
41.0219235816
 11
61.5058282717
 21
39.4379234899
  0
LINE
  5
36D
100
AcDbEntity
  8
0
100
AcDbLine
 62
7
  6
CONTINUOUS
 10
61.5058282717
 20
39.4379234899
 11
58.9258281224
 21
39.4379234899
  0
LINE
  5
36E
100
AcDbEntity
  8
0
100
AcDbLine
 62
7
  6
CONTINUOUS
 10
58.9258281224
 20
39.4379234899
 11
58.9258281224
 21
34.1939231865
  0
LINE
  5
36F
100
AcDbEntity
  8
0
100
AcDbLine
 62
7
  6
CONTINUOUS
 10
58.9258281224
 20
34.1939231865
 11
56.8138280002
 21
34.1939231865
  0
ENDBLK
  5
370
100
AcDbEntity
  8
0
  6
BYBLOCK
 62
0
100
AcDbBlockEnd
  0
BLOCK
  5
371
100
AcDbEntity
  8
0
100
AcDbBlockBegin
  2
_FILLED
 70
64
 10
0.0
 20
0.0
  3
_FILLED
  1

  0
SOLID
  5
372
100
AcDbEntity
  8
0
  6
BYBLOCK
 62
0
100
AcDbTrace
 10
0.0
 20
0.0
 11
-1.0
 21
0.2
 12
-1.0
 22
-0.2
 13
-1.0
 23
-0.2
  0
ENDBLK
  5
373
100
AcDbEntity
  8
0
  6
BYBLOCK
 62
0
100
AcDbBlockEnd
  0
BLOCK
  5
374
100
AcDbEntity
  8
0
100
AcDbBlockBegin
 62
2
  6
CONTINUOUS
  2
*D0
 70
65
 10
0.0
 20
0.0
  3
*D0
  1

  0
MTEXT
  5
375
100
AcDbEntity
  8
0
100
AcDbMText
 62
2
  6
CONTINUOUS
  7
STANDARD
 71
2
 72
1
 10
75.0
 20
153.0
 30
0.0
 11
1.0
 21
0.0
 31
0.0
 44
0.9
  1
50{\Ftxt.shx;\W1.000000;\H2.000000; }[2]
 40
2.0
 41
8.2081784387
  0
LINE
  5
376
100
AcDbEntity
  8
0
100
AcDbLine
 62
2
  6
CONTINUOUS
 10
50.0
 20
145.0020556979
 11
50.0
 21
151.5
  0
LINE
  5
377
100
AcDbEntity
  8
0
100
AcDbLine
 62
2
  6
CONTINUOUS
 10
100.0
 20
133.3795311544
 11
100.0
 21
151.5
  0
LINE
  5
378
100
AcDbEntity
  8
0
100
AcDbLine
 62
2
  6
CONTINUOUS
 10
50.0
 20
150.5
 11
75.0
 21
150.5
  0
LINE
  5
379
100
AcDbEntity
  8
0
100
AcDbLine
 62
2
  6
CONTINUOUS
 10
100.0
 20
150.5
 11
75.0
 21
150.5
  0
INSERT
  5
37A
100
AcDbEntity
  8
0
100
AcDbBlockReference
 62
2
  6
CONTINUOUS
  2
_FILLED
 10
50.0
 20
150.5
 41
2.0
 42
2.0
 43
2.0
 50
180.0
  0
INSERT
  5
37B
100
AcDbEntity
  8
0
100
AcDbBlockReference
 62
2
  6
CONTINUOUS
  2
_FILLED
 10
100.0
 20
150.5
 41
2.0
 42
2.0
 43
2.0
  0
ENDBLK
  5
37C
100
AcDbEntity
  8
0
  6
BYBLOCK
 62
0
100
AcDbBlockEnd
  0
BLOCK
  5
37D
100
AcDbEntity
  8
0
100
AcDbBlockBegin
 62
2
  6
CONTINUOUS
  2
*D1
 70
65
 10
0.0
 20
0.0
  3
*D1
  1

  0
MTEXT
  5
37E
100
AcDbEntity
  8
0
100
AcDbMText
 62
2
  6
CONTINUOUS
  7
STANDARD
 71
2
 72
1
 10
42.0
 20
123.4296511435
 30
0.0
 11
0.0
 21
1.0
 31
0.0
 44
0.9
  1
50{\Ftxt.shx;\W1.000000;\H2.000000; }[2]
 40
2.0
 41
8.2081784387
  0
LINE
  5
37F
100
AcDbEntity
  8
0
100
AcDbLine
 62
2
  6
CONTINUOUS
 10
49.9979443021
 20
145.0
 11
43.5
 21
145.0
  0
LINE
  5
380
100
AcDbEntity
  8
0
100
AcDbLine
 62
2
  6
CONTINUOUS
 10
61.6204688456
 20
95.0
 11
43.5
 21
95.0
  0
LINE
  5
381
100
AcDbEntity
  8
0
100
AcDbLine
 62
2
  6
CONTINUOUS
 10
44.5
 20
145.0
 11
44.5
 21
120.0
  0
LINE
  5
382
100
AcDbEntity
  8
0
100
AcDbLine
 62
2
  6
CONTINUOUS
 10
44.5
 20
95.0
 11
44.5
 21
120.0
  0
INSERT
  5
383
100
AcDbEntity
  8
0
100
AcDbBlockReference
 62
2
  6
CONTINUOUS
  2
_FILLED
 10
44.5
 20
145.0
 41
2.0
 42
2.0
 43
2.0
 50
90.0
  0
INSERT
  5
384
100
AcDbEntity
  8
0
100
AcDbBlockReference
 62
2
  6
CONTINUOUS
  2
_FILLED
 10
44.5
 20
95.0
 41
2.0
 42
2.0
 43
2.0
 50
270.0
  0
ENDBLK
  5
385
100
AcDbEntity
  8
0
  6
BYBLOCK
 62
0
100
AcDbBlockEnd
  0
BLOCK
  5
386
100
AcDbEntity
  8
0
100
AcDbBlockBegin
 62
2
  6
CONTINUOUS
  2
*D2
 70
65
 10
0.0
 20
0.0
  3
*D2
  1

  0
MTEXT
  5
387
100
AcDbEntity
  8
0
100
AcDbMText
 62
2
  6
CONTINUOUS
  7
STANDARD
 71
2
 72
1
 10
75.0
 20
196.515
 30
0.0
 11
1.0
 21
0.0
 31
0.0
 44
0.9
  1
M20{\Ftxt.shx;\W1.159851;\H2.000000; }x 1.5\P[0.8]
 40
2.0
 41
13.7992565056
  0
LINE
  5
388
100
AcDbEntity
  8
0
100
AcDbLine
 62
2
  6
CONTINUOUS
 10
65.0
 20
202.5458699058
 11
65.0
 21
193.015
  0
LINE
  5
389
100
AcDbEntity
  8
0
100
AcDbLine
 62
2
  6
CONTINUOUS
 10
85.0
 20
203.2958699058
 11
85.0
 21
193.015
  0
LINE
  5
38A
100
AcDbEntity
  8
0
100
AcDbLine
 62
2
  6
CONTINUOUS
 10
65.0
 20
194.015
 11
75.0
 21
194.015
  0
LINE
  5
38B
100
AcDbEntity
  8
0
100
AcDbLine
 62
2
  6
CONTINUOUS
 10
85.0
 20
194.015
 11
75.0
 21
194.015
  0
INSERT
  5
38C
100
AcDbEntity
  8
0
100
AcDbBlockReference
 62
2
  6
CONTINUOUS
  2
_FILLED
 10
65.0
 20
194.015
 41
2.0
 42
2.0
 43
2.0
 50
180.0
  0
INSERT
  5
38D
100
AcDbEntity
  8
0
100
AcDbBlockReference
 62
2
  6
CONTINUOUS
  2
_FILLED
 10
85.0
 20
194.015
 41
2.0
 42
2.0
 43
2.0
  0
ENDBLK
  5
38E
100
AcDbEntity
  8
0
  6
BYBLOCK
 62
0
100
AcDbBlockEnd
  0
BLOCK
  5
38F
100
AcDbEntity
  8
0
100
AcDbBlockBegin
 62
2
  6
CONTINUOUS
  2
*D3
 70
65
 10
0.0
 20
0.0
  3
*D3
  1

  0
MTEXT
  5
390
100
AcDbEntity
  8
0
100
AcDbMText
 62
2
  6
CONTINUOUS
  7
STANDARD
 71
2
 72
1
 10
42.0
 20
226.985
 30
0.0
 11
0.0
 21
1.0
 31
0.0
 44
0.9
  1
20{\Ftxt.shx;\W1.000000;\H2.000000; }[0.8]
 40
2.0
 41
10.5353159851
  0
LINE
  5
391
100
AcDbEntity
  8
0
100
AcDbLine
 62
2
  6
CONTINUOUS
 10
50.9716024357
 20
236.985
 11
43.5
 21
236.985
  0
LINE
  5
392
100
AcDbEntity
  8
0
100
AcDbLine
 62
2
  6
CONTINUOUS
 10
48.9387377283
 20
216.985
 11
43.5
 21
216.985
  0
LINE
  5
393
100
AcDbEntity
  8
0
100
AcDbLine
 62
2
  6
CONTINUOUS
 10
44.5
 20
236.985
 11
44.5
 21
226.985
  0
LINE
  5
394
100
AcDbEntity
  8
0
100
AcDbLine
 62
2
  6
CONTINUOUS
 10
44.5
 20
216.985
 11
44.5
 21
226.985
  0
INSERT
  5
395
100
AcDbEntity
  8
0
100
AcDbBlockReference
 62
2
  6
CONTINUOUS
  2
_FILLED
 10
44.5
 20
236.985
 41
2.0
 42
2.0
 43
2.0
 50
90.0
  0
INSERT
  5
396
100
AcDbEntity
  8
0
100
AcDbBlockReference
 62
2
  6
CONTINUOUS
  2
_FILLED
 10
44.5
 20
216.985
 41
2.0
 42
2.0
 43
2.0
 50
270.0
  0
ENDBLK
  5
397
100
AcDbEntity
  8
0
  6
BYBLOCK
 62
0
100
AcDbBlockEnd
  0
BLOCK
  5
398
100
AcDbEntity
  8
0
100
AcDbBlockBegin
 62
2
  6
CONTINUOUS
  2
*D4
 70
65
 10
0.0
 20
0.0
  3
*D4
  1

  0
MTEXT
  5
399
100
AcDbEntity
  8
0
100
AcDbMText
 62
2
  6
CONTINUOUS
  7
STANDARD
 71
2
 72
1
 10
38.5
 20
220.0
 30
0.0
 11
0.0
 21
1.0
 31
0.0
 44
0.9
  1
34{\Ftxt.shx;\W1.000000;\H2.000000; }[1]
 40
2.0
 41
8.2081784387
  0
LINE
  5
39A
100
AcDbEntity
  8
0
100
AcDbLine
 62
2
  6
CONTINUOUS
 10
50.9716024357
 20
236.985
 11
40.0
 21
236.985
  0
LINE
  5
39B
100
AcDbEntity
  8
0
100
AcDbLine
 62
2
  6
CONTINUOUS
 10
64.5
 20
203.015
 11
40.0
 21
203.015
  0
LINE
  5
39C
100
AcDbEntity
  8
0
100
AcDbLine
 62
2
  6
CONTINUOUS
 10
41.0
 20
236.985
 11
41.0
 21
220.0
  0
LINE
  5
39D
100
AcDbEntity
  8
0
100
AcDbLine
 62
2
  6
CONTINUOUS
 10
41.0
 20
203.015
 11
41.0
 21
220.0
  0
INSERT
  5
39E
100
AcDbEntity
  8
0
100
AcDbBlockReference
 62
2
  6
CONTINUOUS
  2
_FILLED
 10
41.0
 20
236.985
 41
2.0
 42
2.0
 43
2.0
 50
90.0
  0
INSERT
  5
39F
100
AcDbEntity
  8
0
100
AcDbBlockReference
 62
2
  6
CONTINUOUS
  2
_FILLED
 10
41.0
 20
203.015
 41
2.0
 42
2.0
 43
2.0
 50
270.0
  0
ENDBLK
  5
3A0
100
AcDbEntity
  8
0
  6
BYBLOCK
 62
0
100
AcDbBlockEnd
  0
BLOCK
  5
3A1
100
AcDbEntity
  8
0
100
AcDbBlockBegin
 62
2
  6
CONTINUOUS
  2
*D5
 70
65
 10
0.0
 20
0.0
  3
*D5
  1

  0
MTEXT
  5
3A2
100
AcDbEntity
  8
0
100
AcDbMText
 62
2
  6
CONTINUOUS
  7
STANDARD
 71
1
 72
1
 10
165.3806245737
 20
153.0
 30
0.0
 11
1.0
 21
0.0
 31
0.0
 44
0.9
  1
2.5{\Ftxt.shx;\W1.000000;\H2.000000; }[0.1]
 40
2.0
 41
11.3085501859
  0
LINE
  5
3A3
100
AcDbEntity
  8
0
100
AcDbLine
 62
2
  6
CONTINUOUS
 10
158.75
 20
137.75
 11
158.75
 21
151.5
  0
LINE
  5
3A4
100
AcDbEntity
  8
0
100
AcDbLine
 62
2
  6
CONTINUOUS
 10
161.25
 20
137.75
 11
161.25
 21
151.5
  0
LINE
  5
3A5
100
AcDbEntity
  8
0
100
AcDbLine
 62
2
  6
CONTINUOUS
 10
158.75
 20
150.5
 11
153.75
 21
150.5
  0
LINE
  5
3A6
100
AcDbEntity
  8
0
100
AcDbLine
 62
2
  6
CONTINUOUS
 10
153.75
 20
150.5
 11
160.0
 21
150.5
  0
LINE
  5
3A7
100
AcDbEntity
  8
0
100
AcDbLine
 62
2
  6
CONTINUOUS
 10
161.25
 20
150.5
 11
176.6891747595
 21
150.5
  0
LINE
  5
3A8
100
AcDbEntity
  8
0
100
AcDbLine
 62
2
  6
CONTINUOUS
 10
176.6891747595
 20
150.5
 11
160.0
 21
150.5
  0
INSERT
  5
3A9
100
AcDbEntity
  8
0
100
AcDbBlockReference
 62
2
  6
CONTINUOUS
  2
_FILLED
 10
158.75
 20
150.5
 41
2.0
 42
2.0
 43
2.0
  0
INSERT
  5
3AA
100
AcDbEntity
  8
0
100
AcDbBlockReference
 62
2
  6
CONTINUOUS
  2
_FILLED
 10
161.25
 20
150.5
 41
2.0
 42
2.0
 43
2.0
 50
180.0
  0
ENDBLK
  5
3AB
100
AcDbEntity
  8
0
  6
BYBLOCK
 62
0
100
AcDbBlockEnd
  0
BLOCK
  5
3AC
100
AcDbEntity
  8
0
100
AcDbBlockBegin
 62
2
  6
CONTINUOUS
  2
*D6
 70
65
 10
0.0
 20
0.0
  3
*D6
  1

  0
MTEXT
  5
3AD
100
AcDbEntity
  8
0
100
AcDbMText
 62
2
  6
CONTINUOUS
  7
TEXTSTYLE_1
 71
3
 72
1
 10
142.6679168304
 20
146.3023266099
 30
0.0
 11
0.6991103878
 21
-0.7150137521
 31
0.0
 44
0.9
  1
{\Fgdt;n}\Farial.ttf;22{\Ftxt.shx;\W1.000000;\H2.000000; }[0.9]
 40
2.0
 41
13.2019826518
  0
LINE
  5
3AE
100
AcDbEntity
  8
0
100
AcDbLine
 62
2
  6
CONTINUOUS
 10
152.3097857338
 20
132.8651512726
 11
131.6507392384
 21
153.9941497907
  0
INSERT
  5
3AF
100
AcDbEntity
  8
0
100
AcDbBlockReference
 62
2
  6
CONTINUOUS
  2
_FILLED
 10
152.3097857338
 20
132.8651512726
 41
2.0
 42
2.0
 43
2.0
 50
314.3556737965
  0
ENDBLK
  5
3B0
100
AcDbEntity
  8
0
  6
BYBLOCK
 62
0
100
AcDbBlockEnd
  0
BLOCK
  5
3B1
100
AcDbEntity
  8
0
100
AcDbBlockBegin
 62
2
  6
CONTINUOUS
  2
*D7
 70
65
 10
0.0
 20
0.0
  3
*D7
  1

  0
MTEXT
  5
3B2
100
AcDbEntity
  8
0
100
AcDbMText
 62
2
  6
CONTINUOUS
  7
STANDARD
 71
3
 72
1
 10
188.0
 20
123.0677154853
 30
0.0
 11
0.0
 21
1.0
 31
0.0
 44
0.9
  1
12.5{\Ftxt.shx;\W1.000000;\H2.000000; }[0.5]
 40
2.0
 41
12.8624535316
  0
LINE
  5
3B3
100
AcDbEntity
  8
0
100
AcDbLine
 62
2
  6
CONTINUOUS
 10
161.5
 20
137.5
 11
191.5
 21
137.5
  0
LINE
  5
3B4
100
AcDbEntity
  8
0
100
AcDbLine
 62
2
  6
CONTINUOUS
 10
161.5
 20
125.0
 11
191.5
 21
125.0
  0
LINE
  5
3B5
100
AcDbEntity
  8
0
100
AcDbLine
 62
2
  6
CONTINUOUS
 10
190.5
 20
137.5
 11
190.5
 21
131.25
  0
LINE
  5
3B6
100
AcDbEntity
  8
0
100
AcDbLine
 62
2
  6
CONTINUOUS
 10
190.5
 20
125.0
 11
190.5
 21
131.25
  0
LINE
  5
3B7
100
AcDbEntity
  8
0
100
AcDbLine
 62
2
  6
CONTINUOUS
 10
190.5
 20
131.25
 11
190.5
 21
110.2052619537
  0
INSERT
  5
3B8
100
AcDbEntity
  8
0
100
AcDbBlockReference
 62
2
  6
CONTINUOUS
  2
_FILLED
 10
190.5
 20
137.5
 41
2.0
 42
2.0
 43
2.0
 50
90.0
  0
INSERT
  5
3B9
100
AcDbEntity
  8
0
100
AcDbBlockReference
 62
2
  6
CONTINUOUS
  2
_FILLED
 10
190.5
 20
125.0
 41
2.0
 42
2.0
 43
2.0
 50
270.0
  0
ENDBLK
  5
3BA
100
AcDbEntity
  8
0
  6
BYBLOCK
 62
0
100
AcDbBlockEnd
  0
BLOCK
  5
3BB
100
AcDbEntity
  8
0
100
AcDbBlockBegin
 62
2
  6
CONTINUOUS
  2
*D8
 70
65
 10
0.0
 20
0.0
  3
*D8
  1

  0
MTEXT
  5
3BC
100
AcDbEntity
  8
0
100
AcDbMText
 62
2
  6
CONTINUOUS
  7
STANDARD
 71
1
 72
1
 10
106.5
 20
219.1222378807
 30
0.0
 11
0.0
 21
1.0
 31
0.0
 44
0.9
  1
0.7{\Ftxt.shx;\W1.000000;\H2.000000; }[0]
 40
2.0
 41
8.9814126394
  0
LINE
  5
3BD
100
AcDbEntity
  8
0
100
AcDbLine
 62
2
  6
CONTINUOUS
 10
90.6
 20
215.015
 11
110.0
 21
215.015
  0
LINE
  5
3BE
100
AcDbEntity
  8
0
100
AcDbLine
 62
2
  6
CONTINUOUS
 10
87.426629109
 20
214.315
 11
110.0
 21
214.315
  0
LINE
  5
3BF
100
AcDbEntity
  8
0
100
AcDbLine
 62
2
  6
CONTINUOUS
 10
109.0
 20
215.015
 11
109.0
 21
228.1036505201
  0
LINE
  5
3C0
100
AcDbEntity
  8
0
100
AcDbLine
 62
2
  6
CONTINUOUS
 10
109.0
 20
228.1036505201
 11
109.0
 21
214.665
  0
LINE
  5
3C1
100
AcDbEntity
  8
0
100
AcDbLine
 62
2
  6
CONTINUOUS
 10
109.0
 20
214.315
 11
109.0
 21
209.315
  0
LINE
  5
3C2
100
AcDbEntity
  8
0
100
AcDbLine
 62
2
  6
CONTINUOUS
 10
109.0
 20
209.315
 11
109.0
 21
214.665
  0
INSERT
  5
3C3
100
AcDbEntity
  8
0
100
AcDbBlockReference
 62
2
  6
CONTINUOUS
  2
_FILLED
 10
109.0
 20
215.015
 41
2.0
 42
2.0
 43
2.0
 50
270.0
  0
INSERT
  5
3C4
100
AcDbEntity
  8
0
100
AcDbBlockReference
 62
2
  6
CONTINUOUS
  2
_FILLED
 10
109.0
 20
214.315
 41
2.0
 42
2.0
 43
2.0
 50
90.0
  0
ENDBLK
  5
3C5
100
AcDbEntity
  8
0
  6
BYBLOCK
 62
0
100
AcDbBlockEnd
  0
BLOCK
  5
3C6
100
AcDbEntity
  8
0
100
AcDbBlockBegin
 62
2
  6
CONTINUOUS
  2
*D9
 70
65
 10
0.0
 20
0.0
  3
*D9
  1

  0
MTEXT
  5
3C7
100
AcDbEntity
  8
0
100
AcDbMText
 62
2
  6
CONTINUOUS
  7
STANDARD
 71
3
 72
1
 10
106.5
 20
201.6864775983
 30
0.0
 11
0.0
 21
1.0
 31
0.0
 44
0.9
  1
11.3{\Ftxt.shx;\W1.000000;\H2.000000; }[0.4]
 40
2.0
 41
12.8624535316
  0
LINE
  5
3C8
100
AcDbEntity
  8
0
100
AcDbLine
 62
2
  6
CONTINUOUS
 10
87.426629109
 20
214.315
 11
110.0
 21
214.315
  0
LINE
  5
3C9
100
AcDbEntity
  8
0
100
AcDbLine
 62
2
  6
CONTINUOUS
 10
85.5
 20
203.015
 11
110.0
 21
203.015
  0
LINE
  5
3CA
100
AcDbEntity
  8
0
100
AcDbLine
 62
2
  6
CONTINUOUS
 10
109.0
 20
214.315
 11
109.0
 21
208.665
  0
LINE
  5
3CB
100
AcDbEntity
  8
0
100
AcDbLine
 62
2
  6
CONTINUOUS
 10
109.0
 20
203.015
 11
109.0
 21
208.665
  0
LINE
  5
3CC
100
AcDbEntity
  8
0
100
AcDbLine
 62
2
  6
CONTINUOUS
 10
109.0
 20
208.665
 11
109.0
 21
188.8240240667
  0
INSERT
  5
3CD
100
AcDbEntity
  8
0
100
AcDbBlockReference
 62
2
  6
CONTINUOUS
  2
_FILLED
 10
109.0
 20
214.315
 41
2.0
 42
2.0
 43
2.0
 50
90.0
  0
INSERT
  5
3CE
100
AcDbEntity
  8
0
100
AcDbBlockReference
 62
2
  6
CONTINUOUS
  2
_FILLED
 10
109.0
 20
203.015
 41
2.0
 42
2.0
 43
2.0
 50
270.0
  0
ENDBLK
  5
3CF
100
AcDbEntity
  8
0
  6
BYBLOCK
 62
0
100
AcDbBlockEnd
  0
BLOCK
  5
3D0
100
AcDbEntity
  8
0
100
AcDbBlockBegin
  2
*T1
 70
1
 10
0.0
 20
0.0
  3
*T1
  1

  0
LINE
  5
3D1
100
AcDbEntity
  8
0
100
AcDbLine
 62
2
  6
CONTINUOUS
 10
185.0
 20
0.0
 11
0.0
 21
0.0
  0
LINE
  5
3D2
100
AcDbEntity
  8
0
100
AcDbLine
 62
2
  6
CONTINUOUS
 10
185.0
 20
0.0
 11
185.0
 21
24.0
  0
LINE
  5
3D3
100
AcDbEntity
  8
0
100
AcDbLine
 62
2
  6
CONTINUOUS
 10
185.0
 20
6.0
 11
0.0
 21
6.0
  0
LINE
  5
3D4
100
AcDbEntity
  8
0
100
AcDbLine
 62
2
  6
CONTINUOUS
 10
185.0
 20
12.0
 11
0.0
 21
12.0
  0
LINE
  5
3D5
100
AcDbEntity
  8
0
100
AcDbLine
 62
2
  6
CONTINUOUS
 10
185.0
 20
18.0
 11
0.0
 21
18.0
  0
LINE
  5
3D6
100
AcDbEntity
  8
0
100
AcDbLine
 62
2
  6
CONTINUOUS
 10
185.0
 20
24.0
 11
0.0
 21
24.0
  0
LINE
  5
3D7
100
AcDbEntity
  8
0
100
AcDbLine
 62
2
  6
CONTINUOUS
 10
167.0
 20
0.0
 11
167.0
 21
24.0
  0
LINE
  5
3D8
100
AcDbEntity
  8
0
100
AcDbLine
 62
2
  6
CONTINUOUS
 10
149.0
 20
0.0
 11
149.0
 21
24.0
  0
LINE
  5
3D9
100
AcDbEntity
  8
0
100
AcDbLine
 62
2
  6
CONTINUOUS
 10
131.0
 20
0.0
 11
131.0
 21
24.0
  0
LINE
  5
3DA
100
AcDbEntity
  8
0
100
AcDbLine
 62
2
  6
CONTINUOUS
 10
11.0
 20
0.0
 11
11.0
 21
24.0
  0
LINE
  5
3DB
100
AcDbEntity
  8
0
100
AcDbLine
 62
2
  6
CONTINUOUS
 10
0.0
 20
0.0
 11
0.0
 21
24.0
  0
MTEXT
  5
3DC
100
AcDbEntity
  8
0
100
AcDbMText
 62
2
  6
CONTINUOUS
  7
TEXTSTYLE_2
 71
2
 72
1
 10
5.5
 20
4.25
 30
0.0
 11
1.0
 21
0.0
 31
0.0
 44
0.9
  1
A
 40
2.5
 41
4.6468401487
  0
MTEXT
  5
3DD
100
AcDbEntity
  8
0
100
AcDbMText
 62
2
  6
CONTINUOUS
  7
TEXTSTYLE_2
 71
2
 72
1
 10
176.0
 20
21.9961801625
 30
0.0
 11
1.0
 21
0.0
 31
0.0
 44
0.9
  1
\Q5.0;Appr.
 40
2.0
 41
13.3382899628
  0
MTEXT
  5
3DE
100
AcDbEntity
  8
0
100
AcDbMText
 62
2
  6
CONTINUOUS
  7
TEXTSTYLE_2
 71
2
 72
1
 10
158.0
 20
21.9961801625
 30
0.0
 11
1.0
 21
0.0
 31
0.0
 44
0.9
  1
\Q5.0;By
 40
2.0
 41
6.5130111524
  0
MTEXT
  5
3DF
100
AcDbEntity
  8
0
100
AcDbMText
 62
2
  6
CONTINUOUS
  7
TEXTSTYLE_2
 71
2
 72
1
 10
140.0
 20
21.9961801625
 30
0.0
 11
1.0
 21
0.0
 31
0.0
 44
0.9
  1
\Q5.0;Date
 40
2.0
 41
11.7918215613
  0
MTEXT
  5
3E0
100
AcDbEntity
  8
0
100
AcDbMText
 62
2
  6
CONTINUOUS
  7
TEXTSTYLE_2
 71
2
 72
1
 10
71.0
 20
21.9961801625
 30
0.0
 11
1.0
 21
0.0
 31
0.0
 44
0.9
  1
\Q5.0;Description
 40
2.0
 41
27.9256505576
  0
MTEXT
  5
3E1
100
AcDbEntity
  8
0
100
AcDbMText
 62
2
  6
CONTINUOUS
  7
TEXTSTYLE_2
 71
2
 72
1
 10
5.5
 20
21.9961801625
 30
0.0
 11
1.0
 21
0.0
 31
0.0
 44
0.9
  1
\Q5.0;ID
 40
2.0
 41
5.5762081784
  0
ENDBLK
  5
3E2
100
AcDbEntity
  8
0
  6
BYBLOCK
 62
0
100
AcDbBlockEnd
  0
BLOCK
  5
3E3
100
AcDbEntity
  8
0
100
AcDbBlockBegin
  2
*T2
 70
1
 10
0.0
 20
0.0
  3
*T2
  1

  0
LINE
  5
3E4
100
AcDbEntity
  8
0
100
AcDbLine
 62
2
  6
CONTINUOUS
 10
0.0
 20
0.0
 11
175.0
 21
0.0
  0
LINE
  5
3E5
100
AcDbEntity
  8
0
100
AcDbLine
 62
2
  6
CONTINUOUS
 10
0.0
 20
0.0
 11
0.0
 21
-6.0
  0
LINE
  5
3E6
100
AcDbEntity
  8
0
100
AcDbLine
 62
2
  6
CONTINUOUS
 10
0.0
 20
-6.0
 11
175.0
 21
-6.0
  0
LINE
  5
3E7
100
AcDbEntity
  8
0
100
AcDbLine
 62
2
  6
CONTINUOUS
 10
93.0
 20
0.0
 11
93.0
 21
-6.0
  0
LINE
  5
3E8
100
AcDbEntity
  8
0
100
AcDbLine
 62
2
  6
CONTINUOUS
 10
175.0
 20
0.0
 11
175.0
 21
-6.0
  0
MTEXT
  5
3E9
100
AcDbEntity
  8
0
100
AcDbMText
 62
2
  6
CONTINUOUS
  7
TEXTSTYLE_2
 71
1
 72
1
 10
1.05
 20
-2.1283423579
 30
0.0
 11
1.0
 21
0.0
 31
0.0
 44
0.9
  1
\Q5.0;Material:
 40
1.75
 41
18.7100371747
  0
MTEXT
  5
3EA
100
AcDbEntity
  8
0
100
AcDbMText
 62
2
  6
CONTINUOUS
  7
TEXTSTYLE_2
 71
1
 72
1
 10
13.05
 20
-1.75
 30
0.0
 11
1.0
 21
0.0
 31
0.0
 44
0.9
  1
PBT+PC
 40
2.5
 41
27.3048327138
  0
MTEXT
  5
3EB
100
AcDbEntity
  8
0
100
AcDbMText
 62
2
  6
CONTINUOUS
  7
TEXTSTYLE_2
 71
1
 72
1
 10
94.05
 20
-2.1283423579
 30
0.0
 11
1.0
 21
0.0
 31
0.0
 44
0.9
  1
\Q5.0;Color:
 40
1.75
 41
13.0241635688
  0
ENDBLK
  5
3EC
100
AcDbEntity
  8
0
  6
BYBLOCK
 62
0
100
AcDbBlockEnd
  0
BLOCK
  5
3ED
100
AcDbEntity
  8
0
100
AcDbBlockBegin
  2
*T3
 70
1
 10
0.0
 20
0.0
  3
*T3
  1

  0
LINE
  5
3EE
100
AcDbEntity
  8
0
100
AcDbLine
 62
2
  6
CONTINUOUS
 10
0.0
 20
0.0
 11
93.0
 21
0.0
  0
LINE
  5
3EF
100
AcDbEntity
  8
0
100
AcDbLine
 62
2
  6
CONTINUOUS
 10
0.0
 20
0.0
 11
0.0
 21
-6.0
  0
LINE
  5
3F0
100
AcDbEntity
  8
0
100
AcDbLine
 62
2
  6
CONTINUOUS
 10
0.0
 20
-6.0
 11
93.0
 21
-6.0
  0
LINE
  5
3F1
100
AcDbEntity
  8
0
100
AcDbLine
 62
2
  6
CONTINUOUS
 10
44.0
 20
0.0
 11
44.0
 21
-6.0
  0
LINE
  5
3F2
100
AcDbEntity
  8
0
100
AcDbLine
 62
2
  6
CONTINUOUS
 10
93.0
 20
0.0
 11
93.0
 21
-6.0
  0
MTEXT
  5
3F3
100
AcDbEntity
  8
0
100
AcDbMText
 62
2
  6
CONTINUOUS
  7
TEXTSTYLE_2
 71
1
 72
1
 10
1.05
 20
-2.1283423579
 30
0.0
 11
1.0
 21
0.0
 31
0.0
 44
0.9
  1
\Q5.0;Supplier:
 40
1.75
 41
19.2695167286
  0
MTEXT
  5
3F4
100
AcDbEntity
  8
0
100
AcDbMText
 62
2
  6
CONTINUOUS
  7
TEXTSTYLE_2
 71
3
 72
1
 10
63.95
 20
-2.1283423579
 30
0.0
 11
1.0
 21
0.0
 31
0.0
 44
0.9
  1
\Q5.0;Tool No:
 40
1.75
 41
18.4498141264
  0
ENDBLK
  5
3F5
100
AcDbEntity
  8
0
  6
BYBLOCK
 62
0
100
AcDbBlockEnd
  0
BLOCK
  5
3F6
100
AcDbEntity
  8
0
100
AcDbBlockBegin
  2
*T4
 70
1
 10
0.0
 20
0.0
  3
*T4
  1

  0
LINE
  5
3F7
100
AcDbEntity
  8
0
100
AcDbLine
 62
2
  6
CONTINUOUS
 10
0.0
 20
0.0
 11
82.0
 21
0.0
  0
LINE
  5
3F8
100
AcDbEntity
  8
0
100
AcDbLine
 62
2
  6
CONTINUOUS
 10
0.0
 20
0.0
 11
0.0
 21
-6.0
  0
LINE
  5
3F9
100
AcDbEntity
  8
0
100
AcDbLine
 62
2
  6
CONTINUOUS
 10
0.0
 20
-6.0
 11
82.0
 21
-6.0
  0
LINE
  5
3FA
100
AcDbEntity
  8
0
100
AcDbLine
 62
2
  6
CONTINUOUS
 10
42.0
 20
0.0
 11
42.0
 21
-6.0
  0
LINE
  5
3FB
100
AcDbEntity
  8
0
100
AcDbLine
 62
2
  6
CONTINUOUS
 10
82.0
 20
0.0
 11
82.0
 21
-6.0
  0
MTEXT
  5
3FC
100
AcDbEntity
  8
0
100
AcDbMText
 62
2
  6
CONTINUOUS
  7
TEXTSTYLE_2
 71
1
 72
1
 10
1.2
 20
-2.1283423579
 30
0.0
 11
1.0
 21
0.0
 31
0.0
 44
0.9
  1
\Q5.0;Weight [kg]:
 40
1.75
 41
25.7750929368
  0
MTEXT
  5
3FD
100
AcDbEntity
  8
0
100
AcDbMText
 62
2
  6
CONTINUOUS
  7
TEXTSTYLE_2
 71
1
 72
1
 10
16.2
 20
-1.75
 30
0.0
 11
1.0
 21
0.0
 31
0.0
 44
0.9
  1
0.02
 40
2.5
 41
13.5873605948
  0
MTEXT
  5
3FE
100
AcDbEntity
  8
0
100
AcDbMText
 62
2
  6
CONTINUOUS
  7
TEXTSTYLE_2
 71
1
 72
1
 10
43.2
 20
-2.1283423579
 30
0.0
 11
1.0
 21
0.0
 31
0.0
 44
0.9
  1
\Q5.0;Volume:
 40
1.75
 41
17.9033457249
  0
ENDBLK
  5
3FF
100
AcDbEntity
  8
0
  6
BYBLOCK
 62
0
100
AcDbBlockEnd
  0
BLOCK
  5
400
100
AcDbEntity
  8
0
100
AcDbBlockBegin
  2
*T5
 70
1
 10
0.0
 20
0.0
  3
*T5
  1

  0
LINE
  5
401
100
AcDbEntity
  8
0
100
AcDbLine
 62
2
  6
CONTINUOUS
 10
110.0
 20
0.0
 11
0.0
 21
0.0
  0
LINE
  5
402
100
AcDbEntity
  8
0
100
AcDbLine
 62
2
  6
CONTINUOUS
 10
110.0
 20
0.0
 11
110.0
 21
35.9996
  0
LINE
  5
403
100
AcDbEntity
  8
0
100
AcDbLine
 62
2
  6
CONTINUOUS
 10
110.0
 20
5.5548
 11
70.0
 21
5.5548
  0
LINE
  5
404
100
AcDbEntity
  8
0
100
AcDbLine
 62
2
  6
CONTINUOUS
 10
110.0
 20
11.7028
 11
70.0
 21
11.7028
  0
LINE
  5
405
100
AcDbEntity
  8
0
100
AcDbLine
 62
2
  6
CONTINUOUS
 10
110.0
 20
17.8512
 11
70.0
 21
17.8512
  0
LINE
  5
406
100
AcDbEntity
  8
0
100
AcDbLine
 62
2
  6
CONTINUOUS
 10
110.0
 20
23.9996
 11
70.0
 21
23.9996
  0
LINE
  5
407
100
AcDbEntity
  8
0
100
AcDbLine
 62
2
  6
CONTINUOUS
 10
110.0
 20
29.9996
 11
70.0
 21
29.9996
  0
LINE
  5
408
100
AcDbEntity
  8
0
100
AcDbLine
 62
2
  6
CONTINUOUS
 10
110.0
 20
35.9996
 11
0.0
 21
35.9996
  0
LINE
  5
409
100
AcDbEntity
  8
0
100
AcDbLine
 62
2
  6
CONTINUOUS
 10
70.0
 20
0.0
 11
70.0
 21
35.9996
  0
LINE
  5
40A
100
AcDbEntity
  8
0
100
AcDbLine
 62
2
  6
CONTINUOUS
 10
0.0
 20
0.0
 11
0.0
 21
35.9996
  0
MTEXT
  5
40B
100
AcDbEntity
  8
0
100
AcDbMText
 62
2
  6
CONTINUOUS
  7
TEXTSTYLE_2
 71
1
 72
1
 10
71.05
 20
3.6490576421
 30
0.0
 11
1.0
 21
0.0
 31
0.0
 44
0.9
  1
\Q5.0;Sheet No:
 40
1.75
 41
21.7156133829
  0
MTEXT
  5
40C
100
AcDbEntity
  8
0
100
AcDbMText
 62
2
  6
CONTINUOUS
  7
TEXTSTYLE_2
 71
1
 72
1
 10
83.05
 20
10.2028
 30
0.0
 11
1.0
 21
0.0
 31
0.0
 44
0.9
  1
BVD22
 40
2.5
 41
22.1003717472
  0
MTEXT
  5
40D
100
AcDbEntity
  8
0
100
AcDbMText
 62
2
  6
CONTINUOUS
  7
TEXTSTYLE_2
 71
1
 72
1
 10
71.05
 20
9.5004576421
 30
0.0
 11
1.0
 21
0.0
 31
0.0
 44
0.9
  1
\Q5.0;Code:
 40
1.75
 41
13.0371747212
  0
MTEXT
  5
40E
100
AcDbEntity
  8
0
100
AcDbMText
 62
2
  6
CONTINUOUS
  7
TEXTSTYLE_2
 71
1
 72
1
 10
71.05
 20
15.6486576421
 30
0.0
 11
1.0
 21
0.0
 31
0.0
 44
0.9
  1
\Q5.0;Ref:
 40
1.75
 41
8.9516728625
  0
MTEXT
  5
40F
100
AcDbEntity
  8
0
100
AcDbMText
 62
2
  6
CONTINUOUS
  7
TEXTSTYLE_2
 71
1
 72
1
 10
100.05
 20
22.4996
 30
0.0
 11
1.0
 21
0.0
 31
0.0
 44
0.9
  1
A
 40
2.5
 41
4.6468401487
  0
MTEXT
  5
410
100
AcDbEntity
  8
0
100
AcDbMText
 62
2
  6
CONTINUOUS
  7
TEXTSTYLE_2
 71
1
 72
1
 10
71.05
 20
21.7970576421
 30
0.0
 11
1.0
 21
0.0
 31
0.0
 44
0.9
  1
\Q5.0;Drw No:
 40
1.75
 41
17.6301115242
  0
MTEXT
  5
411
100
AcDbEntity
  8
0
100
AcDbMText
 62
2
  6
CONTINUOUS
  7
TEXTSTYLE_2
 71
1
 72
1
 10
71.05
 20
27.8712576421
 30
0.0
 11
1.0
 21
0.0
 31
0.0
 44
0.9
  1
\Q5.0;Replaced:
 40
1.75
 41
22.0018587361
  0
MTEXT
  5
412
100
AcDbEntity
  8
0
100
AcDbMText
 62
2
  6
CONTINUOUS
  7
TEXTSTYLE_2
 71
2
 72
1
 10
35.0
 20
29.4996
 30
0.0
 11
1.0
 21
0.0
 31
0.0
 44
0.9
  1
BVD22
 40
4.0
 41
35.3605947955
  0
MTEXT
  5
413
100
AcDbEntity
  8
0
100
AcDbMText
 62
2
  6
CONTINUOUS
  7
TEXTSTYLE_2
 71
1
 72
1
 10
71.05
 20
33.8712576421
 30
0.0
 11
1.0
 21
0.0
 31
0.0
 44
0.9
  1
\Q5.0;Replaces:
 40
1.75
 41
21.7286245353
  0
ENDBLK
  5
414
100
AcDbEntity
  8
0
  6
BYBLOCK
 62
0
100
AcDbBlockEnd
  0
BLOCK
  5
415
100
AcDbEntity
  8
0
100
AcDbBlockBegin
  2
*T6
 70
1
 10
0.0
 20
0.0
  3
*T6
  1

  0
LINE
  5
416
100
AcDbEntity
  8
0
100
AcDbLine
 62
2
  6
CONTINUOUS
 10
65.0
 20
0.0
 11
-0.0
 21
0.0
  0
LINE
  5
417
100
AcDbEntity
  8
0
100
AcDbLine
 62
2
  6
CONTINUOUS
 10
65.0
 20
0.0
 11
65.0
 21
36.0
  0
LINE
  5
418
100
AcDbEntity
  8
0
100
AcDbLine
 62
2
  6
CONTINUOUS
 10
65.0
 20
5.0
 11
30.0
 21
5.0
  0
LINE
  5
419
100
AcDbEntity
  8
0
100
AcDbLine
 62
2
  6
CONTINUOUS
 10
65.0
 20
10.0
 11
30.0
 21
10.0
  0
LINE
  5
41A
100
AcDbEntity
  8
0
100
AcDbLine
 62
2
  6
CONTINUOUS
 10
65.0
 20
15.0
 11
-0.0
 21
15.0
  0
LINE
  5
41B
100
AcDbEntity
  8
0
100
AcDbLine
 62
2
  6
CONTINUOUS
 10
65.0
 20
20.0
 11
-0.0
 21
20.0
  0
LINE
  5
41C
100
AcDbEntity
  8
0
100
AcDbLine
 62
2
  6
CONTINUOUS
 10
65.0
 20
36.0
 11
-0.0
 21
36.0
  0
LINE
  5
41D
100
AcDbEntity
  8
0
100
AcDbLine
 62
2
  6
CONTINUOUS
 10
44.0
 20
0.0
 11
44.0
 21
36.0
  0
LINE
  5
41E
100
AcDbEntity
  8
0
100
AcDbLine
 62
2
  6
CONTINUOUS
 10
30.0
 20
0.0
 11
30.0
 21
20.0
  0
LINE
  5
41F
100
AcDbEntity
  8
0
100
AcDbLine
 62
2
  6
CONTINUOUS
 10
-0.0
 20
0.0
 11
-0.0
 21
36.0
  0
MTEXT
  5
420
100
AcDbEntity
  8
0
100
AcDbMText
 62
2
  6
CONTINUOUS
  7
TEXTSTYLE_2
 71
1
 72
1
 10
31.05
 20
3.3716576421
 30
0.0
 11
1.0
 21
0.0
 31
0.0
 44
0.9
  1
\Q5.0;Ctrl
 40
1.75
 41
7.5855018587
  0
MTEXT
  5
421
100
AcDbEntity
  8
0
100
AcDbMText
 62
2
  6
CONTINUOUS
  7
TEXTSTYLE_2
 71
2
 72
1
 10
15.0
 20
3.75
 30
0.0
 11
1.0
 21
0.0
 31
0.0
 44
0.9
  1
-
 40
2.5
 41
2.3234200743
  0
MTEXT
  5
422
100
AcDbEntity
  8
0
100
AcDbMText
 62
2
  6
CONTINUOUS
  7
TEXTSTYLE_2
 71
1
 72
1
 10
31.05
 20
8.3716576421
 30
0.0
 11
1.0
 21
0.0
 31
0.0
 44
0.9
  1
\Q5.0;Checked
 40
1.75
 41
19.2955390335
  0
MTEXT
  5
423
100
AcDbEntity
  8
0
100
AcDbMText
 62
2
  6
CONTINUOUS
  7
TEXTSTYLE_2
 71
2
 72
1
 10
15.0
 20
8.75
 30
0.0
 11
1.0
 21
0.0
 31
0.0
 44
0.9
  1
-
 40
2.5
 41
2.3234200743
  0
MTEXT
  5
424
100
AcDbEntity
  8
0
100
AcDbMText
 62
2
  6
CONTINUOUS
  7
TEXTSTYLE_2
 71
1
 72
1
 10
45.05
 20
13.75
 30
0.0
 11
1.0
 21
0.0
 31
0.0
 44
0.9
  1
PKos
 40
2.5
 41
16.6728624535
  0
MTEXT
  5
425
100
AcDbEntity
  8
0
100
AcDbMText
 62
2
  6
CONTINUOUS
  7
TEXTSTYLE_2
 71
1
 72
1
 10
31.05
 20
13.3716576421
 30
0.0
 11
1.0
 21
0.0
 31
0.0
 44
0.9
  1
\Q5.0;By
 40
1.75
 41
5.6988847584
  0
MTEXT
  5
426
100
AcDbEntity
  8
0
100
AcDbMText
 62
2
  6
CONTINUOUS
  7
TEXTSTYLE_2
 71
2
 72
1
 10
15.0
 20
14.0
 30
0.0
 11
1.0
 21
0.0
 31
0.0
 44
0.9
  1
1:1
 40
3.0
 41
11.6431226766
  0
MTEXT
  5
427
100
AcDbEntity
  8
0
100
AcDbMText
 62
2
  6
CONTINUOUS
  7
TEXTSTYLE_2
 71
1
 72
1
 10
45.05
 20
18.75
 30
0.0
 11
1.0
 21
0.0
 31
0.0
 44
0.9
  1
23.10.13
 40
2.5
 41
27.1747211896
  0
MTEXT
  5
428
100
AcDbEntity
  8
0
100
AcDbMText
 62
2
  6
CONTINUOUS
  7
TEXTSTYLE_2
 71
1
 72
1
 10
31.05
 20
18.3716576421
 30
0.0
 11
1.0
 21
0.0
 31
0.0
 44
0.9
  1
\Q5.0;Date
 40
1.75
 41
10.3178438662
  0
MTEXT
  5
429
100
AcDbEntity
  8
0
100
AcDbMText
 62
2
  6
CONTINUOUS
  7
TEXTSTYLE_2
 71
2
 72
1
 10
15.0
 20
18.3716576421
 30
0.0
 11
1.0
 21
0.0
 31
0.0
 44
0.9
  1
\Q5.0;Scale
 40
1.75
 41
12.217472119
  0
ENDBLK
  5
42A
100
AcDbEntity
  8
0
  6
BYBLOCK
 62
0
100
AcDbBlockEnd
  0
BLOCK
  5
42B
100
AcDbEntity
  8
0
100
AcDbBlockBegin
  2
*T7
 70
1
 10
0.0
 20
0.0
  3
*T7
  1

  0
LINE
  5
42C
100
AcDbEntity
  8
0
100
AcDbLine
 62
2
  6
CONTINUOUS
 10
0.0
 20
0.0
 11
44.0
 21
0.0
  0
LINE
  5
42D
100
AcDbEntity
  8
0
100
AcDbLine
 62
2
  6
CONTINUOUS
 10
0.0
 20
0.0
 11
0.0
 21
-16.0
  0
LINE
  5
42E
100
AcDbEntity
  8
0
100
AcDbLine
 62
2
  6
CONTINUOUS
 10
0.0
 20
-16.0
 11
44.0
 21
-16.0
  0
LINE
  5
42F
100
AcDbEntity
  8
0
100
AcDbLine
 62
2
  6
CONTINUOUS
 10
44.0
 20
0.0
 11
44.0
 21
-16.0
  0
MTEXT
  5
430
100
AcDbEntity
  8
0
100
AcDbMText
 62
2
  6
CONTINUOUS
  7
TEXTSTYLE_2
 71
2
 72
1
 10
22.0
 20
-11.7
 30
0.0
 11
1.0
 21
0.0
 31
0.0
 44
0.9
  1
Ensto Industrial Solutions
 40
2.6
 41
81.8661710037
  0
ENDBLK
  5
431
100
AcDbEntity
  8
0
  6
BYBLOCK
 62
0
100
AcDbBlockEnd
  0
BLOCK
  5
432
100
AcDbEntity
  8
0
100
AcDbBlockBegin
  2
*T8
 70
1
 10
0.0
 20
0.0
  3
*T8
  1

  0
LINE
  5
433
100
AcDbEntity
  8
0
100
AcDbLine
 62
2
  6
CONTINUOUS
 10
0.0
 20
0.0
 11
0.0
 21
42.0
  0
LINE
  5
434
100
AcDbEntity
  8
0
100
AcDbLine
 62
2
  6
CONTINUOUS
 10
0.0
 20
0.0
 11
10.0
 21
0.0
  0
LINE
  5
435
100
AcDbEntity
  8
0
100
AcDbLine
 62
2
  6
CONTINUOUS
 10
5.0
 20
0.0
 11
5.0
 21
42.0
  0
LINE
  5
436
100
AcDbEntity
  8
0
100
AcDbLine
 62
2
  6
CONTINUOUS
 10
10.0
 20
0.0
 11
10.0
 21
42.0
  0
LINE
  5
437
100
AcDbEntity
  8
0
100
AcDbLine
 62
2
  6
CONTINUOUS
 10
0.0
 20
42.0
 11
10.0
 21
42.0
  0
MTEXT
  5
438
100
AcDbEntity
  8
0
100
AcDbMText
 62
2
  6
CONTINUOUS
  7
TEXTSTYLE_2
 71
1
 72
1
 10
1.7528648782
 20
1.05
 30
0.0
 11
0.0
 21
1.0
 31
0.0
 44
0.9
  1
\Q5.0;model
 40
1.5
 41
11.3977695167
  0
MTEXT
  5
439
100
AcDbEntity
  8
0
100
AcDbMText
 62
2
  6
CONTINUOUS
  7
TEXTSTYLE_2
 71
1
 72
1
 10
1.25
 20
11.05
 30
0.0
 11
0.0
 21
1.0
 31
0.0
 44
0.9
  1
BVD22_VENTILATION_DEVICE\H1.0;.PART
 40
2.5
 41
109.7323420074
  0
MTEXT
  5
43A
100
AcDbEntity
  8
0
100
AcDbMText
 62
2
  6
CONTINUOUS
  7
TEXTSTYLE_2
 71
1
 72
1
 10
6.7528648782
 20
1.05
 30
0.0
 11
0.0
 21
1.0
 31
0.0
 44
0.9
  1
\Q5.0;drawing
 40
1.5
 41
14.6654275093
  0
MTEXT
  5
43B
100
AcDbEntity
  8
0
100
AcDbMText
 62
2
  6
CONTINUOUS
  7
TEXTSTYLE_2
 71
1
 72
1
 10
6.25
 20
11.05
 30
0.0
 11
0.0
 21
1.0
 31
0.0
 44
0.9
  1
BVD22\H1.0;.DRAWING
 40
2.5
 41
36.3531598513
  0
ENDBLK
  5
43C
100
AcDbEntity
  8
0
  6
BYBLOCK
 62
0
100
AcDbBlockEnd
  0
ENDSEC
  0
SECTION
  2
ENTITIES
  0
MTEXT
  5
43D
100
AcDbEntity
  8
0
100
AcDbMText
 62
2
  6
CONTINUOUS
  7
TEXTSTYLE_2
 71
1
 72
1
 10
163.9435114782
 20
59.6988375141
 30
0.0
 11
1.0
 21
0.0
 31
0.0
 44
0.9
  1
Dimensions in mm [inches]
 40
2.0
 41
33.3308550186
  0
INSERT
  5
43E
100
AcDbEntity
  8
0
100
AcDbBlockReference
 62
2
  6
CONTINUOUS
  2
SYMBOL_3_BL0
 10
49.3918275707
 20
37.5779233823
  0
HATCH
  5
43F
100
AcDbEntity
  8
0
100
AcDbHatch
 62
2
  6
CONTINUOUS
 10
0.0
 20
0.0
 30
0.0
210
0.0
220
0.0
230
1.0
  2
B_BOTTOM
 70
0
 71
0
 91
1
 92
1
 93
5
 72
1
 10
89.5
 20
207.1810254038
 11
88.0
 21
206.315
 72
1
 10
88.0
 20
206.315
 11
85.0
 21
206.315
 72
1
 10
85.0
 20
206.315
 11
85.0
 21
212.315
 72
1
 10
85.0
 20
212.315
 11
89.5
 21
212.315
 72
1
 10
89.5
 20
212.315
 11
89.5
 21
207.1810254038
 97
0
 75
0
 76
0
 52
45.0
 41
0.5
 77
0
 78
1
 53
45.0
 43
0.0
 44
0.0
 45
-0.3535533906
 46
0.3535533906
 79
0
 98
1
 10
0.0
 20
0.0
  0
HATCH
  5
440
100
AcDbEntity
  8
0
100
AcDbHatch
 62
2
  6
CONTINUOUS
 10
0.0
 20
0.0
 30
0.0
210
0.0
220
0.0
230
1.0
  2
default__1
 70
0
 71
0
 91
4
 92
1
 93
17
 72
4
 94
3
 73
0
 74
0
 95
11
 96
7
 40
0.0
 40
0.0
 40
0.0
 40
0.0
 40
0.25
 40
0.5
 40
0.75
 40
1.0
 40
1.0
 40
1.0
 40
1.0
 10
86.7033286308
 20
234.685
 10
86.6504036192
 20
234.684324256
 10
86.5525498491
 20
234.6657868206
 10
86.4211040343
 20
234.5824026707
 10
86.330954817
 20
234.455500987
 10
86.3073215159
 20
234.3587514965
 10
86.3038768169
 20
234.3059343825
 72
1
 10
86.3038768169
 20
234.3059343825
 11
86.0617039077
 21
229.685
 72
1
 10
86.0617039077
 20
229.685
 11
85.95
 21
216.885
 72
1
 10
85.95
 20
216.885
 11
84.95
 21
216.885
 72
1
 10
84.95
 20
216.885
 11
84.95
 21
234.285
 72
4
 94
3
 73
0
 74
0
 95
11
 96
7
 40
0.0
 40
0.0
 40
0.0
 40
0.0
 40
0.25
 40
0.5
 40
0.75
 40
1.0
 40
1.0
 40
1.0
 40
1.0
 10
84.95
 20
234.285
 10
84.9492274233
 20
234.3399084632
 10
84.9294401724
 20
234.4408995438
 10
84.8404291397
 20
234.5754291397
 10
84.7058995438
 20
234.6644401724
 10
84.6049084632
 20
234.6842274233
 10
84.55
 20
234.685
 72
1
 10
84.55
 20
234.685
 11
75.0000000007
 21
234.685
 72
1
 10
75.0000000007
 20
234.685
 11
75.0000000007
 21
236.985
 72
1
 10
75.0000000007
 20
236.985
 11
97.5283975643
 21
236.985
 72
4
 94
3
 73
0
 74
0
 95
13
 96
9
 40
0.0
 40
0.0
 40
0.0
 40
0.0
 40
0.1666666667
 40
0.3333333333
 40
0.5
 40
0.6666666667
 40
0.8333333333
 40
1.0
 40
1.0
 40
1.0
 40
1.0
 10
97.5283975643
 20
236.985
 10
97.6575751633
 20
236.9844927136
 10
97.9067724643
 20
236.9530345506
 10
98.2637390522
 20
236.8109687658
 10
98.5719432947
 20
236.5846677505
 10
98.814064336
 20
236.2887295713
 10
98.9746176124
 20
235.9396873424
 10
99.019074642
 20
235.6924779506
 10
99.0263418664
 20
235.5635039344
 72
1
 10
99.0263418664
 20
235.5635039344
 11
100.0
 21
216.985
 72
1
 10
100.0
 20
216.985
 11
99.0
 21
216.985
 72
1
 10
99.0
 20
216.985
 11
98.9554895844
 21
219.535
 72
1
 10
98.9554895844
 20
219.535
 11
97.5663601628
 21
219.535
 72
1
 10
97.5663601628
 20
219.535
 11
96.7922482939
 21
234.3059343825
 72
4
 94
3
 73
0
 74
0
 95
11
 96
7
 40
0.0
 40
0.0
 40
0.0
 40
0.0
 40
0.25
 40
0.5
 40
0.75
 40
1.0
 40
1.0
 40
1.0
 40
1.0
 10
96.7922482939
 20
234.3059343825
 10
96.7888035949
 20
234.3587514965
 10
96.7651702938
 20
234.455500987
 10
96.6750210765
 20
234.5824026707
 10
96.5435752617
 20
234.6657868206
 10
96.4457214916
 20
234.684324256
 10
96.39279648
 20
234.685
 72
1
 10
96.39279648
 20
234.685
 11
86.7033286308
 21
234.685
 97
0
 92
1
 93
45
 72
1
 10
84.6634419658
 20
203.6784419658
 11
84.0
 21
203.015
 72
1
 10
84.0
 20
203.015
 11
82.8
 21
203.015
 72
1
 10
82.8
 20
203.015
 11
82.3460299966
 21
216.015
 72
1
 10
82.3460299966
 20
216.015
 11
81.9650792305
 21
216.015
 72
1
 10
81.9650792305
 20
216.015
 11
82.0
 21
217.015
 72
1
 10
82.0
 20
217.015
 11
84.1645184441
 21
217.015
 72
1
 10
84.1645184441
 20
217.015
 11
84.175
 21
216.815
 72
1
 10
84.175
 20
216.815
 11
86.046508987
 21
216.815
 72
1
 10
86.046508987
 20
216.815
 11
86.0936376623
 21
219.515
 72
1
 10
86.0936376623
 20
219.515
 11
98.4480762114
 21
219.515
 72
1
 10
98.4480762114
 20
219.515
 11
98.85
 21
218.015
 72
1
 10
98.85
 20
218.015
 11
87.5
 21
218.015
 72
1
 10
87.5
 20
218.015
 11
87.6205378924
 21
215.715
 72
1
 10
87.6205378924
 20
215.715
 11
86.0
 21
215.715
 72
1
 10
86.0
 20
215.715
 11
85.926629109
 21
214.315
 72
1
 10
85.926629109
 20
214.315
 11
84.4269165125
 21
214.315
 72
1
 10
84.4269165125
 20
214.315
 11
85.0
 21
213.9841300942
 72
1
 10
85.0
 20
213.9841300942
 11
85.0
 21
213.7958699058
 72
1
 10
85.0
 20
213.7958699058
 11
84.188
 21
213.3270614872
 72
4
 94
3
 73
0
 74
0
 95
13
 96
9
 40
0.0
 40
0.0
 40
0.0
 40
0.0
 40
0.1666666667
 40
0.3333333333
 40
0.5
 40
0.6666666667
 40
0.8333333333
 40
1.0
 40
1.0
 40
1.0
 40
1.0
 10
84.188
 20
213.3270614872
 10
84.1654959931
 20
213.3133321607
 10
84.1273905571
 20
213.280908863
 10
84.0893169902
 20
213.2142706859
 10
84.0751974501
 20
213.1389571685
 10
84.0899056156
 20
213.0644984719
 10
84.127791536
 20
212.9987018379
 10
84.1656697506
 20
212.9665686651
 10
84.188
 20
212.9529385128
 72
1
 10
84.188
 20
212.9529385128
 11
85.0
 21
212.4841300942
 72
1
 10
85.0
 20
212.4841300942
 11
85.0
 21
212.2958699058
 72
1
 10
85.0
 20
212.2958699058
 11
84.188
 21
211.8270614872
 72
4
 94
3
 73
0
 74
0
 95
13
 96
9
 40
0.0
 40
0.0
 40
0.0
 40
0.0
 40
0.1666666667
 40
0.3333333333
 40
0.5
 40
0.6666666667
 40
0.8333333333
 40
1.0
 40
1.0
 40
1.0
 40
1.0
 10
84.188
 20
211.8270614872
 10
84.1654959931
 20
211.8133321607
 10
84.1273905571
 20
211.780908863
 10
84.0893169902
 20
211.7142706859
 10
84.0751974501
 20
211.6389571685
 10
84.0899056156
 20
211.5644984719
 10
84.127791536
 20
211.4987018379
 10
84.1656697506
 20
211.4665686651
 10
84.188
 20
211.4529385128
 72
1
 10
84.188
 20
211.4529385128
 11
85.0
 21
210.9841300942
 72
1
 10
85.0
 20
210.9841300942
 11
85.0
 21
210.7958699058
 72
1
 10
85.0
 20
210.7958699058
 11
84.188
 21
210.3270614872
 72
4
 94
3
 73
0
 74
0
 95
13
 96
9
 40
0.0
 40
0.0
 40
0.0
 40
0.0
 40
0.1666666667
 40
0.3333333333
 40
0.5
 40
0.6666666667
 40
0.8333333333
 40
1.0
 40
1.0
 40
1.0
 40
1.0
 10
84.188
 20
210.3270614872
 10
84.1654959931
 20
210.3133321607
 10
84.1273905571
 20
210.280908863
 10
84.0893169902
 20
210.2142706859
 10
84.0751974501
 20
210.1389571685
 10
84.0899056156
 20
210.0644984719
 10
84.127791536
 20
209.9987018379
 10
84.1656697506
 20
209.9665686651
 10
84.188
 20
209.9529385128
 72
1
 10
84.188
 20
209.9529385128
 11
85.0
 21
209.4841300942
 72
1
 10
85.0
 20
209.4841300942
 11
85.0
 21
209.2958699058
 72
1
 10
85.0
 20
209.2958699058
 11
84.188
 21
208.8270614872
 72
4
 94
3
 73
0
 74
0
 95
13
 96
9
 40
0.0
 40
0.0
 40
0.0
 40
0.0
 40
0.1666666667
 40
0.3333333333
 40
0.5
 40
0.6666666667
 40
0.8333333333
 40
1.0
 40
1.0
 40
1.0
 40
1.0
 10
84.188
 20
208.8270614872
 10
84.1654959931
 20
208.8133321607
 10
84.1273905571
 20
208.780908863
 10
84.0893169902
 20
208.7142706859
 10
84.0751974501
 20
208.6389571685
 10
84.0899056156
 20
208.5644984719
 10
84.127791536
 20
208.4987018379
 10
84.1656697506
 20
208.4665686651
 10
84.188
 20
208.4529385128
 72
1
 10
84.188
 20
208.4529385128
 11
85.0
 21
207.9841300942
 72
1
 10
85.0
 20
207.9841300942
 11
85.0
 21
207.7958699058
 72
1
 10
85.0
 20
207.7958699058
 11
84.188
 21
207.3270614872
 72
4
 94
3
 73
0
 74
0
 95
13
 96
9
 40
0.0
 40
0.0
 40
0.0
 40
0.0
 40
0.1666666667
 40
0.3333333333
 40
0.5
 40
0.6666666667
 40
0.8333333333
 40
1.0
 40
1.0
 40
1.0
 40
1.0
 10
84.188
 20
207.3270614872
 10
84.1654959931
 20
207.3133321607
 10
84.1273905571
 20
207.280908863
 10
84.0893169902
 20
207.2142706859
 10
84.0751974501
 20
207.1389571685
 10
84.0899056156
 20
207.0644984719
 10
84.127791536
 20
206.9987018379
 10
84.1656697506
 20
206.9665686651
 10
84.188
 20
206.9529385128
 72
1
 10
84.188
 20
206.9529385128
 11
85.0
 21
206.4841300942
 72
1
 10
85.0
 20
206.4841300942
 11
85.0
 21
206.2958699058
 72
1
 10
85.0
 20
206.2958699058
 11
84.188
 21
205.8270614872
 72
4
 94
3
 73
0
 74
0
 95
13
 96
9
 40
0.0
 40
0.0
 40
0.0
 40
0.0
 40
0.1666666667
 40
0.3333333333
 40
0.5
 40
0.6666666667
 40
0.8333333333
 40
1.0
 40
1.0
 40
1.0
 40
1.0
 10
84.188
 20
205.8270614872
 10
84.1654959931
 20
205.8133321607
 10
84.1273905571
 20
205.780908863
 10
84.0893169902
 20
205.7142706859
 10
84.0751974501
 20
205.6389571685
 10
84.0899056156
 20
205.5644984719
 10
84.127791536
 20
205.4987018379
 10
84.1656697506
 20
205.4665686651
 10
84.188
 20
205.4529385128
 72
1
 10
84.188
 20
205.4529385128
 11
85.0
 21
204.9841300942
 72
1
 10
85.0
 20
204.9841300942
 11
85.0
 21
204.7958699058
 72
1
 10
85.0
 20
204.7958699058
 11
84.188
 21
204.3270614872
 72
4
 94
3
 73
0
 74
0
 95
13
 96
9
 40
0.0
 40
0.0
 40
0.0
 40
0.0
 40
0.1666666667
 40
0.3333333333
 40
0.5
 40
0.6666666667
 40
0.8333333333
 40
1.0
 40
1.0
 40
1.0
 40
1.0
 10
84.188
 20
204.3270614872
 10
84.1654959931
 20
204.3133321607
 10
84.1273905571
 20
204.280908863
 10
84.0893169902
 20
204.2142706859
 10
84.0751974501
 20
204.1389571685
 10
84.0899056156
 20
204.0644984719
 10
84.127791536
 20
203.9987018379
 10
84.1656697506
 20
203.9665686651
 10
84.188
 20
203.9529385128
 72
1
 10
84.188
 20
203.9529385128
 11
84.6634419658
 21
203.6784419658
 97
0
 92
1
 93
4
 72
1
 10
76.0
 20
217.015
 11
77.0
 21
217.015
 72
1
 10
77.0
 20
217.015
 11
77.0349207695
 21
216.015
 72
1
 10
77.0349207695
 20
216.015
 11
75.9650792305
 21
216.015
 72
1
 10
75.9650792305
 20
216.015
 11
76.0
 21
217.015
 97
0
 92
1
 93
4
 72
1
 10
79.0
 20
217.015
 11
80.0
 21
217.015
 72
1
 10
80.0
 20
217.015
 11
80.0349207695
 21
216.015
 72
1
 10
80.0349207695
 20
216.015
 11
78.9650792305
 21
216.015
 72
1
 10
78.9650792305
 20
216.015
 11
79.0
 21
217.015
 97
0
 75
0
 76
0
 52
135.0
 41
0.5
 77
0
 78
1
 53
135.0
 43
0.0
 44
0.0
 45
-0.3535533906
 46
-0.3535533906
 79
0
 98
1
 10
0.0
 20
0.0
  0
HATCH
  5
441
100
AcDbEntity
  8
0
100
AcDbHatch
 62
2
  6
CONTINUOUS
 10
0.0
 20
0.0
 30
0.0
210
0.0
220
0.0
230
1.0
  2
default__2
 70
0
 71
0
 91
1
 92
1
 93
2
 72
4
 94
3
 73
0
 74
0
 95
20
 96
16
 40
0.0
 40
0.0
 40
0.0
 40
0.0
 40
0.0769230769
 40
0.1538461538
 40
0.2307692308
 40
0.3076923077
 40
0.3846153846
 40
0.4615384615
 40
0.5384615385
 40
0.6153846154
 40
0.6923076923
 40
0.7692307692
 40
0.8461538462
 40
0.9230769231
 40
1.0
 40
1.0
 40
1.0
 40
1.0
 10
89.1
 20
215.015
 10
88.9768651287
 20
215.015422189
 10
88.7385859942
 20
215.0441464561
 10
88.3958103487
 20
215.1738777633
 10
88.0956640628
 20
215.3812382596
 10
87.853429476
 20
215.6545724645
 10
87.6837632403
 20
215.9778891617
 10
87.5963713786
 20
216.3324269053
 10
87.5963713786
 20
216.6975730947
 10
87.6837632403
 20
217.0521108383
 10
87.853429476
 20
217.3754275355
 10
88.0956640628
 20
217.6487617404
 10
88.3958103487
 20
217.8561222367
 10
88.7385859942
 20
217.9858535439
 10
88.9768651287
 20
218.014577811
 10
89.1
 20
218.015
 72
4
 94
3
 73
0
 74
0
 95
20
 96
16
 40
0.0
 40
0.0
 40
0.0
 40
0.0
 40
0.0769230769
 40
0.1538461538
 40
0.2307692308
 40
0.3076923077
 40
0.3846153846
 40
0.4615384615
 40
0.5384615385
 40
0.6153846154
 40
0.6923076923
 40
0.7692307692
 40
0.8461538462
 40
0.9230769231
 40
1.0
 40
1.0
 40
1.0
 40
1.0
 10
89.1
 20
218.015
 10
89.2231348713
 20
218.014577811
 10
89.4614140058
 20
217.9858535439
 10
89.8041896513
 20
217.8561222367
 10
90.1043359372
 20
217.6487617404
 10
90.346570524
 20
217.3754275355
 10
90.5162367597
 20
217.0521108383
 10
90.6036286214
 20
216.6975730947
 10
90.6036286214
 20
216.3324269053
 10
90.5162367597
 20
215.9778891617
 10
90.346570524
 20
215.6545724645
 10
90.1043359372
 20
215.3812382596
 10
89.8041896513
 20
215.1738777633
 10
89.4614140058
 20
215.0441464561
 10
89.2231348713
 20
215.015422189
 10
89.1
 20
215.015
 97
0
 75
0
 76
0
 52
45.0
 41
0.01
 77
0
 78
2
 53
45.0
 43
0.0
 44
0.0
 45
-0.0070710678
 46
0.0070710678
 79
0
 53
45.0
 43
-0.001767767
 44
0.001767767
 45
-0.0070710678
 46
0.0070710678
 79
0
 98
1
 10
0.0
 20
0.0
  0
DIMENSION
  5
442
100
AcDbEntity
  8
0
100
AcDbDimension
 62
2
  6
CONTINUOUS
  2
*D0
 10
100.0
 20
150.5
 11
75.0
 21
150.5
 70
160
 71
2
 42
50.0
  3
DIMSTYLE_1
100
AcDbAlignedDimension
 13
50.0
 23
143.5020556979
 14
100.0
 24
131.8795311544
100
AcDbRotatedDimension
  0
DIMENSION
  5
443
100
AcDbEntity
  8
0
100
AcDbDimension
 62
2
  6
CONTINUOUS
  2
*D1
 10
44.5
 20
95.0
 11
44.5
 21
123.4296511435
 70
160
 71
2
 42
50.0
  3
DIMSTYLE_1
100
AcDbAlignedDimension
 13
51.4979443021
 23
145.0
 14
63.1204688456
 24
95.0
 50
270.0
100
AcDbRotatedDimension
  0
DIMENSION
  5
444
100
AcDbEntity
  8
0
100
AcDbDimension
 62
2
  6
CONTINUOUS
  2
*D2
 10
85.0
 20
194.015
 11
75.0
 21
194.015
 70
160
 71
2
 42
20.0
  1
M<>x 1.5
  3
DIMSTYLE_2
100
AcDbAlignedDimension
 13
65.0
 23
204.0458699058
 14
85.0
 24
204.7958699058
100
AcDbRotatedDimension
  0
DIMENSION
  5
445
100
AcDbEntity
  8
0
100
AcDbDimension
 62
2
  6
CONTINUOUS
  2
*D3
 10
44.5
 20
216.985
 11
44.5
 21
226.985
 70
160
 71
2
 42
20.0
  3
DIMSTYLE_2
100
AcDbAlignedDimension
 13
52.4716024357
 23
236.985
 14
50.4387377283
 24
216.985
 50
270.0
100
AcDbRotatedDimension
  0
DIMENSION
  5
446
100
AcDbEntity
  8
0
100
AcDbDimension
 62
2
  6
CONTINUOUS
  2
*D4
 10
41.0
 20
203.015
 11
41.0
 21
220.0
 70
160
 71
2
 42
33.97
  3
DIMSTYLE_3
100
AcDbAlignedDimension
 13
52.4716024357
 23
236.985
 14
66.0
 24
203.015
 50
270.0
100
AcDbRotatedDimension
  0
DIMENSION
  5
447
100
AcDbEntity
  8
0
100
AcDbDimension
 62
2
  6
CONTINUOUS
  2
*D5
 10
161.25
 20
150.5
 11
171.0348996666
 21
150.5
 70
160
 71
1
 42
2.5
  3
DIMSTYLE_4
100
AcDbAlignedDimension
 13
158.75
 23
136.25
 14
161.25
 24
136.25
100
AcDbRotatedDimension
  0
DIMENSION
  5
448
100
AcDbEntity
  8
0
100
AcDbDimension
 62
2
  6
CONTINUOUS
  2
*D6
 10
152.3097857338
 20
132.8651512726
 11
137.3380814724
 21
150.3230157972
 70
163
 71
3
 42
22.0
  1
%%c<>
  3
DIMSTYLE_5
100
AcDbDiametricDimension
 15
167.6902142662
 25
117.1348487274
  0
DIMENSION
  5
449
100
AcDbEntity
  8
0
100
AcDbDimension
 62
2
  6
CONTINUOUS
  2
*D7
 10
190.5
 20
125.0
 11
190.5
 21
116.6364887195
 70
160
 71
3
 42
12.5
  3
DIMSTYLE_2
100
AcDbAlignedDimension
 13
160.0
 23
137.5
 14
160.0
 24
125.0
 50
270.0
100
AcDbRotatedDimension
  0
DIMENSION
  5
44A
100
AcDbEntity
  8
0
100
AcDbDimension
 62
2
  6
CONTINUOUS
  2
*D8
 10
109.0
 20
214.315
 11
109.0
 21
223.6129442004
 70
160
 71
1
 42
0.7
  3
DIMSTYLE_4
100
AcDbAlignedDimension
 13
89.1
 23
215.015
 14
85.926629109
 24
214.315
 50
270.0
100
AcDbRotatedDimension
  0
DIMENSION
  5
44B
100
AcDbEntity
  8
0
100
AcDbDimension
 62
2
  6
CONTINUOUS
  2
*D9
 10
109.0
 20
203.015
 11
109.0
 21
195.2552508325
 70
160
 71
3
 42
11.3
  3
DIMSTYLE_2
100
AcDbAlignedDimension
 13
85.926629109
 23
214.315
 14
84.0
 24
203.015
 50
270.0
100
AcDbRotatedDimension
  0
ACAD_TABLE
  5
44C
100
AcDbEntity
  8
0
 62
2
  6
CONTINUOUS
100
AcDbBlockReference
  2
*T1
 10
16.9999978361
 20
266.0000036655
 30
0.0
100
AcDbTable
342
       6B2
343
213
 11
1.0
 21
0.0
 31
0.0
 90
6
 91
4
 92
5
 93
4
 94
0
 95
0
 96
0
 70
1
141
6.0
141
6.0
141
6.0
141
6.0
142
11.0
142
120.0
142
18.0
142
18.0
142
18.0
171
1
172
0
173
0
174
0
175
1
176
1
 91
33
178
0
145
0.0
301
CELL_VALUE
 90
4
  1
A
304
ACVALUE_END
170
5
140
2.5
171
1
172
0
173
0
174
0
175
1
176
1
 91
33
178
0
145
0.0
301
CELL_VALUE
 90
4
  1
 
304
ACVALUE_END
170
4
140
3.0
171
1
172
0
173
0
174
0
175
1
176
1
 91
33
178
0
145
0.0
301
CELL_VALUE
 90
4
  1
 
304
ACVALUE_END
170
5
140
3.0
171
1
172
0
173
0
174
0
175
1
176
1
 91
33
178
0
145
0.0
301
CELL_VALUE
 90
4
  1
 
304
ACVALUE_END
170
5
140
3.0
171
1
172
0
173
0
174
0
175
1
176
1
 91
33
178
0
145
0.0
301
CELL_VALUE
 90
4
  1
 
304
ACVALUE_END
170
5
140
3.0
171
1
172
0
173
0
174
0
175
1
176
1
 91
33
178
0
145
0.0
301
CELL_VALUE
 90
4
  1
 
304
ACVALUE_END
170
5
140
3.0
171
1
172
0
173
0
174
0
175
1
176
1
 91
33
178
0
145
0.0
301
CELL_VALUE
 90
4
  1
 
304
ACVALUE_END
170
4
140
3.0
171
1
172
0
173
0
174
0
175
1
176
1
 91
33
178
0
145
0.0
301
CELL_VALUE
 90
4
  1
 
304
ACVALUE_END
170
5
140
3.0
171
1
172
0
173
0
174
0
175
1
176
1
 91
33
178
0
145
0.0
301
CELL_VALUE
 90
4
  1
 
304
ACVALUE_END
170
5
140
3.0
171
1
172
0
173
0
174
0
175
1
176
1
 91
33
178
0
145
0.0
301
CELL_VALUE
 90
4
  1
 
304
ACVALUE_END
170
5
140
3.0
171
1
172
0
173
0
174
0
175
1
176
1
 91
33
178
0
145
0.0
301
CELL_VALUE
 90
4
  1
 
304
ACVALUE_END
170
5
140
3.0
171
1
172
0
173
0
174
0
175
1
176
1
 91
33
178
0
145
0.0
301
CELL_VALUE
 90
4
  1
 
304
ACVALUE_END
170
4
140
3.0
171
1
172
0
173
0
174
0
175
1
176
1
 91
33
178
0
145
0.0
301
CELL_VALUE
 90
4
  1
 
304
ACVALUE_END
170
5
140
3.0
171
1
172
0
173
0
174
0
175
1
176
1
 91
33
178
0
145
0.0
301
CELL_VALUE
 90
4
  1
 
304
ACVALUE_END
170
5
140
3.0
171
1
172
0
173
0
174
0
175
1
176
1
 91
33
178
0
145
0.0
301
CELL_VALUE
 90
4
  1
 
304
ACVALUE_END
170
5
140
3.0
171
1
172
0
173
0
174
0
175
1
176
1
 91
33
178
0
145
0.0
301
CELL_VALUE
 90
4
  1
\Q5.0;ID
304
ACVALUE_END
170
5
140
2.0
171
1
172
0
173
0
174
0
175
1
176
1
 91
33
178
0
145
0.0
301
CELL_VALUE
 90
4
  1
\Q5.0;Description
304
ACVALUE_END
170
5
140
2.0
171
1
172
0
173
0
174
0
175
1
176
1
 91
33
178
0
145
0.0
301
CELL_VALUE
 90
4
  1
\Q5.0;Date
304
ACVALUE_END
170
5
140
2.0
171
1
172
0
173
0
174
0
175
1
176
1
 91
33
178
0
145
0.0
301
CELL_VALUE
 90
4
  1
\Q5.0;By
304
ACVALUE_END
170
5
140
2.0
171
1
172
0
173
0
174
0
175
1
176
1
 91
33
178
0
145
0.0
301
CELL_VALUE
 90
4
  1
\Q5.0;Appr.
304
ACVALUE_END
170
5
140
2.0
  0
ACAD_TABLE
  5
44D
100
AcDbEntity
  8
0
 62
2
  6
CONTINUOUS
100
AcDbBlockReference
  2
*T2
 10
26.9999255792
 20
55.0000012973
 30
0.0
100
AcDbTable
342
       6B1
343
214
 11
1.0
 21
0.0
 31
0.0
 90
22
 91
1
 92
4
 93
0
 94
0
 95
0
 96
0
141
6.0
142
12.0
142
81.0
142
15.0
142
67.0
171
1
172
0
173
0
174
0
175
1
176
1
 91
33
178
0
145
0.0
301
CELL_VALUE
 90
4
  1
\Q5.0;Material:
304
ACVALUE_END
170
4
140
1.75
171
1
172
0
173
0
174
0
175
1
176
1
 91
33
178
0
145
0.0
301
CELL_VALUE
 90
4
  1
PBT+PC
304
ACVALUE_END
170
4
140
2.5
171
1
172
0
173
0
174
0
175
1
176
1
 91
33
178
0
145
0.0
301
CELL_VALUE
 90
4
  1
\Q5.0;Color:
304
ACVALUE_END
170
4
140
1.75
171
1
172
0
173
0
174
0
175
1
176
1
 91
33
178
0
145
0.0
301
CELL_VALUE
 90
4
  1
 
304
ACVALUE_END
170
4
140
3.0
  0
ACAD_TABLE
  5
44E
100
AcDbEntity
  8
0
 62
2
  6
CONTINUOUS
100
AcDbBlockReference
  2
*T3
 10
26.9999216353
 20
49.0000005993
 30
0.0
100
AcDbTable
342
       6B1
343
215
 11
1.0
 21
0.0
 31
0.0
 90
22
 91
1
 92
4
 93
0
 94
0
 95
0
 96
0
141
6.0
142
12.0
142
32.0
142
21.0
142
28.0
171
1
172
0
173
0
174
0
175
1
176
1
 91
33
178
0
145
0.0
301
CELL_VALUE
 90
4
  1
\Q5.0;Supplier:
304
ACVALUE_END
170
4
140
1.75
171
1
172
0
173
0
174
0
175
1
176
1
 91
33
178
0
145
0.0
301
CELL_VALUE
 90
4
  1
 
304
ACVALUE_END
170
4
140
3.0
171
1
172
0
173
0
174
0
175
1
176
1
 91
33
178
0
145
0.0
301
CELL_VALUE
 90
4
  1
\Q5.0;Tool No:
304
ACVALUE_END
170
6
140
1.75
171
1
172
0
173
0
174
0
175
1
176
1
 91
33
178
0
145
0.0
301
CELL_VALUE
 90
4
  1
 
304
ACVALUE_END
170
4
140
3.0
  0
ACAD_TABLE
  5
44F
100
AcDbEntity
  8
0
 62
2
  6
CONTINUOUS
100
AcDbBlockReference
  2
*T4
 10
119.9999200787
 20
49.0000032543
 30
0.0
100
AcDbTable
342
       6B1
343
216
 11
1.0
 21
0.0
 31
0.0
 90
22
 91
1
 92
4
 93
0
 94
0
 95
0
 96
0
141
6.0
142
15.0
142
27.0
142
12.0
142
28.0
171
1
172
0
173
0
174
0
175
1
176
1
 91
33
178
0
145
0.0
301
CELL_VALUE
 90
4
  1
\Q5.0;Weight [kg]:
304
ACVALUE_END
170
4
140
1.75
171
1
172
0
173
0
174
0
175
1
176
1
 91
33
178
0
145
0.0
301
CELL_VALUE
 90
4
  1
0.02
304
ACVALUE_END
170
4
140
2.5
171
1
172
0
173
0
174
0
175
1
176
1
 91
33
178
0
145
0.0
301
CELL_VALUE
 90
4
  1
\Q5.0;Volume:
304
ACVALUE_END
170
4
140
1.75
171
1
172
0
173
0
174
0
175
1
176
1
 91
33
178
0
145
0.0
301
CELL_VALUE
 90
4
  1
 
304
ACVALUE_END
170
4
140
3.0
  0
ACAD_TABLE
  5
450
100
AcDbEntity
  8
0
 62
2
  6
CONTINUOUS
100
AcDbBlockReference
  2
*T5
 10
91.9999338812
 20
7.0000033963
 30
0.0
100
AcDbTable
342
       6B2
343
217
 11
1.0
 21
0.0
 31
0.0
 90
6
 91
6
 92
4
 93
4
 94
0
 95
0
 96
0
 70
1
141
5.5548
141
6.148
141
6.1484
141
6.1484
141
6.0
141
6.0
142
70.0
142
12.0
142
17.0
142
11.0
171
1
172
0
173
0
174
0
175
1
176
1
 91
33
178
0
145
0.0
301
CELL_VALUE
 90
4
  1
 
304
ACVALUE_END
170
8
140
2.0
171
1
172
0
173
0
174
0
175
1
176
1
 91
33
178
0
145
0.0
301
CELL_VALUE
 90
4
  1
\Q5.0;Sheet No:
304
ACVALUE_END
170
4
140
1.75
171
1
172
0
173
0
174
0
175
2
176
1
 91
33
178
0
145
0.0
301
CELL_VALUE
 90
4
  1
 
304
ACVALUE_END
170
1
140
2.5
171
1
172
0
173
1
174
0
175
1
176
1
 91
1
178
0
145
0.0
170
1
171
1
172
0
173
0
174
0
175
1
176
1
 91
33
178
0
145
0.0
301
CELL_VALUE
 90
4
  1
 
304
ACVALUE_END
170
8
140
2.5
171
1
172
0
173
0
174
0
175
1
176
1
 91
33
178
0
145
0.0
301
CELL_VALUE
 90
4
  1
\Q5.0;Code:
304
ACVALUE_END
170
4
140
1.75
171
1
172
0
173
0
174
0
175
2
176
1
 91
33
178
0
145
0.0
301
CELL_VALUE
 90
4
  1
BVD22
304
ACVALUE_END
170
1
140
2.5
171
1
172
0
173
1
174
0
175
1
176
1
 91
1
178
0
145
0.0
170
1
171
1
172
0
173
0
174
0
175
1
176
1
 91
33
178
0
145
0.0
301
CELL_VALUE
 90
4
  1
 
304
ACVALUE_END
170
8
140
3.0
171
1
172
0
173
0
174
0
175
1
176
1
 91
33
178
0
145
0.0
301
CELL_VALUE
 90
4
  1
\Q5.0;Ref:
304
ACVALUE_END
170
4
140
1.75
171
1
172
0
173
0
174
0
175
2
176
1
 91
33
178
0
145
0.0
301
CELL_VALUE
 90
4
  1
 
304
ACVALUE_END
170
1
140
3.0
171
1
172
0
173
1
174
0
175
1
176
1
 91
1
178
0
145
0.0
170
1
171
1
172
0
173
0
174
0
175
1
176
1
 91
33
178
0
145
0.0
301
CELL_VALUE
 90
4
  1
 
304
ACVALUE_END
170
8
140
3.0
171
1
172
0
173
0
174
0
175
1
176
1
 91
33
178
0
145
0.0
301
CELL_VALUE
 90
4
  1
\Q5.0;Drw No:
304
ACVALUE_END
170
4
140
1.75
171
1
172
0
173
0
174
0
175
1
176
1
 91
33
178
0
145
0.0
301
CELL_VALUE
 90
4
  1
 
304
ACVALUE_END
170
1
140
3.0
171
1
172
0
173
0
174
0
175
1
176
1
 91
33
178
0
145
0.0
301
CELL_VALUE
 90
4
  1
A
304
ACVALUE_END
170
1
140
2.5
171
1
172
0
173
0
174
0
175
1
176
1
 91
33
178
0
145
0.0
301
CELL_VALUE
 90
4
  1
BVD22
304
ACVALUE_END
170
8
140
4.0
171
1
172
0
173
0
174
0
175
1
176
1
 91
33
178
0
145
0.0
301
CELL_VALUE
 90
4
  1
\Q5.0;Replaced:
304
ACVALUE_END
170
4
140
1.75
171
1
172
0
173
0
174
0
175
2
176
1
 91
33
178
0
145
0.0
301
CELL_VALUE
 90
4
  1
 
304
ACVALUE_END
170
1
140
2.5
171
1
172
0
173
1
174
0
175
1
176
1
 91
1
178
0
145
0.0
170
1
171
1
172
0
173
0
174
0
175
1
176
1
 91
33
178
0
145
0.0
301
CELL_VALUE
 90
4
  1
 
304
ACVALUE_END
170
1
140
3.0
171
1
172
0
173
0
174
0
175
1
176
1
 91
33
178
0
145
0.0
301
CELL_VALUE
 90
4
  1
\Q5.0;Replaces:
304
ACVALUE_END
170
4
140
1.75
171
1
172
0
173
0
174
0
175
2
176
1
 91
33
178
0
145
0.0
301
CELL_VALUE
 90
4
  1
 
304
ACVALUE_END
170
1
140
2.5
171
1
172
0
173
1
174
0
175
1
176
1
 91
1
178
0
145
0.0
170
1
  0
ACAD_TABLE
  5
451
100
AcDbEntity
  8
0
 62
2
  6
CONTINUOUS
100
AcDbBlockReference
  2
*T6
 10
26.9999338817
 20
7.0000034085
 30
0.0
100
AcDbTable
342
       6B2
343
218
 11
1.0
 21
0.0
 31
0.0
 90
6
 91
5
 92
3
 93
4
 94
0
 95
0
 96
0
 70
1
141
5.0
141
5.0
141
5.0
141
5.0
141
16.0
142
30.0
142
14.0
142
21.0
171
1
172
0
173
0
174
0
175
1
176
1
 91
33
178
0
145
0.0
301
CELL_VALUE
 90
4
  1
-
304
ACVALUE_END
170
5
140
2.5
171
1
172
0
173
0
174
0
175
1
176
1
 91
33
178
0
145
0.0
301
CELL_VALUE
 90
4
  1
\Q5.0;Ctrl
304
ACVALUE_END
170
4
140
1.75
171
1
172
0
173
0
174
0
175
1
176
1
 91
33
178
0
145
0.0
301
CELL_VALUE
 90
4
  1
 
304
ACVALUE_END
170
4
140
2.5
171
1
172
0
173
0
174
0
175
1
176
1
 91
33
178
0
145
0.0
301
CELL_VALUE
 90
4
  1
-
304
ACVALUE_END
170
5
140
2.5
171
1
172
0
173
0
174
0
175
1
176
1
 91
33
178
0
145
0.0
301
CELL_VALUE
 90
4
  1
\Q5.0;Checked
304
ACVALUE_END
170
4
140
1.75
171
1
172
0
173
0
174
0
175
1
176
1
 91
33
178
0
145
0.0
301
CELL_VALUE
 90
4
  1
 
304
ACVALUE_END
170
4
140
2.5
171
1
172
0
173
0
174
0
175
1
176
1
 91
33
178
0
145
0.0
301
CELL_VALUE
 90
4
  1
1:1
304
ACVALUE_END
170
5
140
3.0
171
1
172
0
173
0
174
0
175
1
176
1
 91
33
178
0
145
0.0
301
CELL_VALUE
 90
4
  1
\Q5.0;By
304
ACVALUE_END
170
4
140
1.75
171
1
172
0
173
0
174
0
175
1
176
1
 91
33
178
0
145
0.0
301
CELL_VALUE
 90
4
  1
PKos
304
ACVALUE_END
170
4
140
2.5
171
1
172
0
173
0
174
0
175
1
176
1
 91
33
178
0
145
0.0
301
CELL_VALUE
 90
4
  1
\Q5.0;Scale
304
ACVALUE_END
170
5
140
1.75
171
1
172
0
173
0
174
0
175
1
176
1
 91
33
178
0
145
0.0
301
CELL_VALUE
 90
4
  1
\Q5.0;Date
304
ACVALUE_END
170
4
140
1.75
171
1
172
0
173
0
174
0
175
1
176
1
 91
33
178
0
145
0.0
301
CELL_VALUE
 90
4
  1
23.10.13
304
ACVALUE_END
170
4
140
2.5
171
1
172
0
173
0
174
0
175
2
176
1
 91
33
178
0
145
0.0
301
CELL_VALUE
 90
4
  1
 
304
ACVALUE_END
170
1
140
3.0
171
1
172
0
173
1
174
0
175
1
176
1
 91
1
178
0
145
0.0
170
1
171
1
172
0
173
0
174
0
175
1
176
1
 91
33
178
0
145
0.0
301
CELL_VALUE
 90
4
  1
 
304
ACVALUE_END
170
1
140
3.0
  0
ACAD_TABLE
  5
452
100
AcDbEntity
  8
0
 62
2
  6
CONTINUOUS
100
AcDbBlockReference
  2
*T7
 10
26.9999338006
 20
43.0000035528
 30
0.0
100
AcDbTable
342
       6B1
343
219
 11
1.0
 21
0.0
 31
0.0
 90
22
 91
2
 92
1
 93
0
 94
0
 95
0
 96
0
141
10.0
141
6.0
142
44.0
171
1
172
0
173
0
174
0
175
1
176
1
 91
33
178
0
145
0.0
301
CELL_VALUE
 90
4
  1
 
304
ACVALUE_END
170
1
140
3.0
171
1
172
0
173
0
174
0
175
1
176
1
 91
33
178
0
145
0.0
301
CELL_VALUE
 90
4
  1
Ensto Industrial Solutions
304
ACVALUE_END
170
5
140
2.6
  0
ACAD_TABLE
  5
453
100
AcDbEntity
  8
0
 62
2
  6
CONTINUOUS
100
AcDbBlockReference
  2
*T8
 10
16.9999254007
 20
7.0000024496
 30
0.0
100
AcDbTable
342
       6B1
343
21A
 11
0.0
 21
1.0
 31
0.0
 90
22
 91
2
 92
2
 93
0
 94
0
 95
0
 96
0
141
5.0
141
5.0
142
10.0
142
32.0
171
1
172
0
173
0
174
0
175
1
176
1
 91
33
178
0
145
0.0
301
CELL_VALUE
 90
4
  1
\Q5.0;model
304
ACVALUE_END
170
4
140
1.5
171
1
172
0
173
0
174
0
175
1
176
1
 91
33
178
0
145
0.0
301
CELL_VALUE
 90
4
  1
BVD22_VENTILATION_DEVICE\H1.0;.PART
304
ACVALUE_END
170
4
140
2.5
171
1
172
0
173
0
174
0
175
1
176
1
 91
33
178
0
145
0.0
301
CELL_VALUE
 90
4
  1
\Q5.0;drawing
304
ACVALUE_END
170
4
140
1.5
171
1
172
0
173
0
174
0
175
1
176
1
 91
33
178
0
145
0.0
301
CELL_VALUE
 90
4
  1
BVD22\H1.0;.DRAWING
304
ACVALUE_END
170
4
140
2.5
  0
LINE
  5
454
100
AcDbEntity
  8
0
100
AcDbLine
 62
7
  6
CONTINUOUS
 10
17.0
 20
7.0
 11
202.0
 21
7.0
  0
LINE
  5
455
100
AcDbEntity
  8
0
100
AcDbLine
 62
2
  6
CONTINUOUS
 10
72.6876968233
 20
34.8664854626
 11
89.3903951458
 21
34.8664854626
  0
LINE
  5
456
100
AcDbEntity
  8
0
100
AcDbLine
 62
7
  6
CONTINUOUS
 10
74.6149312451
 20
33.5816625147
 11
81.0390459845
 21
32.2968395668
  0
LINE
  5
457
100
AcDbEntity
  8
0
100
AcDbLine
 62
7
  6
CONTINUOUS
 10
74.6149312451
 20
36.1513084105
 11
81.0390459845
 21
37.4361313584
  0
LINE
  5
458
100
AcDbEntity
  8
0
100
AcDbLine
 62
2
  6
CONTINUOUS
 10
202.0
 20
43.0
 11
200.0
 21
43.0
  0
LINE
  5
459
100
AcDbEntity
  8
0
100
AcDbLine
 62
7
  6
CONTINUOUS
 10
17.0
 20
7.0
 11
17.0
 21
290.0
  0
LINE
  5
45A
100
AcDbEntity
  8
0
100
AcDbLine
 62
2
  6
CONTINUOUS
 10
27.0
 20
7.0
 11
27.0
 21
9.0
  0
LINE
  5
45B
100
AcDbEntity
  8
0
100
AcDbLine
 62
7
  6
CONTINUOUS
 10
74.6149312451
 20
33.5816625147
 11
74.6149312451
 21
36.1513084105
  0
LINE
  5
45C
100
AcDbEntity
  8
0
100
AcDbLine
 62
7
  6
CONTINUOUS
 10
81.0390459845
 20
37.4361313584
 11
81.0390459845
 21
32.2968395668
  0
LINE
  5
45D
100
AcDbEntity
  8
0
100
AcDbLine
 62
2
  6
CONTINUOUS
 10
86.1783377761
 20
38.0785428323
 11
86.1783377761
 21
31.6544280929
  0
LINE
  5
45E
100
AcDbEntity
  8
0
100
AcDbLine
 62
2
  6
CONTINUOUS
 10
92.0
 20
7.0
 11
92.0
 21
9.0
  0
LINE
  5
45F
100
AcDbEntity
  8
0
100
AcDbLine
 62
2
  6
CONTINUOUS
 10
17.0
 20
150.5
 11
12.0
 21
150.5
  0
LINE
  5
460
100
AcDbEntity
  8
0
100
AcDbLine
 62
7
  6
CONTINUOUS
 10
202.0
 20
7.0
 11
202.0
 21
290.0
  0
LINE
  5
461
100
AcDbEntity
  8
0
100
AcDbLine
 62
7
  6
CONTINUOUS
 10
17.0
 20
290.0
 11
202.0
 21
290.0
  0
LINE
  5
462
100
AcDbEntity
  8
0
100
AcDbLine
 62
7
  6
CONTINUOUS
 10
62.0612622717
 20
95.4387377283
 11
50.4387377283
 21
107.0612622717
  0
LINE
  5
463
100
AcDbEntity
  8
0
100
AcDbLine
 62
7
  6
CONTINUOUS
 10
50.0
 20
143.5020556979
 11
50.0
 21
108.1204688456
  0
LINE
  5
464
100
AcDbEntity
  8
0
100
AcDbLine
 62
7
  6
CONTINUOUS
 10
50.9736581336
 20
142.5283975643
 11
50.9736581336
 21
108.5237712497
  0
LINE
  5
465
100
AcDbEntity
  8
0
100
AcDbLine
 62
7
  6
CONTINUOUS
 10
63.9142135624
 20
95.0
 11
63.1204688456
 21
95.0
  0
LINE
  5
466
100
AcDbEntity
  8
0
100
AcDbLine
 62
7
  6
CONTINUOUS
 10
98.3684158607
 20
95.1336398372
 11
97.5663601628
 21
95.1336398372
  0
LINE
  5
467
100
AcDbEntity
  8
0
100
AcDbLine
 62
7
  6
CONTINUOUS
 10
65.8080466265
 20
95.1336398372
 11
63.8435209586
 21
95.1336398372
  0
LINE
  5
468
100
AcDbEntity
  8
0
100
AcDbLine
 62
7
  6
CONTINUOUS
 10
65.8355339059
 20
95.2
 11
97.5
 21
95.2
  0
LINE
  5
469
100
AcDbEntity
  8
0
100
AcDbLine
 62
7
  6
CONTINUOUS
 10
84.7686123906
 20
95.269841539
 11
86.1267056059
 21
95.269841539
  0
LINE
  5
46A
100
AcDbEntity
  8
0
100
AcDbLine
 62
7
  6
CONTINUOUS
 10
66.6737384469
 20
95.9276176933
 11
96.39279648
 21
95.9276176933
  0
LINE
  5
46B
100
AcDbEntity
  8
0
100
AcDbLine
 62
7
  6
CONTINUOUS
 10
63.5237712497
 20
95.9736581336
 11
97.5283975643
 21
95.9736581336
  0
LINE
  5
46C
100
AcDbEntity
  8
0
100
AcDbLine
 62
7
  6
CONTINUOUS
 10
51.4123958619
 20
107.4645646758
 11
62.4645646758
 21
96.4123958619
  0
LINE
  5
46D
100
AcDbEntity
  8
0
100
AcDbLine
 62
7
  6
CONTINUOUS
 10
52.4716024357
 20
108.5237712497
 11
63.5237712497
 21
97.4716024357
  0
LINE
  5
46E
100
AcDbEntity
  8
0
100
AcDbLine
 62
7
  6
CONTINUOUS
 10
52.4716024357
 20
108.5237712497
 11
52.4716024385
 21
144.0263418664
  0
LINE
  5
46F
100
AcDbEntity
  8
0
100
AcDbLine
 62
7
  6
CONTINUOUS
 10
63.5237712497
 20
97.4716024357
 11
99.0263418664
 21
97.4716024357
  0
LINE
  5
470
100
AcDbEntity
  8
0
100
AcDbLine
 62
7
  6
CONTINUOUS
 10
63.8435209586
 20
95.1336398372
 11
63.9142135624
 21
95.0
  0
LINE
  5
471
100
AcDbEntity
  8
0
100
AcDbLine
 62
7
  6
CONTINUOUS
 10
63.5237712497
 20
97.4716024357
 11
63.5237712497
 21
95.9736581336
  0
LINE
  5
472
100
AcDbEntity
  8
0
100
AcDbLine
 62
7
  6
CONTINUOUS
 10
52.4716024357
 20
108.5237712497
 11
50.9736581336
 21
108.5237712514
  0
LINE
  5
473
100
AcDbEntity
  8
0
100
AcDbLine
 62
7
  6
CONTINUOUS
 10
52.4716024357
 20
108.5237712497
 11
51.4123958619
 21
107.4645646758
  0
LINE
  5
474
100
AcDbEntity
  8
0
100
AcDbLine
 62
7
  6
CONTINUOUS
 10
86.4762287503
 20
142.5283975643
 11
87.5354353254
 21
143.5876041369
  0
LINE
  5
475
100
AcDbEntity
  8
0
100
AcDbLine
 62
7
  6
CONTINUOUS
 10
62.0612622717
 20
95.4387377283
 11
62.4645646758
 21
96.4123958619
  0
LINE
  5
476
100
AcDbEntity
  8
0
100
AcDbLine
 62
7
  6
CONTINUOUS
 10
98.5876041381
 20
132.5354353242
 11
99.5612622717
 21
132.9387377283
  0
LINE
  5
477
100
AcDbEntity
  8
0
100
AcDbLine
 62
7
  6
CONTINUOUS
 10
63.1204688456
 20
95.0
 11
63.5237712497
 21
95.9736581336
  0
LINE
  5
478
100
AcDbEntity
  8
0
100
AcDbLine
 62
7
  6
CONTINUOUS
 10
99.0263418664
 20
131.4762287503
 11
100.0
 21
131.8795311544
  0
LINE
  5
479
100
AcDbEntity
  8
0
100
AcDbLine
 62
7
  6
CONTINUOUS
 10
96.7922482939
 20
95.9077517061
 11
97.5663601628
 21
95.1336398372
  0
LINE
  5
47A
100
AcDbEntity
  8
0
100
AcDbLine
 62
7
  6
CONTINUOUS
 10
50.9736581336
 20
142.5283975643
 11
50.0
 21
143.5020556979
  0
LINE
  5
47B
100
AcDbEntity
  8
0
100
AcDbLine
 62
7
  6
CONTINUOUS
 10
97.5283975643
 20
95.9736581336
 11
98.3684158607
 21
95.1336398372
  0
LINE
  5
47C
100
AcDbEntity
  8
0
100
AcDbLine
 62
7
  6
CONTINUOUS
 10
66.1286942614
 20
95.9077517061
 11
65.8080466265
 21
95.1336398372
  0
LINE
  5
47D
100
AcDbEntity
  8
0
100
AcDbLine
 62
7
  6
CONTINUOUS
 10
86.4762287503
 20
144.0263418664
 11
86.8795311544
 21
145.0
  0
LINE
  5
47E
100
AcDbEntity
  8
0
100
AcDbLine
 62
7
  6
CONTINUOUS
 10
87.5354353242
 20
143.5876041381
 11
87.9387377283
 21
144.5612622717
  0
LINE
  5
47F
100
AcDbEntity
  8
0
100
AcDbLine
 62
7
  6
CONTINUOUS
 10
50.9736581336
 20
108.5237712497
 11
50.0
 21
108.1204688456
  0
LINE
  5
480
100
AcDbEntity
  8
0
100
AcDbLine
 62
7
  6
CONTINUOUS
 10
51.4123958619
 20
107.4645646758
 11
50.4387377283
 21
107.0612622717
  0
LINE
  5
481
100
AcDbEntity
  8
0
100
AcDbLine
 62
7
  6
CONTINUOUS
 10
52.4716024357
 20
144.0263418664
 11
51.4979443021
 21
145.0
  0
LINE
  5
482
100
AcDbEntity
  8
0
100
AcDbLine
 62
7
  6
CONTINUOUS
 10
99.0263418664
 20
97.4716024357
 11
100.0
 21
96.4979443021
  0
LINE
  5
483
100
AcDbEntity
  8
0
100
AcDbLine
 62
7
  6
CONTINUOUS
 10
86.1556349186
 20
95.2
 11
86.1267056059
 21
95.269841539
  0
LINE
  5
484
100
AcDbEntity
  8
0
100
AcDbLine
 62
7
  6
CONTINUOUS
 10
63.5237712497
 20
97.4716024357
 11
62.4645646737
 21
96.4123958639
  0
LINE
  5
485
100
AcDbEntity
  8
0
100
AcDbLine
 62
7
  6
CONTINUOUS
 10
97.5283975643
 20
131.4762287503
 11
98.5876041381
 21
132.5354353242
  0
LINE
  5
486
100
AcDbEntity
  8
0
100
AcDbLine
 62
7
  6
CONTINUOUS
 10
86.4762287503
 20
142.5283975643
 11
86.4762287503
 21
144.0263418664
  0
LINE
  5
487
100
AcDbEntity
  8
0
100
AcDbLine
 62
7
  6
CONTINUOUS
 10
97.5283975643
 20
131.4762287503
 11
99.0263418664
 21
131.4762287486
  0
LINE
  5
488
100
AcDbEntity
  8
0
100
AcDbLine
 62
7
  6
CONTINUOUS
 10
97.5283975615
 20
95.9736581336
 11
97.5283975643
 21
131.4762287503
  0
LINE
  5
489
100
AcDbEntity
  8
0
100
AcDbLine
 62
7
  6
CONTINUOUS
 10
86.4762287503
 20
142.5283975643
 11
50.9736581336
 21
142.5283975643
  0
LINE
  5
48A
100
AcDbEntity
  8
0
100
AcDbLine
 62
7
  6
CONTINUOUS
 10
99.0263418664
 20
97.4716024357
 11
99.0263418664
 21
131.4762287503
  0
LINE
  5
48B
100
AcDbEntity
  8
0
100
AcDbLine
 62
7
  6
CONTINUOUS
 10
100.0
 20
96.4979443021
 11
100.0
 21
131.8795311544
  0
LINE
  5
48C
100
AcDbEntity
  8
0
100
AcDbLine
 62
7
  6
CONTINUOUS
 10
85.3276176933
 20
95.9276176933
 11
84.6
 21
95.2
  0
LINE
  5
48D
100
AcDbEntity
  8
0
100
AcDbLine
 62
7
  6
CONTINUOUS
 10
85.426388545
 20
95.9276176933
 11
84.7686123906
 21
95.269841539
  0
LINE
  5
48E
100
AcDbEntity
  8
0
100
AcDbLine
 62
7
  6
CONTINUOUS
 10
86.1267056059
 20
95.269841539
 11
86.7844817603
 21
95.9276176933
  0
LINE
  5
48F
100
AcDbEntity
  8
0
100
AcDbLine
 62
7
  6
CONTINUOUS
 10
86.1556349186
 20
95.2
 11
86.8832526119
 21
95.9276176933
  0
LINE
  5
490
100
AcDbEntity
  8
0
100
AcDbLine
 62
7
  6
CONTINUOUS
 10
86.4762287503
 20
144.0263418664
 11
52.4716024357
 21
144.0263418664
  0
LINE
  5
491
100
AcDbEntity
  8
0
100
AcDbLine
 62
7
  6
CONTINUOUS
 10
51.4979443021
 20
145.0
 11
86.8795311544
 21
145.0
  0
LINE
  5
492
100
AcDbEntity
  8
0
100
AcDbLine
 62
7
  6
CONTINUOUS
 10
97.5283975643
 20
131.4762287503
 11
86.4762287503
 21
142.5283975643
  0
LINE
  5
493
100
AcDbEntity
  8
0
100
AcDbLine
 62
7
  6
CONTINUOUS
 10
98.5876041381
 20
132.5354353242
 11
87.5354353242
 21
143.5876041381
  0
LINE
  5
494
100
AcDbEntity
  8
0
100
AcDbLine
 62
7
  6
CONTINUOUS
 10
84.6
 20
95.2
 11
84.7686123906
 21
95.269841539
  0
LINE
  5
495
100
AcDbEntity
  8
0
100
AcDbLine
 62
7
  6
CONTINUOUS
 10
87.9387377283
 20
144.5612622717
 11
99.5612622717
 21
132.9387377283
  0
LINE
  5
496
100
AcDbEntity
  8
0
100
AcDbLine
 62
7
  6
CONTINUOUS
 10
136.2286116689
 20
95.2
 11
136.15
 21
95.2786116689
  0
LINE
  5
497
100
AcDbEntity
  8
0
100
AcDbLine
 62
7
  6
CONTINUOUS
 10
147.0612622717
 20
144.5612622717
 11
135.4387377283
 21
132.9387377283
  0
LINE
  5
498
100
AcDbEntity
  8
0
100
AcDbLine
 62
7
  6
CONTINUOUS
 10
135.0
 20
96.4979443021
 11
135.0
 21
131.8795311544
  0
LINE
  5
499
100
AcDbEntity
  8
0
100
AcDbLine
 62
7
  6
CONTINUOUS
 10
136.0
 20
95.0850202581
 11
136.0
 21
131.8786796564
  0
LINE
  5
49A
100
AcDbEntity
  8
0
100
AcDbLine
 62
7
  6
CONTINUOUS
 10
136.0445104156
 20
131.8786796564
 11
136.0445104156
 21
95.2532596277
  0
LINE
  5
49B
100
AcDbEntity
  8
0
100
AcDbLine
 62
7
  6
CONTINUOUS
 10
136.15
 20
95.2786116689
 11
136.15
 21
131.7751262658
  0
LINE
  5
49C
100
AcDbEntity
  8
0
100
AcDbLine
 62
7
  6
CONTINUOUS
 10
147.767766953
 20
143.8535533906
 11
136.1464466094
 21
132.232233047
  0
LINE
  5
49D
100
AcDbEntity
  8
0
100
AcDbLine
 62
7
  6
CONTINUOUS
 10
147.7992405696
 20
143.8220797739
 11
136.1779202261
 21
132.2007594304
  0
LINE
  5
49E
100
AcDbEntity
  8
0
100
AcDbLine
 62
7
  6
CONTINUOUS
 10
147.8006096654
 20
143.6742640687
 11
136.3257359313
 21
132.1993903346
  0
LINE
  5
49F
100
AcDbEntity
  8
0
100
AcDbLine
 62
7
  6
CONTINUOUS
 10
171.0857864376
 20
95.0
 11
171.8795311544
 21
95.0
  0
LINE
  5
4A0
100
AcDbEntity
  8
0
100
AcDbLine
 62
7
  6
CONTINUOUS
 10
136.6315841393
 20
95.1336398372
 11
137.4336398372
 21
95.1336398372
  0
LINE
  5
4A1
100
AcDbEntity
  8
0
100
AcDbLine
 62
7
  6
CONTINUOUS
 10
169.1919533735
 20
95.1336398372
 11
171.1564790414
 21
95.1336398372
  0
LINE
  5
4A2
100
AcDbEntity
  8
0
100
AcDbLine
 62
7
  6
CONTINUOUS
 10
136.2286116689
 20
95.2
 11
170.9624807149
 21
95.2
  0
LINE
  5
4A3
100
AcDbEntity
  8
0
100
AcDbLine
 62
7
  6
CONTINUOUS
 10
136.15
 20
95.2786116689
 11
171.1522660722
 21
95.2786116689
  0
LINE
  5
4A4
100
AcDbEntity
  8
0
100
AcDbLine
 62
7
  6
CONTINUOUS
 10
137.4336398372
 20
95.1336398372
 11
137.4336398372
 21
95.2
  0
LINE
  5
4A5
100
AcDbEntity
  8
0
100
AcDbLine
 62
7
  6
CONTINUOUS
 10
148.1213203436
 20
144.0
 11
148.1213203436
 21
143.9554895844
  0
LINE
  5
4A6
100
AcDbEntity
  8
0
100
AcDbLine
 62
7
  6
CONTINUOUS
 10
184.0
 20
108.1213203436
 11
183.9554895844
 21
108.1213203436
  0
LINE
  5
4A7
100
AcDbEntity
  8
0
100
AcDbLine
 62
7
  6
CONTINUOUS
 10
153.0349207695
 20
122.6650850072
 11
153.0349207695
 21
122.9650792305
  0
LINE
  5
4A8
100
AcDbEntity
  8
0
100
AcDbLine
 62
7
  6
CONTINUOUS
 10
153.0349207695
 20
124.0349207695
 11
153.0349207695
 21
125.9650792305
  0
LINE
  5
4A9
100
AcDbEntity
  8
0
100
AcDbLine
 62
7
  6
CONTINUOUS
 10
153.0349207695
 20
127.0349207695
 11
153.0349207695
 21
127.3349149928
  0
LINE
  5
4AA
100
AcDbEntity
  8
0
100
AcDbLine
 62
7
  6
CONTINUOUS
 10
136.1464466094
 20
132.232233047
 11
136.1779202261
 21
132.2007594304
  0
LINE
  5
4AB
100
AcDbEntity
  8
0
100
AcDbLine
 62
7
  6
CONTINUOUS
 10
154.9650792305
 20
128.9650792305
 11
154.9650792305
 21
127.0349207695
  0
LINE
  5
4AC
100
AcDbEntity
  8
0
100
AcDbLine
 62
7
  6
CONTINUOUS
 10
154.9650792305
 20
125.9650792305
 11
154.9650792305
 21
124.0349207695
  0
LINE
  5
4AD
100
AcDbEntity
  8
0
100
AcDbLine
 62
7
  6
CONTINUOUS
 10
154.9650792305
 20
122.9650792305
 11
154.9650792305
 21
121.0349207695
  0
LINE
  5
4AE
100
AcDbEntity
  8
0
100
AcDbLine
 62
7
  6
CONTINUOUS
 10
156.0349207695
 20
118.8159638256
 11
156.0349207695
 21
119.9650792305
  0
LINE
  5
4AF
100
AcDbEntity
  8
0
100
AcDbLine
 62
7
  6
CONTINUOUS
 10
156.0349207695
 20
121.0349207695
 11
156.0349207695
 21
122.9650792305
  0
LINE
  5
4B0
100
AcDbEntity
  8
0
100
AcDbLine
 62
7
  6
CONTINUOUS
 10
156.0349207695
 20
124.0349207695
 11
156.0349207695
 21
125.9650792305
  0
LINE
  5
4B1
100
AcDbEntity
  8
0
100
AcDbLine
 62
7
  6
CONTINUOUS
 10
156.0349207695
 20
127.0349207695
 11
156.0349207695
 21
128.9650792305
  0
LINE
  5
4B2
100
AcDbEntity
  8
0
100
AcDbLine
 62
7
  6
CONTINUOUS
 10
156.0349207695
 20
130.0349207695
 11
156.0349207695
 21
131.1840361744
  0
LINE
  5
4B3
100
AcDbEntity
  8
0
100
AcDbLine
 62
7
  6
CONTINUOUS
 10
157.9650792305
 20
131.9650792305
 11
157.9650792305
 21
130.0349207695
  0
LINE
  5
4B4
100
AcDbEntity
  8
0
100
AcDbLine
 62
7
  6
CONTINUOUS
 10
157.9650792305
 20
128.9650792305
 11
157.9650792305
 21
127.0349207695
  0
LINE
  5
4B5
100
AcDbEntity
  8
0
100
AcDbLine
 62
7
  6
CONTINUOUS
 10
157.9650792305
 20
125.9650792305
 11
157.9650792305
 21
124.0349207695
  0
LINE
  5
4B6
100
AcDbEntity
  8
0
100
AcDbLine
 62
7
  6
CONTINUOUS
 10
157.9650792305
 20
122.9650792305
 11
157.9650792305
 21
121.0349207695
  0
LINE
  5
4B7
100
AcDbEntity
  8
0
100
AcDbLine
 62
7
  6
CONTINUOUS
 10
157.9650792305
 20
119.9650792305
 11
157.9650792305
 21
118.0349207695
  0
LINE
  5
4B8
100
AcDbEntity
  8
0
100
AcDbLine
 62
7
  6
CONTINUOUS
 10
158.75
 20
136.25
 11
158.75
 21
135.854893997
  0
LINE
  5
4B9
100
AcDbEntity
  8
0
100
AcDbLine
 62
7
  6
CONTINUOUS
 10
159.0349207695
 20
118.0349207695
 11
159.0349207695
 21
119.9650792305
  0
LINE
  5
4BA
100
AcDbEntity
  8
0
100
AcDbLine
 62
7
  6
CONTINUOUS
 10
159.0349207695
 20
121.0349207695
 11
159.0349207695
 21
122.9650792305
  0
LINE
  5
4BB
100
AcDbEntity
  8
0
100
AcDbLine
 62
7
  6
CONTINUOUS
 10
159.0349207695
 20
124.0349207695
 11
159.0349207695
 21
125.9650792305
  0
LINE
  5
4BC
100
AcDbEntity
  8
0
100
AcDbLine
 62
7
  6
CONTINUOUS
 10
159.0349207695
 20
127.0349207695
 11
159.0349207695
 21
128.9650792305
  0
LINE
  5
4BD
100
AcDbEntity
  8
0
100
AcDbLine
 62
7
  6
CONTINUOUS
 10
159.0349207695
 20
130.0349207695
 11
159.0349207695
 21
131.9650792305
  0
LINE
  5
4BE
100
AcDbEntity
  8
0
100
AcDbLine
 62
7
  6
CONTINUOUS
 10
162.3349149928
 20
118.0349207695
 11
162.0349207695
 21
118.0349207695
  0
LINE
  5
4BF
100
AcDbEntity
  8
0
100
AcDbLine
 62
7
  6
CONTINUOUS
 10
160.9650792305
 20
118.0349207695
 11
159.0349207695
 21
118.0349207695
  0
LINE
  5
4C0
100
AcDbEntity
  8
0
100
AcDbLine
 62
7
  6
CONTINUOUS
 10
157.9650792305
 20
118.0349207695
 11
157.6650850072
 21
118.0349207695
  0
LINE
  5
4C1
100
AcDbEntity
  8
0
100
AcDbLine
 62
7
  6
CONTINUOUS
 10
156.0349207695
 20
119.9650792305
 11
157.9650792305
 21
119.9650792305
  0
LINE
  5
4C2
100
AcDbEntity
  8
0
100
AcDbLine
 62
7
  6
CONTINUOUS
 10
159.0349207695
 20
119.9650792305
 11
160.9650792305
 21
119.9650792305
  0
LINE
  5
4C3
100
AcDbEntity
  8
0
100
AcDbLine
 62
7
  6
CONTINUOUS
 10
162.0349207695
 20
119.9650792305
 11
163.9650792305
 21
119.9650792305
  0
LINE
  5
4C4
100
AcDbEntity
  8
0
100
AcDbLine
 62
7
  6
CONTINUOUS
 10
169.1644660941
 20
95.2
 11
169.1919533735
 21
95.1336398372
  0
LINE
  5
4C5
100
AcDbEntity
  8
0
100
AcDbLine
 62
7
  6
CONTINUOUS
 10
160.9650792305
 20
131.9650792305
 11
160.9650792305
 21
130.0349207695
  0
LINE
  5
4C6
100
AcDbEntity
  8
0
100
AcDbLine
 62
7
  6
CONTINUOUS
 10
160.9650792305
 20
128.9650792305
 11
160.9650792305
 21
127.0349207695
  0
LINE
  5
4C7
100
AcDbEntity
  8
0
100
AcDbLine
 62
7
  6
CONTINUOUS
 10
160.9650792305
 20
125.9650792305
 11
160.9650792305
 21
124.0349207695
  0
LINE
  5
4C8
100
AcDbEntity
  8
0
100
AcDbLine
 62
7
  6
CONTINUOUS
 10
160.9650792305
 20
122.9650792305
 11
160.9650792305
 21
121.0349207695
  0
LINE
  5
4C9
100
AcDbEntity
  8
0
100
AcDbLine
 62
7
  6
CONTINUOUS
 10
160.9650792305
 20
119.9650792305
 11
160.9650792305
 21
118.0349207695
  0
LINE
  5
4CA
100
AcDbEntity
  8
0
100
AcDbLine
 62
7
  6
CONTINUOUS
 10
161.25
 20
135.854893997
 11
161.25
 21
136.25
  0
LINE
  5
4CB
100
AcDbEntity
  8
0
100
AcDbLine
 62
7
  6
CONTINUOUS
 10
162.0349207695
 20
118.0349207695
 11
162.0349207695
 21
119.9650792305
  0
LINE
  5
4CC
100
AcDbEntity
  8
0
100
AcDbLine
 62
7
  6
CONTINUOUS
 10
162.0349207695
 20
121.0349207695
 11
162.0349207695
 21
122.9650792305
  0
LINE
  5
4CD
100
AcDbEntity
  8
0
100
AcDbLine
 62
7
  6
CONTINUOUS
 10
162.0349207695
 20
124.0349207695
 11
162.0349207695
 21
125.9650792305
  0
LINE
  5
4CE
100
AcDbEntity
  8
0
100
AcDbLine
 62
7
  6
CONTINUOUS
 10
162.0349207695
 20
127.0349207695
 11
162.0349207695
 21
128.9650792305
  0
LINE
  5
4CF
100
AcDbEntity
  8
0
100
AcDbLine
 62
7
  6
CONTINUOUS
 10
162.0349207695
 20
130.0349207695
 11
162.0349207695
 21
131.9650792305
  0
LINE
  5
4D0
100
AcDbEntity
  8
0
100
AcDbLine
 62
7
  6
CONTINUOUS
 10
137.5
 20
95.2
 11
137.4336398372
 21
95.1336398372
  0
LINE
  5
4D1
100
AcDbEntity
  8
0
100
AcDbLine
 62
7
  6
CONTINUOUS
 10
166.1840361744
 20
121.0349207695
 11
165.0349207695
 21
121.0349207695
  0
LINE
  5
4D2
100
AcDbEntity
  8
0
100
AcDbLine
 62
7
  6
CONTINUOUS
 10
163.9650792305
 20
121.0349207695
 11
162.0349207695
 21
121.0349207695
  0
LINE
  5
4D3
100
AcDbEntity
  8
0
100
AcDbLine
 62
7
  6
CONTINUOUS
 10
160.9650792305
 20
121.0349207695
 11
159.0349207695
 21
121.0349207695
  0
LINE
  5
4D4
100
AcDbEntity
  8
0
100
AcDbLine
 62
7
  6
CONTINUOUS
 10
157.9650792305
 20
121.0349207695
 11
156.0349207695
 21
121.0349207695
  0
LINE
  5
4D5
100
AcDbEntity
  8
0
100
AcDbLine
 62
7
  6
CONTINUOUS
 10
154.9650792305
 20
121.0349207695
 11
153.8159638256
 21
121.0349207695
  0
LINE
  5
4D6
100
AcDbEntity
  8
0
100
AcDbLine
 62
7
  6
CONTINUOUS
 10
163.9650792305
 20
131.1840361744
 11
163.9650792305
 21
130.0349207695
  0
LINE
  5
4D7
100
AcDbEntity
  8
0
100
AcDbLine
 62
7
  6
CONTINUOUS
 10
163.9650792305
 20
128.9650792305
 11
163.9650792305
 21
127.0349207695
  0
LINE
  5
4D8
100
AcDbEntity
  8
0
100
AcDbLine
 62
7
  6
CONTINUOUS
 10
163.9650792305
 20
125.9650792305
 11
163.9650792305
 21
124.0349207695
  0
LINE
  5
4D9
100
AcDbEntity
  8
0
100
AcDbLine
 62
7
  6
CONTINUOUS
 10
163.9650792305
 20
122.9650792305
 11
163.9650792305
 21
121.0349207695
  0
LINE
  5
4DA
100
AcDbEntity
  8
0
100
AcDbLine
 62
7
  6
CONTINUOUS
 10
163.9650792305
 20
119.9650792305
 11
163.9650792305
 21
118.8159638256
  0
LINE
  5
4DB
100
AcDbEntity
  8
0
100
AcDbLine
 62
7
  6
CONTINUOUS
 10
153.0349207695
 20
122.9650792305
 11
154.9650792305
 21
122.9650792305
  0
LINE
  5
4DC
100
AcDbEntity
  8
0
100
AcDbLine
 62
7
  6
CONTINUOUS
 10
156.0349207695
 20
122.9650792305
 11
157.9650792305
 21
122.9650792305
  0
LINE
  5
4DD
100
AcDbEntity
  8
0
100
AcDbLine
 62
7
  6
CONTINUOUS
 10
159.0349207695
 20
122.9650792305
 11
160.9650792305
 21
122.9650792305
  0
LINE
  5
4DE
100
AcDbEntity
  8
0
100
AcDbLine
 62
7
  6
CONTINUOUS
 10
162.0349207695
 20
122.9650792305
 11
163.9650792305
 21
122.9650792305
  0
LINE
  5
4DF
100
AcDbEntity
  8
0
100
AcDbLine
 62
7
  6
CONTINUOUS
 10
165.0349207695
 20
122.9650792305
 11
166.9650792305
 21
122.9650792305
  0
LINE
  5
4E0
100
AcDbEntity
  8
0
100
AcDbLine
 62
7
  6
CONTINUOUS
 10
166.9650792305
 20
124.0349207695
 11
165.0349207695
 21
124.0349207695
  0
LINE
  5
4E1
100
AcDbEntity
  8
0
100
AcDbLine
 62
7
  6
CONTINUOUS
 10
163.9650792305
 20
124.0349207695
 11
162.0349207695
 21
124.0349207695
  0
LINE
  5
4E2
100
AcDbEntity
  8
0
100
AcDbLine
 62
7
  6
CONTINUOUS
 10
160.9650792305
 20
124.0349207695
 11
159.0349207695
 21
124.0349207695
  0
LINE
  5
4E3
100
AcDbEntity
  8
0
100
AcDbLine
 62
7
  6
CONTINUOUS
 10
157.9650792305
 20
124.0349207695
 11
156.0349207695
 21
124.0349207695
  0
LINE
  5
4E4
100
AcDbEntity
  8
0
100
AcDbLine
 62
7
  6
CONTINUOUS
 10
154.9650792305
 20
124.0349207695
 11
153.0349207695
 21
124.0349207695
  0
LINE
  5
4E5
100
AcDbEntity
  8
0
100
AcDbLine
 62
7
  6
CONTINUOUS
 10
165.0349207695
 20
121.0349207695
 11
165.0349207695
 21
122.9650792305
  0
LINE
  5
4E6
100
AcDbEntity
  8
0
100
AcDbLine
 62
7
  6
CONTINUOUS
 10
165.0349207695
 20
124.0349207695
 11
165.0349207695
 21
125.9650792305
  0
LINE
  5
4E7
100
AcDbEntity
  8
0
100
AcDbLine
 62
7
  6
CONTINUOUS
 10
165.0349207695
 20
127.0349207695
 11
165.0349207695
 21
128.9650792305
  0
LINE
  5
4E8
100
AcDbEntity
  8
0
100
AcDbLine
 62
7
  6
CONTINUOUS
 10
166.9650792305
 20
127.3349149928
 11
166.9650792305
 21
127.0349207695
  0
LINE
  5
4E9
100
AcDbEntity
  8
0
100
AcDbLine
 62
7
  6
CONTINUOUS
 10
166.9650792305
 20
125.9650792305
 11
166.9650792305
 21
124.0349207695
  0
LINE
  5
4EA
100
AcDbEntity
  8
0
100
AcDbLine
 62
7
  6
CONTINUOUS
 10
166.9650792305
 20
122.9650792305
 11
166.9650792305
 21
122.6650850072
  0
LINE
  5
4EB
100
AcDbEntity
  8
0
100
AcDbLine
 62
7
  6
CONTINUOUS
 10
153.0349207695
 20
125.9650792305
 11
154.9650792305
 21
125.9650792305
  0
LINE
  5
4EC
100
AcDbEntity
  8
0
100
AcDbLine
 62
7
  6
CONTINUOUS
 10
156.0349207695
 20
125.9650792305
 11
157.9650792305
 21
125.9650792305
  0
LINE
  5
4ED
100
AcDbEntity
  8
0
100
AcDbLine
 62
7
  6
CONTINUOUS
 10
159.0349207695
 20
125.9650792305
 11
160.9650792305
 21
125.9650792305
  0
LINE
  5
4EE
100
AcDbEntity
  8
0
100
AcDbLine
 62
7
  6
CONTINUOUS
 10
162.0349207695
 20
125.9650792305
 11
163.9650792305
 21
125.9650792305
  0
LINE
  5
4EF
100
AcDbEntity
  8
0
100
AcDbLine
 62
7
  6
CONTINUOUS
 10
165.0349207695
 20
125.9650792305
 11
166.9650792305
 21
125.9650792305
  0
LINE
  5
4F0
100
AcDbEntity
  8
0
100
AcDbLine
 62
7
  6
CONTINUOUS
 10
166.9650792305
 20
127.0349207695
 11
165.0349207695
 21
127.0349207695
  0
LINE
  5
4F1
100
AcDbEntity
  8
0
100
AcDbLine
 62
7
  6
CONTINUOUS
 10
163.9650792305
 20
127.0349207695
 11
162.0349207695
 21
127.0349207695
  0
LINE
  5
4F2
100
AcDbEntity
  8
0
100
AcDbLine
 62
7
  6
CONTINUOUS
 10
160.9650792305
 20
127.0349207695
 11
159.0349207695
 21
127.0349207695
  0
LINE
  5
4F3
100
AcDbEntity
  8
0
100
AcDbLine
 62
7
  6
CONTINUOUS
 10
157.9650792305
 20
127.0349207695
 11
156.0349207695
 21
127.0349207695
  0
LINE
  5
4F4
100
AcDbEntity
  8
0
100
AcDbLine
 62
7
  6
CONTINUOUS
 10
154.9650792305
 20
127.0349207695
 11
153.0349207695
 21
127.0349207695
  0
LINE
  5
4F5
100
AcDbEntity
  8
0
100
AcDbLine
 62
7
  6
CONTINUOUS
 10
153.8159638256
 20
128.9650792305
 11
154.9650792305
 21
128.9650792305
  0
LINE
  5
4F6
100
AcDbEntity
  8
0
100
AcDbLine
 62
7
  6
CONTINUOUS
 10
156.0349207695
 20
128.9650792305
 11
157.9650792305
 21
128.9650792305
  0
LINE
  5
4F7
100
AcDbEntity
  8
0
100
AcDbLine
 62
7
  6
CONTINUOUS
 10
159.0349207695
 20
128.9650792305
 11
160.9650792305
 21
128.9650792305
  0
LINE
  5
4F8
100
AcDbEntity
  8
0
100
AcDbLine
 62
7
  6
CONTINUOUS
 10
162.0349207695
 20
128.9650792305
 11
163.9650792305
 21
128.9650792305
  0
LINE
  5
4F9
100
AcDbEntity
  8
0
100
AcDbLine
 62
7
  6
CONTINUOUS
 10
165.0349207695
 20
128.9650792305
 11
166.1840361744
 21
128.9650792305
  0
LINE
  5
4FA
100
AcDbEntity
  8
0
100
AcDbLine
 62
7
  6
CONTINUOUS
 10
183.8535533906
 20
107.767766953
 11
183.8220797739
 21
107.7992405696
  0
LINE
  5
4FB
100
AcDbEntity
  8
0
100
AcDbLine
 62
7
  6
CONTINUOUS
 10
147.767766953
 20
143.8535533906
 11
147.7992405696
 21
143.8220797739
  0
LINE
  5
4FC
100
AcDbEntity
  8
0
100
AcDbLine
 62
7
  6
CONTINUOUS
 10
163.9650792305
 20
130.0349207695
 11
162.0349207695
 21
130.0349207695
  0
LINE
  5
4FD
100
AcDbEntity
  8
0
100
AcDbLine
 62
7
  6
CONTINUOUS
 10
160.9650792305
 20
130.0349207695
 11
159.0349207695
 21
130.0349207695
  0
LINE
  5
4FE
100
AcDbEntity
  8
0
100
AcDbLine
 62
7
  6
CONTINUOUS
 10
157.9650792305
 20
130.0349207695
 11
156.0349207695
 21
130.0349207695
  0
LINE
  5
4FF
100
AcDbEntity
  8
0
100
AcDbLine
 62
7
  6
CONTINUOUS
 10
136.0
 20
131.8786796564
 11
136.0445104156
 21
131.8786796564
  0
LINE
  5
500
100
AcDbEntity
  8
0
100
AcDbLine
 62
7
  6
CONTINUOUS
 10
157.6650850072
 20
131.9650792305
 11
157.9650792305
 21
131.9650792305
  0
LINE
  5
501
100
AcDbEntity
  8
0
100
AcDbLine
 62
7
  6
CONTINUOUS
 10
159.0349207695
 20
131.9650792305
 11
160.9650792305
 21
131.9650792305
  0
LINE
  5
502
100
AcDbEntity
  8
0
100
AcDbLine
 62
7
  6
CONTINUOUS
 10
162.0349207695
 20
131.9650792305
 11
162.3349149928
 21
131.9650792305
  0
LINE
  5
503
100
AcDbEntity
  8
0
100
AcDbLine
 62
7
  6
CONTINUOUS
 10
171.1564790414
 20
95.1336398372
 11
171.0857864376
 21
95.0
  0
LINE
  5
504
100
AcDbEntity
  8
0
100
AcDbLine
 62
7
  6
CONTINUOUS
 10
183.5
 20
144.0
 11
183.5
 21
143.9554895844
  0
LINE
  5
505
100
AcDbEntity
  8
0
100
AcDbLine
 62
7
  6
CONTINUOUS
 10
183.85
 20
108.2248737342
 11
183.85
 21
143.25
  0
LINE
  5
506
100
AcDbEntity
  8
0
100
AcDbLine
 62
7
  6
CONTINUOUS
 10
184.0
 20
143.5
 11
183.9554895844
 21
143.5
  0
LINE
  5
507
100
AcDbEntity
  8
0
100
AcDbLine
 62
7
  6
CONTINUOUS
 10
183.25
 20
143.85
 11
148.2248737342
 21
143.85
  0
LINE
  5
508
100
AcDbEntity
  8
0
100
AcDbLine
 62
7
  6
CONTINUOUS
 10
183.9554895844
 20
108.1213203436
 11
183.9554895844
 21
143.5
  0
LINE
  5
509
100
AcDbEntity
  8
0
100
AcDbLine
 62
7
  6
CONTINUOUS
 10
184.0
 20
108.1213203436
 11
184.0
 21
143.5
  0
LINE
  5
50A
100
AcDbEntity
  8
0
100
AcDbLine
 62
7
  6
CONTINUOUS
 10
185.0
 20
143.5020556979
 11
185.0
 21
108.1204688456
  0
LINE
  5
50B
100
AcDbEntity
  8
0
100
AcDbLine
 62
7
  6
CONTINUOUS
 10
169.2583135363
 20
95.2
 11
169.1919533735
 21
95.1336398372
  0
LINE
  5
50C
100
AcDbEntity
  8
0
100
AcDbLine
 62
7
  6
CONTINUOUS
 10
171.1522660722
 20
95.2786116689
 11
183.6742640687
 21
107.8006096654
  0
LINE
  5
50D
100
AcDbEntity
  8
0
100
AcDbLine
 62
7
  6
CONTINUOUS
 10
171.1564790414
 20
95.1336398372
 11
183.8220797739
 21
107.7992405696
  0
LINE
  5
50E
100
AcDbEntity
  8
0
100
AcDbLine
 62
7
  6
CONTINUOUS
 10
171.0857864376
 20
95.0
 11
183.8535533906
 21
107.767766953
  0
LINE
  5
50F
100
AcDbEntity
  8
0
100
AcDbLine
 62
7
  6
CONTINUOUS
 10
183.5
 20
143.9554895844
 11
148.1213203436
 21
143.9554895844
  0
LINE
  5
510
100
AcDbEntity
  8
0
100
AcDbLine
 62
7
  6
CONTINUOUS
 10
183.5
 20
144.0
 11
148.1213203436
 21
144.0
  0
LINE
  5
511
100
AcDbEntity
  8
0
100
AcDbLine
 62
7
  6
CONTINUOUS
 10
183.5020556979
 20
145.0
 11
148.1204688456
 21
145.0
  0
LINE
  5
512
100
AcDbEntity
  8
0
100
AcDbLine
 62
7
  6
CONTINUOUS
 10
172.9387377283
 20
95.4387377283
 11
184.5612622717
 21
107.0612622717
  0
LINE
  5
513
100
AcDbEntity
  8
0
100
AcDbLine
 62
7
  6
CONTINUOUS
 10
170.9624807149
 20
95.2
 11
171.1522660722
 21
95.2786116689
  0
LINE
  5
514
100
AcDbEntity
  8
0
100
AcDbLine
 62
7
  6
CONTINUOUS
 10
50.9736581336
 20
235.5635039344
 11
50.0
 21
216.985
  0
LINE
  5
515
100
AcDbEntity
  8
0
100
AcDbLine
 62
7
  6
CONTINUOUS
 10
51.4123958619
 20
235.5635039344
 11
50.4387377283
 21
216.985
  0
LINE
  5
516
100
AcDbEntity
  8
0
100
AcDbLine
 62
7
  6
CONTINUOUS
 10
62.0
 20
206.315
 11
60.5
 21
207.1810254038
  0
LINE
  5
517
100
AcDbEntity
  8
0
100
AcDbLine
 62
7
  6
CONTINUOUS
 10
65.0085380205
 20
204.0360040244
 11
65.821290384
 21
203.566324824
  0
LWPOLYLINE
  5
518
100
AcDbEntity
  8
0
100
AcDbPolyline
 62
7
  6
CONTINUOUS
 90
4
 70
0
 10
65.8212754237
 20
203.5663334736
 10
65.8411527996
 20
203.5527757815
 10
65.8917381422
 20
203.493422733
 10
65.9197465479
 20
203.3801628544
  0
LINE
  5
519
100
AcDbEntity
  8
0
100
AcDbLine
 62
7
  6
CONTINUOUS
 10
66.000000001
 20
203.014999999
 11
65.8120389813
 21
203.2029610187
  0
LINE
  5
51A
100
AcDbEntity
  8
0
100
AcDbLine
 62
7
  6
CONTINUOUS
 10
65.0000000012
 20
204.0458662805
 11
65.0085380205
 21
204.0360040244
  0
LINE
  5
51B
100
AcDbEntity
  8
0
100
AcDbLine
 62
7
  6
CONTINUOUS
 10
72.1862355416
 20
203.5036344039
 11
75.0000000007
 21
203.5779174791
  0
LINE
  5
51C
100
AcDbEntity
  8
0
100
AcDbLine
 62
7
  6
CONTINUOUS
 10
72.5447476518
 20
203.887481763
 11
75.0000000007
 21
203.9520603911
  0
LWPOLYLINE
  5
51D
100
AcDbEntity
  8
0
100
AcDbPolyline
 62
7
  6
CONTINUOUS
 90
7
 70
0
 10
71.8803833019
 20
203.3893555775
 10
70.4015756112
 20
203.3628625569
 10
69.0592430645
 20
203.3361113417
 10
67.9151948676
 20
203.3095121819
 10
67.0035108606
 20
203.283181961
 10
66.329432207
 20
203.2564369261
 10
65.9273943658
 20
203.2295619868
  0
LINE
  5
51E
100
AcDbEntity
  8
0
100
AcDbLine
 62
7
  6
CONTINUOUS
 10
75.0000000007
 20
203.4406942202
 11
71.8803833019
 21
203.3893555775
  0
LINE
  5
51F
100
AcDbEntity
  8
0
100
AcDbLine
 62
7
  6
CONTINUOUS
 10
66.0000000001
 20
203.015
 11
84.0
 21
203.015
  0
LWPOLYLINE
  5
520
100
AcDbEntity
  8
0
100
AcDbPolyline
 62
7
  6
CONTINUOUS
 90
5
 70
0
 10
60.5303616061
 20
207.1810254038
 10
61.3511025227
 20
206.8065136022
 10
62.1525796068
 20
206.5360419117
 10
62.9475458711
 20
206.3708072896
 10
63.7416696903
 20
206.3149999966
  0
LINE
  5
521
100
AcDbEntity
  8
0
100
AcDbLine
 62
7
  6
CONTINUOUS
 10
65.0085380205
 20
205.5360040244
 11
65.821290384
 21
205.066324824
  0
LWPOLYLINE
  5
522
100
AcDbEntity
  8
0
100
AcDbPolyline
 62
7
  6
CONTINUOUS
 90
7
 70
0
 10
65.8212900142
 20
205.0663250378
 10
65.8391052526
 20
205.0543687795
 10
65.8864813128
 20
205.0021196564
 10
65.9197806568
 20
204.8991493718
 10
65.8914559803
 20
204.7860863783
 10
65.8410713634
 20
204.7271599585
 10
65.8212733652
 20
204.7136653357
  0
LINE
  5
523
100
AcDbEntity
  8
0
100
AcDbLine
 62
7
  6
CONTINUOUS
 10
65.0085380205
 20
205.5360040244
 11
65.0
 21
205.5458699058
  0
LINE
  5
524
100
AcDbEntity
  8
0
100
AcDbLine
 62
7
  6
CONTINUOUS
 10
60.5
 20
207.1810254038
 11
60.5
 21
212.315
  0
LINE
  5
525
100
AcDbEntity
  8
0
100
AcDbLine
 62
7
  6
CONTINUOUS
 10
60.5303616061
 20
207.1810254038
 11
60.5303616061
 21
210.815
  0
LINE
  5
526
100
AcDbEntity
  8
0
100
AcDbLine
 62
7
  6
CONTINUOUS
 10
65.821246147
 20
203.2136495794
 11
65.9607021261
 21
203.245947772
  0
LINE
  5
527
100
AcDbEntity
  8
0
100
AcDbLine
 62
7
  6
CONTINUOUS
 10
65.9273943658
 20
203.2295619868
 11
65.8120389813
 21
203.2029610187
  0
LWPOLYLINE
  5
528
100
AcDbEntity
  8
0
100
AcDbPolyline
 62
7
  6
CONTINUOUS
 90
7
 70
0
 10
65.9607021261
 20
203.245947772
 10
66.4011611565
 20
203.288895544
 10
67.1191609049
 20
203.331843316
 10
68.0915268277
 20
203.374791088
 10
69.2868743228
 20
203.41773886
 10
70.6666217155
 20
203.4606866319
 10
72.1862355416
 20
203.5036344039
  0
LWPOLYLINE
  5
529
100
AcDbEntity
  8
0
100
AcDbPolyline
 62
7
  6
CONTINUOUS
 90
8
 70
0
 10
71.5718650039
 20
206.0255951747
 10
69.9977670649
 20
205.9840685355
 10
68.5737038055
 20
205.9425126598
 10
67.3523973804
 20
205.9012731418
 10
66.3566272593
 20
205.8599337752
 10
65.6099942469
 20
205.8179451451
 10
65.1518872999
 20
205.7757919254
 10
65.0085380204
 20
205.7439959755
  0
LWPOLYLINE
  5
52A
100
AcDbEntity
  8
0
100
AcDbPolyline
 62
7
  6
CONTINUOUS
 90
9
 70
0
 10
71.8261588188
 20
204.3437665684
 10
70.2485260029
 20
204.3026659573
 10
68.8113460435
 20
204.261564377
 10
67.5571751377
 20
204.2204636271
 10
66.5230908604
 20
204.1793640656
 10
65.739603699
 20
204.1382630387
 10
65.2299167848
 20
204.0971616365
 10
65.0091107922
 20
204.05606139
 10
65.0000000012
 20
204.0458662805
  0
LINE
  5
52B
100
AcDbEntity
  8
0
100
AcDbLine
 62
7
  6
CONTINUOUS
 10
72.3026951991
 20
205.0068064236
 11
75.0000000007
 21
205.0779221682
  0
LINE
  5
52C
100
AcDbEntity
  8
0
100
AcDbLine
 62
7
  6
CONTINUOUS
 10
72.444914429
 20
205.3847856196
 11
75.0000000007
 21
205.4520533468
  0
LINE
  5
52D
100
AcDbEntity
  8
0
100
AcDbLine
 62
7
  6
CONTINUOUS
 10
75.0000000007
 20
204.4208532882
 11
71.8261588188
 21
204.3437665684
  0
LWPOLYLINE
  5
52E
100
AcDbEntity
  8
0
100
AcDbPolyline
 62
7
  6
CONTINUOUS
 90
3
 70
0
 10
71.3762926147
 20
204.520605666
 10
74.8221712073
 20
204.6048845207
 10
75.0000000007
 20
204.6091459653
  0
LINE
  5
52F
100
AcDbEntity
  8
0
100
AcDbLine
 62
7
  6
CONTINUOUS
 10
71.5676753924
 20
205.8372285063
 11
75.0000000007
 21
205.9208688447
  0
LINE
  5
530
100
AcDbEntity
  8
0
100
AcDbLine
 62
7
  6
CONTINUOUS
 10
75.0000000007
 20
206.1091330088
 11
71.5718650039
 21
206.0255951747
  0
LWPOLYLINE
  5
531
100
AcDbEntity
  8
0
100
AcDbPolyline
 62
7
  6
CONTINUOUS
 90
5
 70
0
 10
68.5773837107
 20
207.1810254038
 10
70.2119128731
 20
206.8079000664
 10
71.8136574177
 20
206.5371623996
 10
73.4065951303
 20
206.3711689471
 10
75.0000000007
 20
206.3149999927
  0
LINE
  5
532
100
AcDbEntity
  8
0
100
AcDbLine
 62
7
  6
CONTINUOUS
 10
62.0612622717
 20
216.985
 11
62.4645646758
 21
235.5635039344
  0
LWPOLYLINE
  5
533
100
AcDbEntity
  8
0
100
AcDbPolyline
 62
7
  6
CONTINUOUS
 90
6
 70
0
 10
66.1286942614
 20
234.3059343825
 10
66.1542453051
 20
234.4180308051
 10
66.2267758931
 20
234.5221967191
 10
66.3424205652
 20
234.6071077555
 10
66.493526279
 20
234.6638955719
 10
66.6737384469
 20
234.685
  0
LWPOLYLINE
  5
534
100
AcDbEntity
  8
0
100
AcDbPolyline
 62
7
  6
CONTINUOUS
 90
8
 70
0
 10
65.0085380204
 20
204.2439959755
 10
65.099135368
 20
204.2677735142
 10
65.4996042589
 20
204.3099117998
 10
66.1952919526
 20
204.3520500585
 10
67.1645771664
 20
204.3941881876
 10
68.3773824368
 20
204.4363276102
 10
69.7960046187
 20
204.4784673628
 10
71.3762926147
 20
204.520605666
  0
LWPOLYLINE
  5
535
100
AcDbEntity
  8
0
100
AcDbPolyline
 62
7
  6
CONTINUOUS
 90
8
 70
0
 10
65.8212903842
 20
204.713675176
 10
65.9833741868
 20
204.7491197917
 10
66.4449310369
 20
204.7920675637
 10
67.182615865
 20
204.8350153357
 10
68.1726187612
 20
204.8779631077
 10
69.3829858632
 20
204.9209108797
 10
70.7746507153
 20
204.9638586516
 10
72.3026951991
 20
205.0068064236
  0
LWPOLYLINE
  5
536
100
AcDbEntity
  8
0
100
AcDbPolyline
 62
7
  6
CONTINUOUS
 90
6
 70
0
 10
63.7416696903
 20
206.3149999966
 10
64.3769912702
 20
206.3507667592
 10
65.0124018519
 20
206.4570831789
 10
65.6500473259
 20
206.6317995113
 10
66.2948341075
 20
206.8732461204
 10
66.9529778955
 20
207.1810254038
  0
LINE
  5
537
100
AcDbEntity
  8
0
100
AcDbLine
 62
7
  6
CONTINUOUS
 10
88.0
 20
206.315
 11
85.0
 21
206.315
  0
LINE
  5
538
100
AcDbEntity
  8
0
100
AcDbLine
 62
7
  6
CONTINUOUS
 10
62.0
 20
206.315
 11
75.0
 21
206.315
  0
LINE
  5
539
100
AcDbEntity
  8
0
100
AcDbLine
 62
7
  6
CONTINUOUS
 10
60.5
 20
207.1810254038
 11
60.5303616061
 21
207.1810254038
  0
LINE
  5
53A
100
AcDbEntity
  8
0
100
AcDbLine
 62
7
  6
CONTINUOUS
 10
66.9529778955
 20
207.1810254038
 11
68.5773837107
 21
207.1810254038
  0
LINE
  5
53B
100
AcDbEntity
  8
0
100
AcDbLine
 62
7
  6
CONTINUOUS
 10
65.0085380205
 20
213.0360040244
 11
65.0
 21
213.0458699058
  0
LWPOLYLINE
  5
53C
100
AcDbEntity
  8
0
100
AcDbPolyline
 62
7
  6
CONTINUOUS
 90
9
 70
0
 10
65.8212900142
 20
205.0663250378
 10
65.8175034916
 20
205.0853248483
 10
66.0212153301
 20
205.1281049584
 10
66.5124789792
 20
205.1708850686
 10
67.2755613796
 20
205.2136651788
 10
68.2860242877
 20
205.256445289
 10
69.5115069277
 20
205.2992253992
 10
70.9127623674
 20
205.3420055094
 10
72.444914429
 20
205.3847856196
  0
LINE
  5
53D
100
AcDbEntity
  8
0
100
AcDbLine
 62
7
  6
CONTINUOUS
 10
64.0366854455
 20
215.015
 11
64.073370891
 21
214.315
  0
LINE
  5
53E
100
AcDbEntity
  8
0
100
AcDbLine
 62
7
  6
CONTINUOUS
 10
63.8435209586
 20
219.535
 11
63.9142135624
 21
216.985
  0
LINE
  5
53F
100
AcDbEntity
  8
0
100
AcDbLine
 62
7
  6
CONTINUOUS
 10
63.5237712497
 20
236.985
 11
63.5237712497
 21
235.5635039344
  0
LINE
  5
540
100
AcDbEntity
  8
0
100
AcDbLine
 62
7
  6
CONTINUOUS
 10
65.0
 20
213.2341300942
 11
65.0
 21
213.0458699058
  0
LINE
  5
541
100
AcDbEntity
  8
0
100
AcDbLine
 62
7
  6
CONTINUOUS
 10
65.0
 20
205.7341300942
 11
65.0
 21
205.5458699058
  0
LINE
  5
542
100
AcDbEntity
  8
0
100
AcDbLine
 62
7
  6
CONTINUOUS
 10
65.0
 20
204.2341300942
 11
65.0
 21
204.0458699058
  0
LINE
  5
543
100
AcDbEntity
  8
0
100
AcDbLine
 62
7
  6
CONTINUOUS
 10
63.1204688456
 20
216.985
 11
63.5237712497
 21
235.5635039344
  0
LINE
  5
544
100
AcDbEntity
  8
0
100
AcDbLine
 62
7
  6
CONTINUOUS
 10
64.0375192851
 20
219.515
 11
63.8788429866
 21
218.2608755981
  0
LWPOLYLINE
  5
545
100
AcDbEntity
  8
0
100
AcDbPolyline
 62
7
  6
CONTINUOUS
 90
8
 70
0
 10
65.0
 20
205.5458699058
 10
65.1506424353
 20
205.5873602232
 10
65.59769642
 20
205.6288270805
 10
66.3279399453
 20
205.6703050521
 10
67.3185663428
 20
205.7117555049
 10
68.5552194219
 20
205.7536759337
 10
69.993814259
 20
205.7956993517
 10
71.5676753924
 20
205.8372285063
  0
LWPOLYLINE
  5
546
100
AcDbEntity
  8
0
100
AcDbPolyline
 62
7
  6
CONTINUOUS
 90
4
 70
0
 10
65.8212903842
 20
206.2136751761
 10
66.0202565104
 20
206.2538644387
 10
66.5170881077
 20
206.2970743152
 10
66.8381722453
 20
206.315
  0
LINE
  5
547
100
AcDbEntity
  8
0
100
AcDbLine
 62
7
  6
CONTINUOUS
 10
65.0085380205
 20
213.0360040244
 11
65.821290384
 21
212.566324824
  0
LWPOLYLINE
  5
548
100
AcDbEntity
  8
0
100
AcDbPolyline
 62
7
  6
CONTINUOUS
 90
5
 70
0
 10
65.8212212794
 20
212.5663648365
 10
65.8359270089
 20
212.5567492681
 10
65.8829458473
 20
212.507494129
 10
65.9195507032
 20
212.4031100933
 10
65.8995250659
 20
212.315
  0
LWPOLYLINE
  5
549
100
AcDbEntity
  8
0
100
AcDbPolyline
 62
7
  6
CONTINUOUS
 90
7
 70
0
 10
65.821257819
 20
214.066343661
 10
65.8397793819
 20
214.0538495022
 10
65.8898106624
 20
213.9967189823
 10
65.9199080776
 20
213.8840831744
 10
65.8856077762
 20
213.776519741
 10
65.8391449597
 20
213.725661666
 10
65.821255297
 20
213.7136548788
  0
LINE
  5
54A
100
AcDbEntity
  8
0
100
AcDbLine
 62
7
  6
CONTINUOUS
 10
66.9529778955
 20
207.1810254038
 11
66.9529778955
 21
210.815
  0
LWPOLYLINE
  5
54B
100
AcDbEntity
  8
0
100
AcDbPolyline
 62
7
  6
CONTINUOUS
 90
9
 70
0
 10
65.8212754237
 20
203.5663334736
 10
65.8216799647
 20
203.5880209917
 10
66.043804924
 20
203.6308011019
 10
66.5527582464
 20
203.6735812121
 10
67.3322403485
 20
203.7163613223
 10
68.3572877751
 20
203.7591414324
 10
69.595072671
 20
203.8019215426
 10
71.0059541157
 20
203.8447016528
 10
72.5447476518
 20
203.887481763
  0
LINE
  5
54C
100
AcDbEntity
  8
0
100
AcDbLine
 62
7
  6
CONTINUOUS
 10
66.1286942614
 20
234.3059343825
 11
65.8080466265
 21
219.535
  0
LWPOLYLINE
  5
54D
100
AcDbEntity
  8
0
100
AcDbPolyline
 62
7
  6
CONTINUOUS
 90
9
 70
0
 10
65.8212212795
 20
212.5663648365
 10
65.8232794329
 20
212.5888920108
 10
66.0546096216
 20
212.6320447105
 10
66.5774204074
 20
212.6751974103
 10
67.3746762902
 20
212.71835011
 10
68.4203991279
 20
212.7615028097
 10
69.6805146203
 20
212.8046555095
 10
71.1139626013
 20
212.8478082092
 10
72.6740349612
 20
212.8909609089
  0
LINE
  5
54E
100
AcDbEntity
  8
0
100
AcDbLine
 62
7
  6
CONTINUOUS
 10
74.9826368749
 20
234.685
 11
74.9562801266
 21
234.6550838874
  0
LWPOLYLINE
  5
54F
100
AcDbEntity
  8
0
100
AcDbPolyline
 62
7
  6
CONTINUOUS
 90
5
 70
0
 10
72.8251998596
 20
227.515
 10
72.753963072
 20
227.4931551721
 10
72.6931006351
 20
227.4308019792
 10
72.6514760987
 20
227.3370210276
 10
72.6351513601
 20
227.2254698489
  0
LINE
  5
550
100
AcDbEntity
  8
0
100
AcDbLine
 62
7
  6
CONTINUOUS
 10
60.5303616061
 20
210.815
 11
66.9529778955
 21
210.815
  0
LINE
  5
551
100
AcDbEntity
  8
0
100
AcDbLine
 62
7
  6
CONTINUOUS
 10
68.5773837107
 20
210.815
 11
75.0
 21
210.815
  0
LINE
  5
552
100
AcDbEntity
  8
0
100
AcDbLine
 62
7
  6
CONTINUOUS
 10
84.6634419658
 20
203.6784419658
 11
84.188
 21
203.9529385128
  0
LINE
  5
553
100
AcDbEntity
  8
0
100
AcDbLine
 62
7
  6
CONTINUOUS
 10
85.0
 20
204.9841300942
 11
84.188
 21
205.4529385128
  0
LINE
  5
554
100
AcDbEntity
  8
0
100
AcDbLine
 62
7
  6
CONTINUOUS
 10
65.3909884247
 20
214.315
 11
65.821290384
 21
214.066324824
  0
LINE
  5
555
100
AcDbEntity
  8
0
100
AcDbLine
 62
7
  6
CONTINUOUS
 10
68.5773837107
 20
207.1810254038
 11
68.5773837107
 21
210.815
  0
LWPOLYLINE
  5
556
100
AcDbEntity
  8
0
100
AcDbPolyline
 62
7
  6
CONTINUOUS
 90
6
 70
0
 10
66.8388095293
 20
212.315
 10
67.2371592157
 20
212.3376882932
 10
68.2428603849
 20
212.3806733303
 10
69.4670362231
 20
212.4236583674
 10
70.8701061642
 20
212.4666434045
 10
72.4067055631
 20
212.5096284416
  0
LWPOLYLINE
  5
557
100
AcDbEntity
  8
0
100
AcDbPolyline
 62
7
  6
CONTINUOUS
 90
7
 70
0
 10
71.7564038345
 20
213.3420083138
 10
70.1396796298
 20
213.2997027774
 10
68.6751366323
 20
213.2573957429
 10
67.4087202219
 20
213.2150891452
 10
66.3801179116
 20
213.1727842509
 10
65.6214926147
 20
213.1304795186
 10
65.1565988884
 20
213.0881746536
  0
LINE
  5
558
100
AcDbEntity
  8
0
100
AcDbLine
 62
7
  6
CONTINUOUS
 10
72.4067055631
 20
212.5096284416
 11
75.0000000007
 21
212.5779284814
  0
LINE
  5
559
100
AcDbEntity
  8
0
100
AcDbLine
 62
7
  6
CONTINUOUS
 10
72.6740349612
 20
212.8909609089
 11
75.0000000007
 21
212.9520710935
  0
LINE
  5
55A
100
AcDbEntity
  8
0
100
AcDbLine
 62
7
  6
CONTINUOUS
 10
72.5724247179
 20
214.0141047403
 11
75.0000000007
 21
214.0779402515
  0
LINE
  5
55B
100
AcDbEntity
  8
0
100
AcDbLine
 62
7
  6
CONTINUOUS
 10
75.0000000007
 20
213.420850924
 11
71.7564038345
 21
213.3420083138
  0
LINE
  5
55C
100
AcDbEntity
  8
0
100
AcDbLine
 62
7
  6
CONTINUOUS
 10
71.5537487992
 20
213.5251346217
 11
75.0000000007
 21
213.6091341505
  0
LINE
  5
55D
100
AcDbEntity
  8
0
100
AcDbLine
 62
7
  6
CONTINUOUS
 10
89.5
 20
212.315
 11
85.0
 21
212.315
  0
LINE
  5
55E
100
AcDbEntity
  8
0
100
AcDbLine
 62
7
  6
CONTINUOUS
 10
60.5
 20
212.315
 11
75.0
 21
212.315
  0
LINE
  5
55F
100
AcDbEntity
  8
0
100
AcDbLine
 62
7
  6
CONTINUOUS
 10
85.0
 20
206.4841300942
 11
84.188
 21
206.9529385128
  0
LWPOLYLINE
  5
560
100
AcDbEntity
  8
0
100
AcDbPolyline
 62
7
  6
CONTINUOUS
 90
4
 70
0
 10
84.188
 20
203.9529385128
 10
84.1309467695
 20
204.0016346504
 10
84.0937685747
 20
204.065942149
 10
84.0800014776
 20
204.1399784268
  0
LWPOLYLINE
  5
561
100
AcDbEntity
  8
0
100
AcDbPolyline
 62
7
  6
CONTINUOUS
 90
4
 70
0
 10
74.9562801266
 20
234.6550838874
 10
74.9338658356
 20
234.5698104184
 10
74.9187467442
 20
234.4419348466
 10
74.9131843744
 20
234.2905848721
  0
LINE
  5
562
100
AcDbEntity
  8
0
100
AcDbLine
 62
7
  6
CONTINUOUS
 10
65.1565988884
 20
213.0881746536
 11
65.0
 21
213.0458699058
  0
LWPOLYLINE
  5
563
100
AcDbEntity
  8
0
100
AcDbPolyline
 62
7
  6
CONTINUOUS
 90
8
 70
0
 10
65.0085380204
 20
213.2439959755
 10
65.151233788
 20
213.2757019738
 10
65.6003894745
 20
213.3172758578
 10
66.3338706054
 20
213.3588492804
 10
67.3294346944
 20
213.4004205164
 10
68.5569929077
 20
213.4419914889
 10
69.9794400045
 20
213.4835629387
 10
71.5537487992
 20
213.5251346217
  0
LWPOLYLINE
  5
564
100
AcDbEntity
  8
0
100
AcDbPolyline
 62
7
  6
CONTINUOUS
 90
8
 70
0
 10
65.8212903842
 20
213.713675176
 10
66.0396688499
 20
213.7561945176
 10
66.5485448247
 20
213.7991795547
 10
67.3306767891
 20
213.8421645918
 10
68.3607765245
 20
213.885149629
 10
69.605538415
 20
213.9281346661
 10
71.0247162974
 20
213.9711197032
 10
72.5724247179
 20
214.0141047403
  0
LINE
  5
565
100
AcDbEntity
  8
0
100
AcDbLine
 62
7
  6
CONTINUOUS
 10
75.0000000007
 20
214.315
 11
64.0735876347
 21
214.315
  0
LINE
  5
566
100
AcDbEntity
  8
0
100
AcDbLine
 62
7
  6
CONTINUOUS
 10
84.4269165125
 20
214.315
 11
85.926629109
 21
214.315
  0
LINE
  5
567
100
AcDbEntity
  8
NOGEOM
100
AcDbLine
 62
7
  6
CONTINUOUS
 10
75.0000000007
 20
215.015
 11
60.9
 21
215.015
  0
LINE
  5
568
100
AcDbEntity
  8
0
100
AcDbLine
 62
7
  6
CONTINUOUS
 10
85.9633145545
 20
215.015
 11
89.1
 21
215.015
  0
LINE
  5
569
100
AcDbEntity
  8
0
100
AcDbLine
 62
7
  6
CONTINUOUS
 10
86.0
 20
215.715
 11
87.6205378924
 21
215.715
  0
LINE
  5
56A
100
AcDbEntity
  8
0
100
AcDbLine
 62
7
  6
CONTINUOUS
 10
75.0000000007
 20
216.015
 11
82.3460299966
 21
216.015
  0
LINE
  5
56B
100
AcDbEntity
  8
0
100
AcDbLine
 62
7
  6
CONTINUOUS
 10
85.0
 20
207.9841300942
 11
84.188
 21
208.4529385128
  0
LINE
  5
56C
100
AcDbEntity
  8
0
100
AcDbLine
 62
7
  6
CONTINUOUS
 10
85.0
 20
209.4841300942
 11
84.188
 21
209.9529385128
  0
LWPOLYLINE
  5
56D
100
AcDbEntity
  8
0
100
AcDbPolyline
 62
7
  6
CONTINUOUS
 90
4
 70
0
 10
84.188
 20
205.4529385128
 10
84.1309467695
 20
205.5016346504
 10
84.0937685747
 20
205.565942149
 10
84.0800015952
 20
205.6400388531
  0
LWPOLYLINE
  5
56E
100
AcDbEntity
  8
0
100
AcDbPolyline
 62
7
  6
CONTINUOUS
 90
4
 70
0
 10
84.188
 20
206.9529385128
 10
84.1309467695
 20
207.0016346504
 10
84.0937685747
 20
207.065942149
 10
84.0800017007
 20
207.1400859081
  0
LINE
  5
56F
100
AcDbEntity
  8
0
100
AcDbLine
 62
7
  6
CONTINUOUS
 10
72.0
 20
224.965
 11
72.0
 21
225.465
  0
LINE
  5
570
100
AcDbEntity
  8
0
100
AcDbLine
 62
7
  6
CONTINUOUS
 10
71.9692169925
 20
225.465
 11
71.9685483997
 21
224.1063746203
  0
LINE
  5
571
100
AcDbEntity
  8
0
100
AcDbLine
 62
7
  6
CONTINUOUS
 10
72.0
 20
219.515
 11
72.2692555403
 21
227.225469849
  0
LINE
  5
572
100
AcDbEntity
  8
0
100
AcDbLine
 62
7
  6
CONTINUOUS
 10
71.9685483997
 20
224.1063746203
 11
72.0
 21
224.965
  0
LWPOLYLINE
  5
573
100
AcDbEntity
  8
0
100
AcDbPolyline
 62
7
  6
CONTINUOUS
 90
3
 70
0
 10
72.3330626447
 20
219.5149999999
 10
72.5262708133
 20
224.4647592047
 10
72.6351513514
 20
227.2254698489
  0
LWPOLYLINE
  5
574
100
AcDbEntity
  8
0
100
AcDbPolyline
 62
7
  6
CONTINUOUS
 90
4
 70
0
 10
65.9197465479
 20
203.3801628544
 10
65.884166625
 20
203.2743226224
 10
65.8383301634
 20
203.2250404267
 10
65.821246147
 20
203.2136495794
  0
LWPOLYLINE
  5
575
100
AcDbEntity
  8
0
100
AcDbPolyline
 62
7
  6
CONTINUOUS
 90
4
 70
0
 10
65.8979755182
 20
206.315
 10
65.8808330234
 20
206.2694525898
 10
65.8364899645
 20
206.2236643164
 10
65.8212267366
 20
206.2136383287
  0
LINE
  5
576
100
AcDbEntity
  8
0
100
AcDbLine
 62
7
  6
CONTINUOUS
 10
65.0
 20
213.2341300942
 11
65.0085380204
 21
213.2439959755
  0
LWPOLYLINE
  5
577
100
AcDbEntity
  8
0
100
AcDbPolyline
 62
7
  6
CONTINUOUS
 90
7
 70
0
 10
65.821257819
 20
214.066343661
 10
65.8516080757
 20
214.0992365014
 10
66.1538624496
 20
214.1423892011
 10
66.7443633222
 20
214.1855419008
 10
67.6038695491
 20
214.2286946005
 10
68.7043745954
 20
214.2718473003
 10
70.0100191129
 20
214.315
  0
LINE
  5
578
100
AcDbEntity
  8
0
100
AcDbLine
 62
7
  6
CONTINUOUS
 10
86.046508987
 20
216.815
 11
84.175
 21
216.815
  0
LINE
  5
579
100
AcDbEntity
  8
0
100
AcDbLine
 62
7
  6
CONTINUOUS
 10
85.95
 20
216.885
 11
84.175
 21
216.885
  0
LINE
  5
57A
100
AcDbEntity
  8
0
100
AcDbLine
 62
7
  6
CONTINUOUS
 10
63.9142135624
 20
216.985
 11
50.0
 21
216.985
  0
LINE
  5
57B
100
AcDbEntity
  8
0
100
AcDbLine
 62
7
  6
CONTINUOUS
 10
90.5177831506
 20
216.985
 11
100.0
 21
216.985
  0
LINE
  5
57C
100
AcDbEntity
  8
0
100
AcDbLine
 62
7
  6
CONTINUOUS
 10
84.1645184441
 20
217.015
 11
75.0000000007
 21
217.015
  0
LINE
  5
57D
100
AcDbEntity
  8
0
100
AcDbLine
 62
7
  6
CONTINUOUS
 10
75.0000000007
 20
218.015
 11
63.885659295
 21
218.015
  0
LINE
  5
57E
100
AcDbEntity
  8
0
100
AcDbLine
 62
7
  6
CONTINUOUS
 10
87.5
 20
218.015
 11
98.85
 21
218.015
  0
LINE
  5
57F
100
AcDbEntity
  8
0
100
AcDbLine
 62
7
  6
CONTINUOUS
 10
85.0
 20
210.9841300942
 11
84.188
 21
211.4529385128
  0
LWPOLYLINE
  5
580
100
AcDbEntity
  8
0
100
AcDbPolyline
 62
7
  6
CONTINUOUS
 90
4
 70
0
 10
84.188
 20
208.4529385128
 10
84.1309467695
 20
208.5016346504
 10
84.0937685747
 20
208.565942149
 10
84.0800015856
 20
208.6400342831
  0
LINE
  5
581
100
AcDbEntity
  8
0
100
AcDbLine
 62
7
  6
CONTINUOUS
 10
74.9131835904
 20
234.2905848721
 11
74.9131841923
 21
227.515
  0
LINE
  5
582
100
AcDbEntity
  8
0
100
AcDbLine
 62
7
  6
CONTINUOUS
 10
75.0000000007
 20
203.015
 11
75.0000000007
 21
236.985
  0
LWPOLYLINE
  5
583
100
AcDbEntity
  8
0
100
AcDbPolyline
 62
7
  6
CONTINUOUS
 90
10
 70
0
 10
75.5489930488
 20
228.685
 10
75.5761562287
 20
228.8393905832
 10
75.6553327877
 20
228.9764046764
 10
75.7750408155
 20
229.0768084497
 10
75.9247675919
 20
229.1311713949
 10
76.0807065227
 20
229.1310550562
 10
76.2303567593
 20
229.0764673085
 10
76.3498297577
 20
228.9759887983
 10
76.4288683481
 20
228.8388155061
 10
76.4558244318
 20
228.685
  0
LINE
  5
584
100
AcDbEntity
  8
0
100
AcDbLine
 62
7
  6
CONTINUOUS
 10
63.8435209586
 20
219.515
 11
75.0000000007
 21
219.515
  0
LINE
  5
585
100
AcDbEntity
  8
0
100
AcDbLine
 62
7
  6
CONTINUOUS
 10
85.9729516623
 20
219.515
 11
98.7713883311
 21
219.515
  0
LINE
  5
586
100
AcDbEntity
  8
0
100
AcDbLine
 62
7
  6
CONTINUOUS
 10
98.9554895844
 20
219.535
 11
85.9731261996
 21
219.535
  0
LINE
  5
587
100
AcDbEntity
  8
0
100
AcDbLine
 62
7
  6
CONTINUOUS
 10
65.8080466265
 20
219.535
 11
63.8435209586
 21
219.535
  0
LINE
  5
588
100
AcDbEntity
  8
0
100
AcDbLine
 62
7
  6
CONTINUOUS
 10
76.4558244318
 20
220.185
 11
76.4009995406
 21
220.185
  0
LINE
  5
589
100
AcDbEntity
  8
0
100
AcDbLine
 62
7
  6
CONTINUOUS
 10
75.5489930488
 20
220.185
 11
75.6028364079
 21
220.185
  0
LINE
  5
58A
100
AcDbEntity
  8
0
100
AcDbLine
 62
7
  6
CONTINUOUS
 10
82.7963065998
 20
220.185
 11
83.3293299484
 21
220.185
  0
LINE
  5
58B
100
AcDbEntity
  8
0
100
AcDbLine
 62
7
  6
CONTINUOUS
 10
83.8783229972
 20
220.185
 11
84.2521310316
 21
220.185
  0
LINE
  5
58C
100
AcDbEntity
  8
0
100
AcDbLine
 62
7
  6
CONTINUOUS
 10
85.0
 20
212.4841300942
 11
84.188
 21
212.9529385128
  0
LINE
  5
58D
100
AcDbEntity
  8
0
100
AcDbLine
 62
7
  6
CONTINUOUS
 10
85.0
 20
213.9841300942
 11
84.4269165125
 21
214.315
  0
LWPOLYLINE
  5
58E
100
AcDbEntity
  8
0
100
AcDbPolyline
 62
7
  6
CONTINUOUS
 90
4
 70
0
 10
84.188
 20
209.9529385128
 10
84.1309467695
 20
210.0016346504
 10
84.0937685747
 20
210.065942149
 10
84.0800017007
 20
210.1400859081
  0
LWPOLYLINE
  5
58F
100
AcDbEntity
  8
0
100
AcDbPolyline
 62
7
  6
CONTINUOUS
 90
4
 70
0
 10
84.188
 20
211.4529385128
 10
84.1309467695
 20
211.5016346504
 10
84.0937685747
 20
211.565942149
 10
84.0800016226
 20
211.6400516477
  0
LINE
  5
590
100
AcDbEntity
  8
0
100
AcDbLine
 62
7
  6
CONTINUOUS
 10
77.0349207695
 20
216.015
 11
77.0
 21
217.015
  0
LINE
  5
591
100
AcDbEntity
  8
0
100
AcDbLine
 62
7
  6
CONTINUOUS
 10
76.3970538036
 20
228.685
 11
76.4009995406
 21
220.185
  0
LINE
  5
592
100
AcDbEntity
  8
0
100
AcDbLine
 62
7
  6
CONTINUOUS
 10
75.5489930488
 20
220.185
 11
75.5489930488
 21
228.685
  0
LINE
  5
593
100
AcDbEntity
  8
0
100
AcDbLine
 62
7
  6
CONTINUOUS
 10
76.4558244318
 20
228.685
 11
76.4558244318
 21
220.185
  0
LINE
  5
594
100
AcDbEntity
  8
0
100
AcDbLine
 62
7
  6
CONTINUOUS
 10
75.6028364079
 20
220.185
 11
75.6067186169
 21
228.685
  0
LINE
  5
595
100
AcDbEntity
  8
0
100
AcDbLine
 62
7
  6
CONTINUOUS
 10
75.9650792305
 20
216.015
 11
76.0
 21
217.015
  0
LWPOLYLINE
  5
596
100
AcDbEntity
  8
0
100
AcDbPolyline
 62
7
  6
CONTINUOUS
 90
10
 70
0
 10
76.4558244318
 20
220.185
 10
76.428881031
 20
220.0312195754
 10
76.3499283385
 20
219.8941286507
 10
76.2304535307
 20
219.7935889187
 10
76.0808326748
 20
219.7389670533
 10
75.9248953758
 20
219.7388064434
 10
75.7751371956
 20
219.7931357738
 10
75.6554321861
 20
219.8934772655
 10
75.5761684656
 20
220.0305757188
 10
75.5489930488
 20
220.185
  0
LINE
  5
597
100
AcDbEntity
  8
0
100
AcDbLine
 62
7
  6
CONTINUOUS
 10
65.0085380204
 20
205.7439959755
 11
65.0
 21
205.7341300942
  0
LINE
  5
598
100
AcDbEntity
  8
0
100
AcDbLine
 62
7
  6
CONTINUOUS
 10
65.8212903842
 20
213.713675176
 11
65.0085380204
 21
213.2439959755
  0
LINE
  5
599
100
AcDbEntity
  8
0
100
AcDbLine
 62
7
  6
CONTINUOUS
 10
65.8510284921
 20
221.515
 11
72.069841539
 21
221.515
  0
LWPOLYLINE
  5
59A
100
AcDbEntity
  8
0
100
AcDbPolyline
 62
7
  6
CONTINUOUS
 90
6
 70
0
 10
83.0813918624
 20
219.7323645329
 10
83.0256585476
 20
219.7389341485
 10
82.935646415
 20
219.7935291724
 10
82.8623745706
 20
219.8940149876
 10
82.8132050662
 20
220.0311833074
 10
82.7963065998
 20
220.185
  0
LWPOLYLINE
  5
59B
100
AcDbEntity
  8
0
100
AcDbPolyline
 62
7
  6
CONTINUOUS
 90
6
 70
0
 10
84.0790063529
 20
219.7322197277
 10
84.0420922847
 20
219.7388064434
 10
83.9783337992
 20
219.7931357738
 10
83.9259532081
 20
219.8934772655
 10
83.8905779076
 20
220.0305757188
 10
83.8783229972
 20
220.185
  0
LWPOLYLINE
  5
59C
100
AcDbEntity
  8
0
100
AcDbPolyline
 62
7
  6
CONTINUOUS
 90
4
 70
0
 10
84.188
 20
212.9529385128
 10
84.1309467695
 20
213.0016346504
 10
84.0937685747
 20
213.065942149
 10
84.080001715
 20
213.1400918801
  0
LWPOLYLINE
  5
59D
100
AcDbEntity
  8
0
100
AcDbPolyline
 62
7
  6
CONTINUOUS
 90
9
 70
0
 10
75.6028364079
 20
220.185
 10
75.633081517
 20
220.0325656775
 10
75.7195704913
 20
219.9030526462
 10
75.8492901907
 20
219.8164340564
 10
76.0022817518
 20
219.7861250837
 10
76.1552224876
 20
219.8167156973
 10
76.284693649
 20
219.9034825636
 10
76.3709353663
 20
220.0330033313
 10
76.4009995406
 20
220.185
  0
LINE
  5
59E
100
AcDbEntity
  8
0
100
AcDbLine
 62
7
  6
CONTINUOUS
 10
78.9650792305
 20
216.015
 11
79.0
 21
217.015
  0
LINE
  5
59F
100
AcDbEntity
  8
0
100
AcDbLine
 62
7
  6
CONTINUOUS
 10
65.0
 20
204.2341294603
 11
65.0085380204
 21
204.2439959755
  0
LINE
  5
5A0
100
AcDbEntity
  8
0
100
AcDbLine
 62
7
  6
CONTINUOUS
 10
75.6043573204
 20
223.515
 11
76.3994536426
 21
223.515
  0
LINE
  5
5A1
100
AcDbEntity
  8
0
100
AcDbLine
 62
7
  6
CONTINUOUS
 10
71.9685483997
 20
224.1063746203
 11
72.1591998518
 21
224.0738872784
  0
LWPOLYLINE
  5
5A2
100
AcDbEntity
  8
0
100
AcDbPolyline
 62
7
  6
CONTINUOUS
 90
9
 70
0
 10
76.3970538036
 20
228.685
 10
76.3671482199
 20
228.8354727431
 10
76.2816083608
 20
228.9636768584
 10
76.1533844562
 20
229.0494401767
 10
76.0019396699
 20
229.0796069129
 10
75.8506150464
 20
229.0495375165
 10
75.7222991065
 20
228.9638170799
 10
75.6367572118
 20
228.8357990319
 10
75.6067186169
 20
228.685
  0
LINE
  5
5A3
100
AcDbEntity
  8
0
100
AcDbLine
 62
7
  6
CONTINUOUS
 10
80.0349207695
 20
216.015
 11
80.0
 21
217.015
  0
LINE
  5
5A4
100
AcDbEntity
  8
0
100
AcDbLine
 62
7
  6
CONTINUOUS
 10
72.1903181937
 20
224.965
 11
72.0
 21
224.965
  0
LINE
  5
5A5
100
AcDbEntity
  8
0
100
AcDbLine
 62
7
  6
CONTINUOUS
 10
72.2077785785
 20
225.465
 11
71.9692169925
 21
225.465
  0
LINE
  5
5A6
100
AcDbEntity
  8
0
100
AcDbLine
 62
7
  6
CONTINUOUS
 10
82.8
 20
203.015
 11
82.3460299966
 21
216.015
  0
LINE
  5
5A7
100
AcDbEntity
  8
0
100
AcDbLine
 62
7
  6
CONTINUOUS
 10
82.7963065998
 20
228.685
 11
82.7963065998
 21
220.185
  0
LINE
  5
5A8
100
AcDbEntity
  8
0
100
AcDbLine
 62
7
  6
CONTINUOUS
 10
83.3293299484
 20
228.685
 11
83.3293299484
 21
220.185
  0
LINE
  5
5A9
100
AcDbEntity
  8
0
100
AcDbLine
 62
7
  6
CONTINUOUS
 10
81.9650792305
 20
216.015
 11
82.0
 21
217.015
  0
LWPOLYLINE
  5
5AA
100
AcDbEntity
  8
0
100
AcDbPolyline
 62
7
  6
CONTINUOUS
 90
6
 70
0
 10
83.8783229972
 20
228.685
 10
83.8905724038
 20
228.8393905832
 10
83.9259091912
 20
228.9764046764
 10
83.978292131
 20
229.0768084497
 10
84.0420387235
 20
229.1311713949
 10
84.0790058512
 20
229.137780244
  0
LWPOLYLINE
  5
5AB
100
AcDbEntity
  8
0
100
AcDbPolyline
 62
7
  6
CONTINUOUS
 90
6
 70
0
 10
83.3293299484
 20
220.185
 10
83.3144161305
 20
220.0306091937
 10
83.2705775703
 20
219.8935978117
 10
83.2032575739
 20
219.7931979326
 10
83.117308602
 20
219.7388398077
 10
83.0813918624
 20
219.7323645329
  0
LWPOLYLINE
  5
5AC
100
AcDbEntity
  8
0
100
AcDbPolyline
 62
7
  6
CONTINUOUS
 90
6
 70
0
 10
82.7963065998
 20
228.685
 10
82.813196819
 20
228.8387802325
 10
82.8623154438
 20
228.9758711327
 10
82.9355834745
 20
229.0764106719
 10
83.0255445753
 20
229.1310322719
 10
83.0813877807
 20
229.1376366461
  0
LINE
  5
5AD
100
AcDbEntity
  8
0
100
AcDbLine
 62
7
  6
CONTINUOUS
 10
65.8212903842
 20
206.2136751761
 11
65.0085380204
 21
205.7439959755
  0
LWPOLYLINE
  5
5AE
100
AcDbEntity
  8
0
100
AcDbPolyline
 62
7
  6
CONTINUOUS
 90
4
 70
0
 10
72.2692555403
 20
227.225469849
 10
72.312410933
 20
227.2264573231
 10
72.4379207059
 20
227.2264572991
 10
72.6351513378
 20
227.2254698501
  0
LINE
  5
5AF
100
AcDbEntity
  8
0
100
AcDbLine
 62
7
  6
CONTINUOUS
 10
72.6351513514
 20
227.2254698489
 11
75.0000000007
 21
227.225469849
  0
LINE
  5
5B0
100
AcDbEntity
  8
0
100
AcDbLine
 62
7
  6
CONTINUOUS
 10
72.5690727884
 20
227.515
 11
75.0000000007
 21
227.515
  0
LINE
  5
5B1
100
AcDbEntity
  8
0
100
AcDbLine
 62
7
  6
CONTINUOUS
 10
84.1645184441
 20
217.015
 11
84.175
 21
216.815
  0
LINE
  5
5B2
100
AcDbEntity
  8
0
100
AcDbLine
 62
7
  6
CONTINUOUS
 10
83.8783229972
 20
228.685
 11
83.8783229972
 21
220.185
  0
LINE
  5
5B3
100
AcDbEntity
  8
0
100
AcDbLine
 62
7
  6
CONTINUOUS
 10
84.2521310316
 20
228.685
 11
84.2521310316
 21
220.185
  0
LINE
  5
5B4
100
AcDbEntity
  8
0
100
AcDbLine
 62
7
  6
CONTINUOUS
 10
84.95
 20
216.885
 11
84.95
 21
234.285
  0
LINE
  5
5B5
100
AcDbEntity
  8
0
100
AcDbLine
 62
7
  6
CONTINUOUS
 10
85.0
 20
213.9841300942
 11
85.0
 21
213.7958699058
  0
LINE
  5
5B6
100
AcDbEntity
  8
0
100
AcDbLine
 62
7
  6
CONTINUOUS
 10
85.0
 20
204.7958699058
 11
85.0
 21
204.9841300942
  0
LINE
  5
5B7
100
AcDbEntity
  8
0
100
AcDbLine
 62
7
  6
CONTINUOUS
 10
85.0
 20
206.2958699058
 11
85.0
 21
212.4841300942
  0
LWPOLYLINE
  5
5B8
100
AcDbEntity
  8
0
100
AcDbPolyline
 62
7
  6
CONTINUOUS
 90
6
 70
0
 10
84.2521310316
 20
220.185
 10
84.2420778934
 20
220.0312195754
 10
84.2122438947
 20
219.8941286507
 10
84.1660374334
 20
219.7935889187
 10
84.1063795376
 20
219.7389670533
 10
84.0790063529
 20
219.7322197277
  0
LWPOLYLINE
  5
5B9
100
AcDbEntity
  8
0
100
AcDbPolyline
 62
7
  6
CONTINUOUS
 90
4
 70
0
 10
84.080001715
 20
213.1400918801
 10
84.093309328
 20
213.2128247958
 10
84.1305713216
 20
213.2779083245
 10
84.188
 20
213.3270614872
  0
LINE
  5
5BA
100
AcDbEntity
  8
0
100
AcDbLine
 62
7
  6
CONTINUOUS
 10
65.8212903842
 20
204.713675176
 11
65.0085380204
 21
204.2439959755
  0
LINE
  5
5BB
100
AcDbEntity
  8
0
100
AcDbLine
 62
7
  6
CONTINUOUS
 10
76.4558244318
 20
228.685
 11
76.3970538036
 21
228.685
  0
LINE
  5
5BC
100
AcDbEntity
  8
0
100
AcDbLine
 62
7
  6
CONTINUOUS
 10
75.5489930488
 20
228.685
 11
75.6067186169
 21
228.685
  0
LINE
  5
5BD
100
AcDbEntity
  8
0
100
AcDbLine
 62
7
  6
CONTINUOUS
 10
82.7963065998
 20
228.685
 11
83.3293299484
 21
228.685
  0
LINE
  5
5BE
100
AcDbEntity
  8
0
100
AcDbLine
 62
7
  6
CONTINUOUS
 10
83.8783229972
 20
228.685
 11
84.2521310316
 21
228.685
  0
LINE
  5
5BF
100
AcDbEntity
  8
0
100
AcDbLine
 62
7
  6
CONTINUOUS
 10
86.064792638
 20
229.6850670502
 11
86.285130425
 21
219.535
  0
LINE
  5
5C0
100
AcDbEntity
  8
0
100
AcDbLine
 62
7
  6
CONTINUOUS
 10
86.317551648
 20
234.3059343825
 11
86.6381992829
 21
219.535
  0
LINE
  5
5C1
100
AcDbEntity
  8
0
100
AcDbLine
 62
7
  6
CONTINUOUS
 10
85.95
 20
216.885
 11
86.0617039077
 21
229.685
  0
LINE
  5
5C2
100
AcDbEntity
  8
0
100
AcDbLine
 62
7
  6
CONTINUOUS
 10
86.0936376623
 20
219.515
 11
86.046508987
 21
216.815
  0
LINE
  5
5C3
100
AcDbEntity
  8
0
100
AcDbLine
 62
7
  6
CONTINUOUS
 10
86.0617039077
 20
229.685
 11
86.3038768169
 21
234.3059343825
  0
LINE
  5
5C4
100
AcDbEntity
  8
0
100
AcDbLine
 62
7
  6
CONTINUOUS
 10
86.0
 20
215.715
 11
85.926629109
 21
214.315
  0
LWPOLYLINE
  5
5C5
100
AcDbEntity
  8
0
100
AcDbPolyline
 62
7
  6
CONTINUOUS
 90
4
 70
0
 10
84.0800015856
 20
208.6400342831
 10
84.093309328
 20
208.7128247958
 10
84.1305713216
 20
208.7779083245
 10
84.188
 20
208.8270614872
  0
LWPOLYLINE
  5
5C6
100
AcDbEntity
  8
0
100
AcDbPolyline
 62
7
  6
CONTINUOUS
 90
4
 70
0
 10
84.0800015952
 20
205.6400388531
 10
84.093309328
 20
205.7128247958
 10
84.1305713216
 20
205.7779083245
 10
84.188
 20
205.8270614872
  0
LWPOLYLINE
  5
5C7
100
AcDbEntity
  8
0
100
AcDbPolyline
 62
7
  6
CONTINUOUS
 90
4
 70
0
 10
84.0800014776
 20
204.1399784268
 10
84.093309328
 20
204.2128247958
 10
84.1305713216
 20
204.2779083245
 10
84.188
 20
204.3270614872
  0
LWPOLYLINE
  5
5C8
100
AcDbEntity
  8
0
100
AcDbPolyline
 62
7
  6
CONTINUOUS
 90
4
 70
0
 10
84.0800016226
 20
211.6400516477
 10
84.093309328
 20
211.7128247958
 10
84.1305713216
 20
211.7779083245
 10
84.188
 20
211.8270614872
  0
LWPOLYLINE
  5
5C9
100
AcDbEntity
  8
0
100
AcDbPolyline
 62
7
  6
CONTINUOUS
 90
4
 70
0
 10
84.0800017007
 20
210.1400859081
 10
84.093309328
 20
210.2128247958
 10
84.1305713216
 20
210.2779083245
 10
84.188
 20
210.3270614872
  0
LWPOLYLINE
  5
5CA
100
AcDbEntity
  8
0
100
AcDbPolyline
 62
7
  6
CONTINUOUS
 90
4
 70
0
 10
84.0800017007
 20
207.1400859081
 10
84.093309328
 20
207.2128247958
 10
84.1305713216
 20
207.2779083245
 10
84.188
 20
207.3270614872
  0
LINE
  5
5CB
100
AcDbEntity
  8
0
100
AcDbLine
 62
7
  6
CONTINUOUS
 10
84.188
 20
213.3270614872
 11
85.0
 21
213.7958699058
  0
LINE
  5
5CC
100
AcDbEntity
  8
0
100
AcDbLine
 62
7
  6
CONTINUOUS
 10
84.188
 20
211.8270614872
 11
85.0
 21
212.2958699058
  0
LWPOLYLINE
  5
5CD
100
AcDbEntity
  8
0
100
AcDbPolyline
 62
7
  6
CONTINUOUS
 90
6
 70
0
 10
83.0813877807
 20
229.1376366461
 10
83.1171947069
 20
229.1311942135
 10
83.2031964023
 20
229.0768644314
 10
83.2705211682
 20
228.9765224231
 10
83.3144094731
 20
228.8394241252
 10
83.3293299484
 20
228.685
  0
LWPOLYLINE
  5
5CE
100
AcDbEntity
  8
0
100
AcDbPolyline
 62
7
  6
CONTINUOUS
 90
6
 70
0
 10
84.0790058512
 20
229.137780244
 10
84.106328399
 20
229.1310550562
 10
84.1659994913
 20
229.0764673085
 10
84.2122062947
 20
228.9759887983
 10
84.2420731458
 20
228.8388155061
 10
84.2521310316
 20
228.685
  0
LINE
  5
5CF
100
AcDbEntity
  8
0
100
AcDbLine
 62
7
  6
CONTINUOUS
 10
87.5
 20
218.015
 11
87.6205378924
 21
215.715
  0
LINE
  5
5D0
100
AcDbEntity
  8
0
100
AcDbLine
 62
7
  6
CONTINUOUS
 10
84.188
 20
210.3270614872
 11
85.0
 21
210.7958699058
  0
LINE
  5
5D1
100
AcDbEntity
  8
0
100
AcDbLine
 62
7
  6
CONTINUOUS
 10
84.188
 20
208.8270614872
 11
85.0
 21
209.2958699058
  0
LINE
  5
5D2
100
AcDbEntity
  8
0
100
AcDbLine
 62
7
  6
CONTINUOUS
 10
75.0000000007
 20
234.285
 11
84.95
 21
234.285
  0
LINE
  5
5D3
100
AcDbEntity
  8
0
100
AcDbLine
 62
7
  6
CONTINUOUS
 10
75.0000000007
 20
234.2906708637
 11
66.1286942614
 21
234.2905848721
  0
LINE
  5
5D4
100
AcDbEntity
  8
0
100
AcDbLine
 62
7
  6
CONTINUOUS
 10
96.6460023845
 20
234.3059343825
 11
86.317551648
 21
234.3059343825
  0
LINE
  5
5D5
100
AcDbEntity
  8
0
100
AcDbLine
 62
7
  6
CONTINUOUS
 10
86.3118873468
 20
234.3383641051
 11
86.317551648
 21
234.3059343825
  0
LINE
  5
5D6
100
AcDbEntity
  8
0
100
AcDbLine
 62
7
  6
CONTINUOUS
 10
89.5
 20
207.1810254038
 11
89.5
 21
212.315
  0
LINE
  5
5D7
100
AcDbEntity
  8
0
100
AcDbLine
 62
7
  6
CONTINUOUS
 10
84.188
 20
207.3270614872
 11
85.0
 21
207.7958699058
  0
LWPOLYLINE
  5
5D8
100
AcDbEntity
  8
0
100
AcDbPolyline
 62
7
  6
CONTINUOUS
 90
4
 70
0
 10
62.4645646758
 20
235.5635039344
 10
62.7749305098
 20
235.5692274066
 10
63.1361820312
 20
235.5692274066
 10
63.5237712497
 20
235.5635039344
  0
LINE
  5
5D9
100
AcDbEntity
  8
0
100
AcDbLine
 62
7
  6
CONTINUOUS
 10
66.6737384469
 20
234.685
 11
84.55
 21
234.685
  0
LINE
  5
5DA
100
AcDbEntity
  8
0
100
AcDbLine
 62
7
  6
CONTINUOUS
 10
86.7033286308
 20
234.685
 11
96.39279648
 21
234.685
  0
LINE
  5
5DB
100
AcDbEntity
  8
0
100
AcDbLine
 62
7
  6
CONTINUOUS
 10
51.4123958619
 20
235.5635039344
 11
62.4645646758
 21
235.5635039344
  0
LINE
  5
5DC
100
AcDbEntity
  8
0
100
AcDbLine
 62
7
  6
CONTINUOUS
 10
63.5237712497
 20
235.5635039344
 11
75.0000000007
 21
235.5635039344
  0
LINE
  5
5DD
100
AcDbEntity
  8
0
100
AcDbLine
 62
7
  6
CONTINUOUS
 10
86.317551648
 20
234.3059343825
 11
86.3039426459
 21
234.3062008835
  0
LINE
  5
5DE
100
AcDbEntity
  8
0
100
AcDbLine
 62
7
  6
CONTINUOUS
 10
84.6634419658
 20
203.6784419658
 11
84.0
 21
203.015
  0
LINE
  5
5DF
100
AcDbEntity
  8
0
100
AcDbLine
 62
7
  6
CONTINUOUS
 10
84.188
 20
205.8270614872
 11
85.0
 21
206.2958699058
  0
LINE
  5
5E0
100
AcDbEntity
  8
0
100
AcDbLine
 62
7
  6
CONTINUOUS
 10
84.188
 20
204.3270614872
 11
85.0
 21
204.7958699058
  0
LINE
  5
5E1
100
AcDbEntity
  8
0
100
AcDbLine
 62
7
  6
CONTINUOUS
 10
88.0
 20
206.315
 11
89.5
 21
207.1810254038
  0
LWPOLYLINE
  5
5E2
100
AcDbEntity
  8
0
100
AcDbPolyline
 62
7
  6
CONTINUOUS
 90
4
 70
0
 10
50.9736581336
 20
235.5635039344
 10
51.0249924877
 20
235.5692274066
 10
51.1746277674
 20
235.5692274066
 10
51.4123958619
 20
235.5635039344
  0
LINE
  5
5E3
100
AcDbEntity
  8
0
100
AcDbLine
 62
7
  6
CONTINUOUS
 10
52.4716024357
 20
236.985
 11
97.5283975643
 21
236.985
  0
LWPOLYLINE
  5
5E4
100
AcDbEntity
  8
0
100
AcDbPolyline
 62
7
  6
CONTINUOUS
 90
7
 70
0
 10
63.5237712497
 20
236.985
 10
63.2581437111
 20
236.9371997182
 10
63.0094214559
 20
236.7968264288
 10
62.7935065217
 20
236.572854243
 10
62.6241016848
 20
236.279474259
 10
62.5121016163
 20
235.9356097044
 10
62.4645646737
 20
235.5635039344
  0
LWPOLYLINE
  5
5E5
100
AcDbEntity
  8
0
100
AcDbPolyline
 62
7
  6
CONTINUOUS
 90
7
 70
0
 10
96.7922482894
 20
234.3059344687
 10
96.788359594
 20
234.3068440479
 10
96.7763072324
 20
234.3074330743
 10
96.7556969402
 20
234.307653195
 10
96.7266324988
 20
234.3074764344
 10
96.68971627
 20
234.3068975348
 10
96.6460023845
 20
234.3059343825
  0
LINE
  5
5E6
100
AcDbEntity
  8
0
100
AcDbLine
 62
7
  6
CONTINUOUS
 10
96.3635472981
 20
234.685
 11
96.4683567689
 21
234.6565238211
  0
LINE
  5
5E7
100
AcDbEntity
  8
0
100
AcDbLine
 62
7
  6
CONTINUOUS
 10
96.6460023845
 20
234.3059343825
 11
97.4201142534
 21
219.535
  0
LWPOLYLINE
  5
5E8
100
AcDbEntity
  8
0
100
AcDbPolyline
 62
7
  6
CONTINUOUS
 90
7
 70
0
 10
52.4716024357
 20
236.985
 10
52.2059747875
 20
236.9371996781
 10
51.9572527579
 20
236.7968265197
 10
51.7413376786
 20
236.5728542039
 10
51.5719327783
 20
236.2794740492
 10
51.4599328411
 20
235.9356098785
 10
51.4123958619
 20
235.5635039344
  0
LINE
  5
5E9
100
AcDbEntity
  8
0
100
AcDbLine
 62
7
  6
CONTINUOUS
 10
96.7922482939
 20
234.3059343825
 11
97.5663601628
 21
219.535
  0
LINE
  5
5EA
100
AcDbEntity
  8
0
100
AcDbLine
 62
7
  6
CONTINUOUS
 10
98.7713883311
 20
219.515
 11
98.85
 21
218.015
  0
LINE
  5
5EB
100
AcDbEntity
  8
0
100
AcDbLine
 62
7
  6
CONTINUOUS
 10
98.9554895844
 20
219.535
 11
99.0
 21
216.985
  0
LINE
  5
5EC
100
AcDbEntity
  8
0
100
AcDbLine
 62
7
  6
CONTINUOUS
 10
98.8535533906
 20
216.985
 11
98.8408419131
 21
218.0148869654
  0
LINE
  5
5ED
100
AcDbEntity
  8
0
100
AcDbLine
 62
7
  6
CONTINUOUS
 10
98.8380188219
 20
218.2436144976
 11
98.8220797739
 21
219.535
  0
LINE
  5
5EE
100
AcDbEntity
  8
0
100
AcDbLine
 62
7
  6
CONTINUOUS
 10
98.85
 20
218.015
 11
98.4480762114
 21
219.515
  0
LINE
  5
5EF
100
AcDbEntity
  8
0
100
AcDbLine
 62
7
  6
CONTINUOUS
 10
99.0263418664
 20
235.5635039344
 11
100.0
 21
216.985
  0
LINE
  5
5F0
100
AcDbEntity
  8
0
100
AcDbLine
 62
7
  6
CONTINUOUS
 10
96.4683567689
 20
234.6565238211
 11
96.5582433735
 21
234.5751497484
  0
LWPOLYLINE
  5
5F1
100
AcDbEntity
  8
0
100
AcDbPolyline
 62
7
  6
CONTINUOUS
 90
3
 70
0
 10
96.5582433735
 20
234.5751497484
 10
96.6204089767
 20
234.452463895
 10
96.6460023845
 20
234.3059343825
  0
LWPOLYLINE
  5
5F2
100
AcDbEntity
  8
0
100
AcDbPolyline
 62
7
  6
CONTINUOUS
 90
6
 70
0
 10
155.5791755426
 20
186.7590255911
 10
155.6082536672
 20
186.7650605907
 10
155.7112818077
 20
186.8524206268
 10
155.7966896732
 20
187.0363381141
 10
155.8586615663
 20
187.3043546268
 10
155.8929726679
 20
187.6382733741
  0
LINE
  5
5F3
100
AcDbEntity
  8
0
100
AcDbLine
 62
7
  6
CONTINUOUS
 10
155.5791755427
 20
186.7590255911
 11
173.5893526097
 21
188.2798067369
  0
LINE
  5
5F4
100
AcDbEntity
  8
0
100
AcDbLine
 62
7
  6
CONTINUOUS
 10
155.8929726679
 20
187.6382733741
 11
173.8884228027
 21
189.1555560911
  0
LWPOLYLINE
  5
5F5
100
AcDbEntity
  8
0
100
AcDbPolyline
 62
7
  6
CONTINUOUS
 90
5
 70
0
 10
155.5790457934
 20
186.7590147048
 10
155.3114685973
 20
186.7600920503
 10
154.9269959835
 20
186.8469997075
 10
154.5776396155
 20
187.0300239146
 10
154.2805203427
 20
187.3047839971
  0
LWPOLYLINE
  5
5F6
100
AcDbEntity
  8
0
100
AcDbPolyline
 62
7
  6
CONTINUOUS
 90
7
 70
0
 10
154.0223010865
 20
188.0462098767
 10
154.1976530398
 20
187.896853141
 10
154.4535307645
 20
187.7715273877
 10
154.7729990387
 20
187.6784600716
 10
155.136406434
 20
187.6233829298
 10
155.5185477574
 20
187.6099519588
 10
155.8929726679
 20
187.6382733741
  0
LWPOLYLINE
  5
5F7
100
AcDbEntity
  8
0
100
AcDbPolyline
 62
7
  6
CONTINUOUS
 90
7
 70
0
 10
138.5287175213
 20
247.4889981885
 10
138.5511373527
 20
247.7551857384
 10
138.6625953565
 20
248.1168402828
 10
138.8607534192
 20
248.4392506908
 10
139.1330771752
 20
248.7020192012
 10
139.462341193
 20
248.8885306056
 10
139.7029554787
 20
248.9643819334
  0
LWPOLYLINE
  5
5F8
100
AcDbEntity
  8
0
100
AcDbPolyline
 62
7
  6
CONTINUOUS
 90
7
 70
0
 10
138.6146553732
 20
247.2847633688
 10
138.6584463959
 20
247.6361971468
 10
138.7904433921
 20
247.9788352971
 10
139.0018445149
 20
248.2901345451
 10
139.2796449165
 20
248.5509533723
 10
139.6044614867
 20
248.7435244431
 10
139.9532186752
 20
248.8560474392
  0
LINE
  5
5F9
100
AcDbEntity
  8
0
100
AcDbLine
 62
7
  6
CONTINUOUS
 10
142.4908520221
 20
201.9867432125
 11
154.0223010865
 21
188.0462098767
  0
LINE
  5
5FA
100
AcDbEntity
  8
0
100
AcDbLine
 62
7
  6
CONTINUOUS
 10
142.7479163393
 20
201.2527930565
 11
154.2805047293
 21
187.3048028802
  0
LWPOLYLINE
  5
5FB
100
AcDbEntity
  8
0
100
AcDbPolyline
 62
7
  6
CONTINUOUS
 90
3
 70
0
 10
142.7482678767
 20
201.2523681127
 10
142.520053016
 20
201.6302040616
 10
142.4522352588
 20
201.8318930739
  0
LINE
  5
5FC
100
AcDbEntity
  8
0
100
AcDbLine
 62
7
  6
CONTINUOUS
 10
138.5287178155
 20
247.4889362739
 11
138.6792690157
 21
216.5929615943
  0
LINE
  5
5FD
100
AcDbEntity
  8
0
100
AcDbLine
 62
7
  6
CONTINUOUS
 10
138.6146553732
 20
247.2847633688
 11
138.7646368789
 21
216.3834463277
  0
LINE
  5
5FE
100
AcDbEntity
  8
0
100
AcDbLine
 62
7
  6
CONTINUOUS
 10
138.7269162701
 20
216.2258371967
 11
142.4522254855
 21
201.8319308131
  0
LINE
  5
5FF
100
AcDbEntity
  8
0
100
AcDbLine
 62
7
  6
CONTINUOUS
 10
138.7646368789
 20
216.3834463277
 11
142.4908520221
 21
201.9867432125
  0
LWPOLYLINE
  5
600
100
AcDbEntity
  8
0
100
AcDbPolyline
 62
7
  6
CONTINUOUS
 90
3
 70
0
 10
138.7269174716
 20
216.225832555
 10
138.6929948904
 20
216.3980417942
 10
138.6792690765
 20
216.5929491713
  0
LWPOLYLINE
  5
601
100
AcDbEntity
  8
0
100
AcDbPolyline
 62
7
  6
CONTINUOUS
 90
3
 70
0
 10
138.7646368789
 20
216.3834463277
 10
138.7225350498
 20
216.2562023598
 10
138.7269161329
 20
216.2258377268
  0
LWPOLYLINE
  5
602
100
AcDbEntity
  8
0
100
AcDbPolyline
 62
7
  6
CONTINUOUS
 90
3
 70
0
 10
138.7646368789
 20
216.3834463277
 10
138.684849975
 20
216.5395542822
 10
138.6792690765
 20
216.5929491713
  0
LWPOLYLINE
  5
603
100
AcDbEntity
  8
0
100
AcDbPolyline
 62
7
  6
CONTINUOUS
 90
4
 70
0
 10
142.4908520221
 20
201.9867432125
 10
142.5371976894
 20
201.6551571727
 10
142.6705625577
 20
201.3587973601
 10
142.7479154433
 20
201.2527941402
  0
LWPOLYLINE
  5
604
100
AcDbEntity
  8
0
100
AcDbPolyline
 62
7
  6
CONTINUOUS
 90
7
 70
0
 10
150.1454982609
 20
233.9313327127
 10
150.2821414525
 20
234.0783238838
 10
150.5017634934
 20
234.2298666446
 10
150.7903346862
 20
234.3762588476
 10
151.1295500463
 20
234.5081944569
 10
151.4975062911
 20
234.6171607021
 10
151.8704176537
 20
234.6961915312
  0
LWPOLYLINE
  5
605
100
AcDbEntity
  8
0
100
AcDbPolyline
 62
7
  6
CONTINUOUS
 90
7
 70
0
 10
150.1454982609
 20
233.9313327127
 10
150.1905204242
 20
234.2859781217
 10
150.3243047819
 20
234.631953676
 10
150.5383036102
 20
234.9471161241
 10
150.8189491458
 20
235.2114413471
 10
151.1481193739
 20
235.4079018344
 10
151.5044963827
 20
235.5240244568
  0
LWPOLYLINE
  5
606
100
AcDbEntity
  8
0
100
AcDbPolyline
 62
7
  6
CONTINUOUS
 90
3
 70
0
 10
142.4908520221
 20
201.9867432125
 10
142.4480087204
 20
201.8616917548
 10
142.4522253495
 20
201.8319313384
  0
LWPOLYLINE
  5
607
100
AcDbEntity
  8
0
100
AcDbPolyline
 62
7
  6
CONTINUOUS
 90
3
 70
0
 10
176.7087752353
 20
212.2999766424
 10
176.9685464566
 20
212.3649373838
 10
177.2501015665
 20
212.4946422156
  0
LINE
  5
608
100
AcDbEntity
  8
0
100
AcDbLine
 62
7
  6
CONTINUOUS
 10
176.7087752353
 20
212.2999766424
 11
173.9609865309
 21
211.8727391296
  0
LINE
  5
609
100
AcDbEntity
  8
0
100
AcDbLine
 62
7
  6
CONTINUOUS
 10
177.2501015665
 20
212.4946422156
 11
173.9613398494
 21
211.9833508613
  0
LWPOLYLINE
  5
60A
100
AcDbEntity
  8
0
100
AcDbPolyline
 62
7
  6
CONTINUOUS
 90
4
 70
0
 10
154.0223010865
 20
188.0462098767
 10
154.0685519813
 20
187.7102430651
 10
154.2034562074
 20
187.4102825369
 10
154.2805126183
 20
187.304793339
  0
LINE
  5
60B
100
AcDbEntity
  8
0
100
AcDbLine
 62
7
  6
CONTINUOUS
 10
154.0223010865
 20
188.0462098767
 11
153.9793706198
 21
219.2644610984
  0
LWPOLYLINE
  5
60C
100
AcDbEntity
  8
0
100
AcDbPolyline
 62
7
  6
CONTINUOUS
 90
3
 70
0
 10
138.6146553732
 20
247.2847633688
 10
138.5342461923
 20
247.4372876974
 10
138.5287178008
 20
247.4889392833
  0
LINE
  5
60D
100
AcDbEntity
  8
0
100
AcDbLine
 62
7
  6
CONTINUOUS
 10
153.9793706198
 20
219.2644610984
 11
150.1454982609
 21
233.9313327127
  0
LWPOLYLINE
  5
60E
100
AcDbEntity
  8
0
100
AcDbPolyline
 62
7
  6
CONTINUOUS
 90
4
 70
0
 10
155.8634646221
 20
218.8666274875
 10
155.8397975433
 20
219.245143362
 10
155.7874964646
 20
219.6400536671
 10
155.7101218621
 20
220.0244668875
  0
LINE
  5
60F
100
AcDbEntity
  8
0
100
AcDbLine
 62
7
  6
CONTINUOUS
 10
155.8929726679
 20
187.6382733741
 11
155.8634646221
 21
218.8666274875
  0
LWPOLYLINE
  5
610
100
AcDbEntity
  8
0
100
AcDbPolyline
 62
7
  6
CONTINUOUS
 90
7
 70
0
 10
153.9793706198
 20
219.2644610984
 10
154.1169579871
 20
219.4094280042
 10
154.3376244848
 20
219.5593247903
 10
154.6272744912
 20
219.7045554131
 10
154.9675339548
 20
219.8358874932
 10
155.3364313029
 20
219.9448468661
 10
155.7101218621
 20
220.0244668875
  0
LINE
  5
611
100
AcDbEntity
  8
0
100
AcDbLine
 62
7
  6
CONTINUOUS
 10
179.5571096964
 20
220.0688346232
 11
176.1147478143
 21
219.5376890437
  0
LWPOLYLINE
  5
612
100
AcDbEntity
  8
0
100
AcDbPolyline
 62
7
  6
CONTINUOUS
 90
7
 70
0
 10
153.9793706198
 20
219.2644610984
 10
154.1554177203
 20
219.1191479308
 10
154.4121022316
 20
218.9971643803
 10
154.7330190423
 20
218.9063301598
 10
155.0978052722
 20
218.8524323247
 10
155.4829097834
 20
218.8389417672
 10
155.8634646221
 20
218.8666274859
  0
LWPOLYLINE
  5
613
100
AcDbEntity
  8
0
100
AcDbPolyline
 62
7
  6
CONTINUOUS
 90
4
 70
0
 10
151.8704176533
 20
234.6961915329
 10
151.7574952545
 20
235.0391341253
 10
151.6326891149
 20
235.3214755417
 10
151.5044963827
 20
235.5240244568
  0
LINE
  5
614
100
AcDbEntity
  8
0
100
AcDbLine
 62
7
  6
CONTINUOUS
 10
155.7101218621
 20
220.0244668875
 11
151.8704176533
 21
234.6961915329
  0
LINE
  5
615
100
AcDbEntity
  8
0
100
AcDbLine
 62
7
  6
CONTINUOUS
 10
179.5647864542
 20
221.7876839316
 11
176.121076871
 21
221.2572890361
  0
LINE
  5
616
100
AcDbEntity
  8
0
100
AcDbLine
 62
7
  6
CONTINUOUS
 10
155.8634646221
 20
218.8666274875
 11
173.9920021009
 21
221.582636874
  0
LINE
  5
617
100
AcDbEntity
  8
0
100
AcDbLine
 62
7
  6
CONTINUOUS
 10
155.7101218621
 20
220.0244668875
 11
173.8396923675
 21
222.7378280124
  0
LINE
  5
618
100
AcDbEntity
  8
0
100
AcDbLine
 62
7
  6
CONTINUOUS
 10
150.1454982609
 20
233.9313327127
 11
138.6146553732
 21
247.2847633688
  0
LINE
  5
619
100
AcDbEntity
  8
0
100
AcDbLine
 62
7
  6
CONTINUOUS
 10
151.5044963827
 20
235.5240244568
 11
139.9532186743
 21
248.8560474402
  0
LINE
  5
61A
100
AcDbEntity
  8
0
100
AcDbLine
 62
7
  6
CONTINUOUS
 10
177.3371558933
 20
234.5549462143
 11
173.8935142471
 21
234.0318758982
  0
LINE
  5
61B
100
AcDbEntity
  8
0
100
AcDbLine
 62
7
  6
CONTINUOUS
 10
176.767434279
 20
236.058195278
 11
173.3251575945
 21
235.5362187822
  0
LWPOLYLINE
  5
61C
100
AcDbEntity
  8
0
100
AcDbPolyline
 62
7
  6
CONTINUOUS
 90
3
 70
0
 10
139.9532186743
 20
248.8560474402
 10
139.8072391166
 20
248.9556033666
 10
139.7031642407
 20
248.9644290515
  0
LWPOLYLINE
  5
61D
100
AcDbEntity
  8
0
100
AcDbPolyline
 62
7
  6
CONTINUOUS
 90
8
 70
0
 10
176.121076871
 20
221.2572890361
 10
176.0403661219
 20
223.0839921061
 10
175.8733171653
 20
224.9649619764
 10
175.6227917935
 20
226.8673502525
 10
175.2931375385
 20
228.7578943665
 10
174.8901098303
 20
230.6035269892
 10
174.4207827703
 20
232.3719265985
 10
173.8935142471
 20
234.0318758982
  0
LINE
  5
61E
100
AcDbEntity
  8
0
100
AcDbLine
 62
7
  6
CONTINUOUS
 10
173.8884228027
 20
189.1555560911
 11
173.9920021009
 21
221.582636874
  0
LWPOLYLINE
  5
61F
100
AcDbEntity
  8
0
100
AcDbPolyline
 62
7
  6
CONTINUOUS
 90
9
 70
0
 10
173.8884228027
 20
189.1555560911
 10
173.8815200291
 20
188.9536180847
 10
173.8623145113
 20
188.7712655056
 10
173.8312647777
 20
188.612807584
 10
173.7891146472
 20
188.4819929076
 10
173.7368729213
 20
188.3818972661
 10
173.6757786553
 20
188.3148473822
 10
173.6072758984
 20
188.2823948279
 10
173.5896364311
 20
188.2798365771
  0
LWPOLYLINE
  5
620
100
AcDbEntity
  8
0
100
AcDbPolyline
 62
7
  6
CONTINUOUS
 90
16
 70
0
 10
173.9686029717
 20
214.2571822072
 10
174.2270808711
 20
215.1780173149
 10
174.4870787053
 20
216.6598203725
 10
174.6479883035
 20
218.3338697645
 10
174.7062993466
 20
220.1658643539
 10
174.660651948
 20
222.1180625958
 10
174.5118787062
 20
224.1500871109
 10
174.2629958522
 20
226.2197986949
 10
173.9191429632
 20
228.2842176646
 10
173.4874723622
 20
230.3004684781
 10
172.9769909459
 20
232.2267225494
 10
172.3983587218
 20
234.0231141871
 10
171.7636496838
 20
235.6526056151
 10
171.0860817602
 20
237.0817790292
 10
170.3797233662
 20
238.2815364573
 10
169.6591845647
 20
239.2276916604
  0
LWPOLYLINE
  5
621
100
AcDbEntity
  8
0
100
AcDbPolyline
 62
7
  6
CONTINUOUS
 90
15
 70
0
 10
179.6259861863
 20
218.3406240194
 10
179.9079645801
 20
218.627052595
 10
180.2531540387
 20
219.3274867586
 10
180.5145399876
 20
220.2831075179
 10
180.6821478393
 20
221.4631207635
 10
180.7490486928
 20
222.8292516589
 10
180.7116113651
 20
224.3369782367
 10
180.5696420761
 20
225.9369977249
 10
180.3264042868
 20
227.5768745847
 10
179.9885162106
 20
229.2028097319
 10
179.5657288826
 20
230.7614638139
 10
179.0705929975
 20
232.2017643171
 10
178.5180276618
 20
233.4766269822
 10
177.9248083844
 20
234.5445264485
 10
177.3089947947
 20
235.370858868
  0
LWPOLYLINE
  5
622
100
AcDbEntity
  8
0
100
AcDbPolyline
 62
7
  6
CONTINUOUS
 90
8
 70
0
 10
173.9616400861
 20
212.0773445419
 10
174.3552162864
 20
212.4066102184
 10
174.8306960774
 20
213.0890453205
 10
175.2416909252
 20
213.997914881
 10
175.5809377894
 20
215.1179214589
 10
175.8424129772
 20
216.4300390158
 10
176.0214328759
 20
217.9118032294
 10
176.1147478143
 20
219.5376890437
  0
LINE
  5
623
100
AcDbEntity
  8
0
100
AcDbLine
 62
7
  6
CONTINUOUS
 10
151.8704176533
 20
234.6961915329
 11
169.7669111837
 21
238.1215537481
  0
LINE
  5
624
100
AcDbEntity
  8
0
100
AcDbLine
 62
7
  6
CONTINUOUS
 10
172.0538118634
 20
229.8361974117
 11
171.6808801959
 21
230.8921021715
  0
LINE
  5
625
100
AcDbEntity
  8
0
100
AcDbLine
 62
7
  6
CONTINUOUS
 10
169.7669111837
 20
238.1215537481
 11
173.8396923675
 21
222.7378280124
  0
LWPOLYLINE
  5
626
100
AcDbEntity
  8
0
100
AcDbPolyline
 62
7
  6
CONTINUOUS
 90
4
 70
0
 10
173.8396923675
 20
222.7378280124
 10
173.9231193298
 20
222.35524382
 10
173.975063573
 20
221.9612701784
 10
173.9920021009
 20
221.582636874
  0
LWPOLYLINE
  5
627
100
AcDbEntity
  8
0
100
AcDbPolyline
 62
7
  6
CONTINUOUS
 90
5
 70
0
 10
172.6049894921
 20
227.4015527604
 10
172.3755431793
 20
228.5543596128
 10
172.0219163185
 20
229.9632752343
 10
171.6148153529
 20
231.2815912926
 10
171.4901739128
 20
231.6124387238
  0
LWPOLYLINE
  5
628
100
AcDbEntity
  8
0
100
AcDbPolyline
 62
7
  6
CONTINUOUS
 90
5
 70
0
 10
177.2501015665
 20
212.4946422156
 10
177.8967348746
 20
213.5131548674
 10
178.4390740636
 20
214.4949676148
 10
178.8803900921
 20
215.4548635177
 10
179.2185994453
 20
216.3989065681
  0
LINE
  5
629
100
AcDbEntity
  8
0
100
AcDbLine
 62
7
  6
CONTINUOUS
 10
180.652327911
 20
219.0365532549
 11
180.2741849457
 21
218.4533044529
  0
LWPOLYLINE
  5
62A
100
AcDbEntity
  8
0
100
AcDbPolyline
 62
7
  6
CONTINUOUS
 90
4
 70
0
 10
180.2743238364
 20
218.453518702
 10
180.0252892682
 20
218.1380315341
 10
179.5651242772
 20
217.8397256404
 10
179.54602501
 20
217.839211868
  0
LINE
  5
62B
100
AcDbEntity
  8
0
100
AcDbLine
 62
7
  6
CONTINUOUS
 10
151.5044963827
 20
235.5240244568
 11
169.3955215739
 21
238.9461054349
  0
LWPOLYLINE
  5
62C
100
AcDbEntity
  8
0
100
AcDbPolyline
 62
7
  6
CONTINUOUS
 90
4
 70
0
 10
169.3955215739
 20
238.9461054349
 10
169.5316600148
 20
238.7456302713
 10
169.6583212419
 20
238.4644319263
 10
169.7669111837
 20
238.1215537481
  0
LWPOLYLINE
  5
62D
100
AcDbEntity
  8
0
100
AcDbPolyline
 62
7
  6
CONTINUOUS
 90
5
 70
0
 10
173.3251575945
 20
235.5362187822
 10
172.789680758
 20
236.7370359099
 10
172.2318522412
 20
237.7969219498
 10
171.6591472726
 20
238.7020858572
 10
171.0782960932
 20
239.4419061968
  0
LWPOLYLINE
  5
62E
100
AcDbEntity
  8
0
100
AcDbPolyline
 62
7
  6
CONTINUOUS
 90
8
 70
0
 10
180.2357755047
 20
223.0640831499
 10
180.1508035053
 20
224.6981501404
 10
179.9578299545
 20
226.4255994956
 10
179.6622371613
 20
228.1708777013
 10
179.2772739819
 20
229.8598367165
 10
178.8104692747
 20
231.4624553671
 10
178.2754517837
 20
232.9285243799
 10
177.8464885234
 20
233.8660432382
  0
LWPOLYLINE
  5
62F
100
AcDbEntity
  8
0
100
AcDbPolyline
 62
7
  6
CONTINUOUS
 90
4
 70
0
 10
180.2357755047
 20
223.0640831499
 10
180.2151181001
 20
221.5626026611
 10
180.0918194141
 20
220.2251697458
 10
179.8534787034
 20
219.0265687927
  0
LWPOLYLINE
  5
630
100
AcDbEntity
  8
0
100
AcDbPolyline
 62
7
  6
CONTINUOUS
 90
3
 70
0
 10
179.5571096964
 20
220.0688346232
 10
179.5716952895
 20
220.9159134482
 10
179.5647864542
 20
221.7876839316
  0
LWPOLYLINE
  5
631
100
AcDbEntity
  8
0
100
AcDbPolyline
 62
7
  6
CONTINUOUS
 90
6
 70
0
 10
181.1721484034
 20
223.3607534051
 10
181.1291095044
 20
221.9115018454
 10
180.9837442758
 20
220.615955427
 10
180.7428678883
 20
219.5352394426
 10
180.4204880357
 20
218.7072546003
 10
180.2743238364
 20
218.453518702
  0
LWPOLYLINE
  5
632
100
AcDbEntity
  8
0
100
AcDbPolyline
 62
7
  6
CONTINUOUS
 90
6
 70
0
 10
181.5637579698
 20
223.7216934571
 10
181.5083812296
 20
222.3479782812
 10
181.3580784303
 20
221.1261804065
 10
181.1175851911
 20
220.0935676152
 10
180.7944125598
 20
219.2814400055
 10
180.6523968007
 20
219.0368856036
  0
LWPOLYLINE
  5
633
100
AcDbEntity
  8
0
100
AcDbPolyline
 62
7
  6
CONTINUOUS
 90
5
 70
0
 10
179.5647864542
 20
221.7876839316
 10
179.6347090302
 20
223.4742751095
 10
179.6127832588
 20
225.1070915283
 10
179.4934754426
 20
226.711408047
 10
179.2708672196
 20
228.2979699756
  0
LWPOLYLINE
  5
634
100
AcDbEntity
  8
0
100
AcDbPolyline
 62
7
  6
CONTINUOUS
 90
4
 70
0
 10
179.7426479063
 20
219.3325398033
 10
179.9052842116
 20
220.1354430903
 10
180.0354785562
 20
221.4992870819
 10
180.0579211312
 20
223.0367241062
  0
LWPOLYLINE
  5
635
100
AcDbEntity
  8
0
100
AcDbPolyline
 62
7
  6
CONTINUOUS
 90
12
 70
0
 10
180.0443851437
 20
219.728424839
 10
180.2019993858
 20
220.4424780498
 10
180.3498241944
 20
221.6569458439
 10
180.396808141
 20
223.0480882893
 10
180.3400033117
 20
224.5708874713
 10
180.1798575922
 20
226.1759102768
 10
179.9202117823
 20
227.8109514462
 10
179.5681773758
 20
229.4227833829
 10
179.1338987706
 20
230.9589465788
 10
178.6302087916
 20
232.3695121645
 10
178.0721910851
 20
233.6087494203
 10
177.721460136
 20
234.2259532405
  0
LWPOLYLINE
  5
636
100
AcDbEntity
  8
0
100
AcDbPolyline
 62
7
  6
CONTINUOUS
 90
9
 70
0
 10
179.3049889908
 20
216.6993263919
 10
179.4902655767
 20
217.4895614666
 10
179.6899808801
 20
218.7419152276
 10
179.8141619043
 20
220.1345202409
 10
179.8605429857
 20
221.6433946934
 10
179.8282247997
 20
223.2424428422
 10
179.7176971205
 20
224.9039201514
 10
179.5308348724
 20
226.598934056
 10
179.2708672196
 20
228.2979699755
  0
LWPOLYLINE
  5
637
100
AcDbEntity
  8
0
100
AcDbPolyline
 62
7
  6
CONTINUOUS
 90
6
 70
0
 10
179.3026349052
 20
216.6907863781
 10
179.4135282719
 20
217.1433473066
 10
179.5419667241
 20
217.8781975818
 10
179.6066636663
 20
218.6064512961
 10
179.6108707365
 20
219.3341777731
 10
179.5571096964
 20
220.0688346232
  0
LINE
  5
638
100
AcDbEntity
  8
0
100
AcDbLine
 62
7
  6
CONTINUOUS
 10
179.3047385305
 20
216.6981738049
 11
179.2990510301
 21
216.677218113
  0
LINE
  5
639
100
AcDbEntity
  8
0
100
AcDbLine
 62
7
  6
CONTINUOUS
 10
180.0412844952
 20
219.71706767
 11
180.0443851437
 21
219.728424839
  0
LINE
  5
63A
100
AcDbEntity
  8
0
100
AcDbLine
 62
7
  6
CONTINUOUS
 10
179.2185994453
 20
216.3989065681
 11
179.3026349052
 21
216.6907863781
  0
LINE
  5
63B
100
AcDbEntity
  8
0
100
AcDbLine
 62
7
  6
CONTINUOUS
 10
179.8534787034
 20
219.0265687927
 11
179.6380596706
 21
218.4163331568
  0
LINE
  5
63C
100
AcDbEntity
  8
0
100
AcDbLine
 62
7
  6
CONTINUOUS
 10
172.2628553221
 20
241.0973633091
 11
168.0477147428
 21
240.462573982
  0
LWPOLYLINE
  5
63D
100
AcDbEntity
  8
0
100
AcDbPolyline
 62
7
  6
CONTINUOUS
 90
4
 70
0
 10
169.6591845647
 20
239.2276916604
 10
168.9393009691
 20
239.9014422049
 10
168.2348183335
 20
240.2897139361
 10
168.1965239341
 20
240.295143121
  0
LWPOLYLINE
  5
63E
100
AcDbEntity
  8
0
100
AcDbPolyline
 62
7
  6
CONTINUOUS
 90
5
 70
0
 10
171.0782960932
 20
239.4419061968
 10
170.4978148038
 20
240.0055293407
 10
169.9261805214
 20
240.3854631551
 10
169.3700153589
 20
240.5780207557
 10
168.8733062505
 20
240.5869599975
  0
LINE
  5
63F
100
AcDbEntity
  8
0
100
AcDbLine
 62
7
  6
CONTINUOUS
 10
157.1486977243
 20
252.7254710981
 11
169.3955215739
 21
238.9461054349
  0
LWPOLYLINE
  5
640
100
AcDbEntity
  8
0
100
AcDbPolyline
 62
7
  6
CONTINUOUS
 90
7
 70
0
 10
178.4515391932
 20
231.9314019468
 10
178.6232249107
 20
231.4638526458
 10
179.0971261225
 20
229.8411553593
 10
179.4820186186
 20
228.1550261415
 10
179.7778283376
 20
226.4129162991
 10
179.9721313058
 20
224.6800734559
 10
180.0579211312
 20
223.0367241062
  0
LWPOLYLINE
  5
641
100
AcDbEntity
  8
0
100
AcDbPolyline
 62
7
  6
CONTINUOUS
 90
3
 70
0
 10
177.3371558933
 20
234.5549462143
 10
177.0576749119
 20
235.3249245004
 10
176.767434279
 20
236.058195278
  0
LWPOLYLINE
  5
642
100
AcDbEntity
  8
0
100
AcDbPolyline
 62
7
  6
CONTINUOUS
 90
3
 70
0
 10
176.767434279
 20
236.058195278
 10
176.5445452716
 20
236.7559340954
 10
176.2367264826
 20
237.4250854432
  0
LWPOLYLINE
  5
643
100
AcDbEntity
  8
0
100
AcDbPolyline
 62
7
  6
CONTINUOUS
 90
6
 70
0
 10
179.2708672196
 20
228.2979699756
 10
179.0166520107
 20
229.5555072335
 10
178.6956201507
 20
230.8029509279
 10
178.309057077
 20
232.044916558
 10
177.8568328471
 20
233.2914332755
 10
177.3371558933
 20
234.5549462143
  0
LWPOLYLINE
  5
644
100
AcDbEntity
  8
0
100
AcDbPolyline
 62
7
  6
CONTINUOUS
 90
8
 70
0
 10
179.2708672196
 20
228.2979699755
 10
178.9423527252
 20
229.9712822895
 10
178.5510095106
 20
231.589896246
 10
178.1036831507
 20
233.125676024
 10
177.608198922
 20
234.551989948
 10
177.07321605
 20
235.844190053
 10
176.5080670528
 20
236.9800498795
 10
176.0922992004
 20
237.6832475783
  0
LWPOLYLINE
  5
645
100
AcDbEntity
  8
0
100
AcDbPolyline
 62
7
  6
CONTINUOUS
 90
3
 70
0
 10
176.5041178957
 20
236.9867291794
 10
177.0722924375
 20
236.6837080616
 10
177.1803699495
 20
236.5983213761
  0
LWPOLYLINE
  5
646
100
AcDbEntity
  8
0
100
AcDbPolyline
 62
7
  6
CONTINUOUS
 90
5
 70
0
 10
177.9899715169
 20
235.9276898811
 10
177.985223376
 20
235.9316141197
 10
177.9498205048
 20
235.9602418979
 10
177.9116167572
 20
235.9898889002
 10
177.8804397112
 20
236.0129866824
  0
LINE
  5
647
100
AcDbEntity
  8
0
100
AcDbLine
 62
7
  6
CONTINUOUS
 10
177.8355255666
 20
236.055624849
 11
177.1807885992
 21
236.59797465
  0
LWPOLYLINE
  5
648
100
AcDbEntity
  8
0
100
AcDbPolyline
 62
7
  6
CONTINUOUS
 90
3
 70
0
 10
178.0345512792
 20
235.8898629892
 10
178.0176249512
 20
235.9044349755
 10
177.9899715169
 20
235.9276898811
  0
LINE
  5
649
100
AcDbEntity
  8
0
100
AcDbLine
 62
7
  6
CONTINUOUS
 10
178.0492509438
 20
235.8769987755
 11
178.0345512792
 21
235.8898629892
  0
LINE
  5
64A
100
AcDbEntity
  8
0
100
AcDbLine
 62
7
  6
CONTINUOUS
 10
178.064279626
 20
235.8636447517
 11
178.0492509438
 21
235.8769987755
  0
LINE
  5
64B
100
AcDbEntity
  8
0
100
AcDbLine
 62
7
  6
CONTINUOUS
 10
177.3089947947
 20
235.370858868
 11
177.2455005422
 21
235.4280532932
  0
LINE
  5
64C
100
AcDbEntity
  8
0
100
AcDbLine
 62
7
  6
CONTINUOUS
 10
178.0792987592
 20
235.8500943704
 11
178.064279626
 21
235.8636447517
  0
LINE
  5
64D
100
AcDbEntity
  8
0
100
AcDbLine
 62
7
  6
CONTINUOUS
 10
178.0943044804
 20
235.8363505378
 11
178.0792987592
 21
235.8500943704
  0
LINE
  5
64E
100
AcDbEntity
  8
0
100
AcDbLine
 62
7
  6
CONTINUOUS
 10
178.1092923486
 20
235.8224167855
 11
178.0943044804
 21
235.8363505378
  0
LINE
  5
64F
100
AcDbEntity
  8
0
100
AcDbLine
 62
7
  6
CONTINUOUS
 10
178.1242574255
 20
235.8082972194
 11
178.1092923486
 21
235.8224167855
  0
LINE
  5
650
100
AcDbEntity
  8
0
100
AcDbLine
 62
7
  6
CONTINUOUS
 10
178.2368663401
 20
235.675317949
 11
177.8347896985
 21
236.0562342422
  0
LINE
  5
651
100
AcDbEntity
  8
0
100
AcDbLine
 62
7
  6
CONTINUOUS
 10
178.1391943499
 20
235.7939964641
 11
178.1242574255
 21
235.8082972194
  0
LWPOLYLINE
  5
652
100
AcDbEntity
  8
0
100
AcDbPolyline
 62
7
  6
CONTINUOUS
 90
11
 70
0
 10
178.077705593
 20
235.8548593186
 10
178.4260564835
 20
235.5160549687
 10
178.9756991576
 20
234.7762696306
 10
179.508188025
 20
233.8076446903
 10
180.0071677817
 20
232.6395050422
 10
180.4572725931
 20
231.3074444384
 10
180.8446188693
 20
229.8522269425
 10
181.157249673
 20
228.3185195452
 10
181.3855186556
 20
226.7535032789
 10
181.5224087826
 20
225.2053526163
 10
181.5637579698
 20
223.7216934571
  0
LINE
  5
653
100
AcDbEntity
  8
0
100
AcDbLine
 62
7
  6
CONTINUOUS
 10
178.1689605616
 20
235.7648721443
 11
178.1540974027
 21
235.7795196072
  0
LINE
  5
654
100
AcDbEntity
  8
0
100
AcDbLine
 62
7
  6
CONTINUOUS
 10
178.1837775395
 20
235.7500599275
 11
178.1689605616
 21
235.7648721443
  0
LWPOLYLINE
  5
655
100
AcDbEntity
  8
0
100
AcDbPolyline
 62
7
  6
CONTINUOUS
 90
11
 70
0
 10
177.1803699495
 20
236.5983213761
 10
177.6912513724
 20
236.0844461239
 10
178.3061980053
 20
235.2233098684
 10
178.8924048811
 20
234.138640218
 10
179.4392866364
 20
232.8554328579
 10
179.9302361767
 20
231.4158801593
 10
180.3535787844
 20
229.8577736746
 10
180.6972456917
 20
228.2285395086
 10
180.9546267662
 20
226.5559591668
 10
181.1142147704
 20
224.910323622
 10
181.1721484034
 20
223.3607534051
  0
LWPOLYLINE
  5
656
100
AcDbEntity
  8
0
100
AcDbPolyline
 62
7
  6
CONTINUOUS
 90
5
 70
0
 10
175.3269281905
 20
238.7082175492
 10
174.7149787029
 20
239.3247763682
 10
174.0004268336
 20
239.9246717149
 10
173.1850447522
 20
240.5122831092
 10
172.2628553221
 20
241.0973633091
  0
LINE
  5
657
100
AcDbEntity
  8
0
100
AcDbLine
 62
7
  6
CONTINUOUS
 10
178.198541805
 20
235.7350891231
 11
178.1837775395
 21
235.7500599275
  0
LINE
  5
658
100
AcDbEntity
  8
0
100
AcDbLine
 62
7
  6
CONTINUOUS
 10
178.2132465763
 20
235.719966182
 11
178.198541805
 21
235.7350891231
  0
LINE
  5
659
100
AcDbEntity
  8
0
100
AcDbLine
 62
7
  6
CONTINUOUS
 10
178.2278847799
 20
235.7046978317
 11
178.2132465763
 21
235.719966182
  0
LWPOLYLINE
  5
65A
100
AcDbEntity
  8
0
100
AcDbPolyline
 62
7
  6
CONTINUOUS
 90
21
 70
0
 10
178.3909670781
 20
235.5072380655
 10
178.3955538885
 20
235.5023738829
 10
178.4005841753
 20
235.4971478936
 10
178.406193411
 20
235.4915829648
 10
178.4109854147
 20
235.4876411805
 10
178.4115603131
 20
235.4881591228
 10
178.4106560952
 20
235.4901207963
 10
178.4090474187
 20
235.4927713769
 10
178.4068382838
 20
235.496081429
 10
178.4043052394
 20
235.4996893349
 10
178.3990670777
 20
235.5068467467
 10
178.3933055543
 20
235.5144592465
 10
178.3872817492
 20
235.5222386356
 10
178.3810646057
 20
235.5301293701
 10
178.3747002341
 20
235.5380923281
 10
178.3682189997
 20
235.5461019257
 10
178.3616420193
 20
235.5541405122
 10
178.3549845861
 20
235.5621954136
 10
178.3482581306
 20
235.5702572391
 10
178.341471418
 20
235.5783188482
 10
178.3277433087
 20
235.5944203535
  0
LINE
  5
65B
100
AcDbEntity
  8
0
100
AcDbLine
 62
7
  6
CONTINUOUS
 10
178.2424489603
 20
235.6892911021
 11
178.2278847799
 21
235.7046978317
  0
LINE
  5
65C
100
AcDbEntity
  8
0
100
AcDbLine
 62
7
  6
CONTINUOUS
 10
178.2368663401
 20
235.675317949
 11
178.257828873
 21
235.6528477411
  0
LINE
  5
65D
100
AcDbEntity
  8
0
100
AcDbLine
 62
7
  6
CONTINUOUS
 10
178.2569311194
 20
235.6737534037
 11
178.2424489603
 21
235.6892911021
  0
LINE
  5
65E
100
AcDbEntity
  8
0
100
AcDbLine
 62
7
  6
CONTINUOUS
 10
178.3821580528
 20
235.5167308809
 11
178.3909670781
 21
235.5072380655
  0
LINE
  5
65F
100
AcDbEntity
  8
0
100
AcDbLine
 62
7
  6
CONTINUOUS
 10
178.257828873
 20
235.6528477411
 11
178.2805416825
 21
235.6282726471
  0
LINE
  5
660
100
AcDbEntity
  8
0
100
AcDbLine
 62
7
  6
CONTINUOUS
 10
178.2713224521
 20
235.6580926852
 11
178.2569311194
 21
235.6737534037
  0
LINE
  5
661
100
AcDbEntity
  8
0
100
AcDbLine
 62
7
  6
CONTINUOUS
 10
178.3677290932
 20
235.5325016951
 11
178.3821580528
 21
235.5167308809
  0
LINE
  5
662
100
AcDbEntity
  8
0
100
AcDbLine
 62
7
  6
CONTINUOUS
 10
178.2805416825
 20
235.6282726471
 11
178.3141021478
 21
235.5915876343
  0
LINE
  5
663
100
AcDbEntity
  8
0
100
AcDbLine
 62
7
  6
CONTINUOUS
 10
178.3141021478
 20
235.5915876343
 11
178.3677290932
 21
235.5325016951
  0
LINE
  5
664
100
AcDbEntity
  8
0
100
AcDbLine
 62
7
  6
CONTINUOUS
 10
178.2856129247
 20
235.6423177198
 11
178.2713224521
 21
235.6580926852
  0
LINE
  5
665
100
AcDbEntity
  8
0
100
AcDbLine
 62
7
  6
CONTINUOUS
 10
178.2997906071
 20
235.6264385952
 11
178.2856129247
 21
235.6423177198
  0
LINE
  5
666
100
AcDbEntity
  8
0
100
AcDbLine
 62
7
  6
CONTINUOUS
 10
178.3138406048
 20
235.6104675431
 11
178.2997906071
 21
235.6264385952
  0
LINE
  5
667
100
AcDbEntity
  8
0
100
AcDbLine
 62
7
  6
CONTINUOUS
 10
178.3277433087
 20
235.5944203535
 11
178.3138406048
 21
235.6104675431
  0
LWPOLYLINE
  5
668
100
AcDbEntity
  8
0
100
AcDbPolyline
 62
7
  6
CONTINUOUS
 90
3
 70
0
 10
176.0041301487
 20
237.8212435289
 10
175.8334797998
 20
238.074849661
 10
175.3269281905
 20
238.7082175492
  0
LINE
  5
669
100
AcDbEntity
  8
0
100
AcDbLine
 62
7
  6
CONTINUOUS
 10
176.2367264826
 20
237.4250854432
 11
176.0041301487
 21
237.8212435289
  0
LWPOLYLINE
  5
66A
100
AcDbEntity
  8
0
100
AcDbPolyline
 62
7
  6
CONTINUOUS
 90
3
 70
0
 10
156.9186739154
 20
252.8377830462
 10
157.0163675623
 20
252.8277480342
 10
157.1486977243
 20
252.7254710981
  0
LINE
  5
66B
100
AcDbEntity
  8
0
100
AcDbLine
 62
7
  6
CONTINUOUS
 10
139.9532186743
 20
248.8560474402
 11
157.1486977243
 21
252.7254710981
  0
LINE
  5
66C
100
AcDbEntity
  8
0
100
AcDbLine
 62
7
  6
CONTINUOUS
 10
139.7031642407
 20
248.9644290515
 11
156.9182448262
 21
252.8377646674
  0
CIRCLE
  5
66D
100
AcDbEntity
  8
0
100
AcDbCircle
 62
7
  6
CONTINUOUS
 10
86.1783377761
 20
34.8664854626
 40
2.5696458958
  0
CIRCLE
  5
66E
100
AcDbEntity
  8
0
100
AcDbCircle
 62
7
  6
CONTINUOUS
 10
86.1783377761
 20
34.8664854626
 40
1.2848229479
  0
ARC
  5
66F
100
AcDbEntity
  8
0
100
AcDbCircle
 62
7
  6
CONTINUOUS
 10
75.0
 20
99.25
 40
4.0
100
AcDbArc
 50
236.564350382
 51
303.4356496178
  0
ARC
  5
670
100
AcDbEntity
  8
0
100
AcDbCircle
 62
7
  6
CONTINUOUS
 10
75.0
 20
99.25
 40
3.7307444597
100
AcDbArc
 50
243.1625142619
 51
296.8374858357
  0
ARC
  5
671
100
AcDbEntity
  8
0
100
AcDbCircle
 62
7
  6
CONTINUOUS
 10
75.0
 20
99.25
 40
3.4309272116
100
AcDbArc
 50
255.944964856
 51
284.0547980882
  0
ARC
  5
672
100
AcDbEntity
  8
0
100
AcDbCircle
 62
7
  6
CONTINUOUS
 10
97.5235253036
 20
97.4764746964
 40
1.5028323395
100
AcDbArc
 50
270.1857571993
 51
359.8142428007
  0
ARC
  5
673
100
AcDbEntity
  8
0
100
AcDbCircle
 62
7
  6
CONTINUOUS
 10
52.4764746964
 20
142.5235253036
 40
1.5028323395
100
AcDbArc
 50
90.1857571997
 51
179.8142428003
  0
ARC
  5
674
100
AcDbEntity
  8
0
100
AcDbCircle
 62
7
  6
CONTINUOUS
 10
52.4756827404
 20
108.5254613672
 40
1.5020255577
100
AcDbArc
 50
180.0644706891
 51
224.9355293109
  0
ARC
  5
675
100
AcDbEntity
  8
0
100
AcDbCircle
 62
7
  6
CONTINUOUS
 10
86.4745386328
 20
142.5243172596
 40
1.5020255577
100
AcDbArc
 50
45.0644706891
 51
89.9355293109
  0
ARC
  5
676
100
AcDbEntity
  8
0
100
AcDbCircle
 62
7
  6
CONTINUOUS
 10
97.5243172596
 20
131.4745386328
 40
1.5020255577
100
AcDbArc
 50
0.0644706891
 51
44.9355293109
  0
ARC
  5
677
100
AcDbEntity
  8
0
100
AcDbCircle
 62
7
  6
CONTINUOUS
 10
63.5254613672
 20
97.4756827404
 40
1.5020255577
100
AcDbArc
 50
225.0644706891
 51
269.9355293109
  0
ARC
  5
678
100
AcDbEntity
  8
0
100
AcDbCircle
 62
7
  6
CONTINUOUS
 10
159.9633774374
 20
124.8588268095
 40
9.2252204672
100
AcDbArc
 50
0.8767872149
 51
70.8735447789
  0
ARC
  5
679
100
AcDbEntity
  8
0
100
AcDbCircle
 62
7
  6
CONTINUOUS
 10
159.9873098979
 20
124.9994682749
 40
9.2006756564
100
AcDbArc
 50
359.9956702758
 51
3.7807526915
  0
ARC
  5
67A
100
AcDbEntity
  8
0
100
AcDbCircle
 62
7
  6
CONTINUOUS
 10
159.9998625916
 20
124.99914699
 40
9.1888535445
100
AcDbArc
 50
70.835533954
 51
89.7739210576
  0
ARC
  5
67B
100
AcDbEntity
  8
0
100
AcDbCircle
 62
7
  6
CONTINUOUS
 10
148.2248737342
 20
143.25
 40
0.6
100
AcDbArc
 50
90.0
 51
135.0
  0
ARC
  5
67C
100
AcDbEntity
  8
0
100
AcDbCircle
 62
7
  6
CONTINUOUS
 10
136.75
 20
131.7751262658
 40
0.6
100
AcDbArc
 50
135.0
 51
180.0
  0
ARC
  5
67D
100
AcDbEntity
  8
0
100
AcDbCircle
 62
7
  6
CONTINUOUS
 10
148.1213203436
 20
143.5
 40
0.5
100
AcDbArc
 50
90.0
 51
135.0
  0
ARC
  5
67E
100
AcDbEntity
  8
0
100
AcDbCircle
 62
7
  6
CONTINUOUS
 10
136.5
 20
131.8786796564
 40
0.5
100
AcDbArc
 50
135.0
 51
180.0
  0
ARC
  5
67F
100
AcDbEntity
  8
0
100
AcDbCircle
 62
7
  6
CONTINUOUS
 10
136.5
 20
131.8786796564
 40
0.4554895844
100
AcDbArc
 50
135.0
 51
180.0
  0
ARC
  5
680
100
AcDbEntity
  8
0
100
AcDbCircle
 62
7
  6
CONTINUOUS
 10
148.1213203436
 20
143.5
 40
0.4554895844
100
AcDbArc
 50
90.0
 51
135.0
  0
CIRCLE
  5
681
100
AcDbEntity
  8
0
100
AcDbCircle
 62
7
  6
CONTINUOUS
 10
160.0
 20
125.0
 40
12.6205378924
  0
ARC
  5
682
100
AcDbEntity
  8
0
100
AcDbCircle
 62
7
  6
CONTINUOUS
 10
160.0
 20
125.0
 40
11.0
100
AcDbArc
 50
96.5249788441
 51
83.4750211559
  0
ARC
  5
683
100
AcDbEntity
  8
0
100
AcDbCircle
 62
7
  6
CONTINUOUS
 10
160.0
 20
125.0
 40
10.926629109
100
AcDbArc
 50
96.5689855645
 51
83.4310144355
  0
ARC
  5
684
100
AcDbEntity
  8
0
100
AcDbCircle
 62
7
  6
CONTINUOUS
 10
160.0
 20
125.0
 40
10.0
100
AcDbArc
 50
55.5313605445
 51
52.5912226071
  0
ARC
  5
685
100
AcDbEntity
  8
0
100
AcDbCircle
 62
7
  6
CONTINUOUS
 10
160.0000173878
 20
125.0000213471
 40
9.1879603592
100
AcDbArc
 50
3.7825364697
 51
70.8346558242
  0
CIRCLE
  5
686
100
AcDbEntity
  8
0
100
AcDbCircle
 62
7
  6
CONTINUOUS
 10
160.0
 20
125.0
 40
9.0
  0
CIRCLE
  5
687
100
AcDbEntity
  8
0
100
AcDbCircle
 62
7
  6
CONTINUOUS
 10
160.0
 20
125.0
 40
7.8
  0
CIRCLE
  5
688
100
AcDbEntity
  8
0
100
AcDbCircle
 62
7
  6
CONTINUOUS
 10
160.0
 20
125.0
 40
7.3460299966
  0
ARC
  5
689
100
AcDbEntity
  8
0
100
AcDbCircle
 62
7
  6
CONTINUOUS
 10
183.25
 20
108.2248737342
 40
0.6
100
AcDbArc
 50
315.0
 51
360.0
  0
ARC
  5
68A
100
AcDbEntity
  8
0
100
AcDbCircle
 62
7
  6
CONTINUOUS
 10
183.5
 20
108.1213203436
 40
0.5
100
AcDbArc
 50
315.0
 51
360.0
  0
ARC
  5
68B
100
AcDbEntity
  8
0
100
AcDbCircle
 62
7
  6
CONTINUOUS
 10
183.5
 20
108.1213203436
 40
0.4554895844
100
AcDbArc
 50
315.0
 51
360.0
  0
ARC
  5
68C
100
AcDbEntity
  8
0
100
AcDbCircle
 62
7
  6
CONTINUOUS
 10
160.0
 20
136.25
 40
1.25
100
AcDbArc
 50
0.0
 51
180.0
  0
ARC
  5
68D
100
AcDbEntity
  8
0
100
AcDbCircle
 62
7
  6
CONTINUOUS
 10
183.25
 20
143.25
 40
0.6
100
AcDbArc
 50
0.0
 51
90.0
  0
ARC
  5
68E
100
AcDbEntity
  8
0
100
AcDbCircle
 62
7
  6
CONTINUOUS
 10
183.5
 20
143.5
 40
0.5
100
AcDbArc
 50
0.0
 51
90.0
  0
ARC
  5
68F
100
AcDbEntity
  8
0
100
AcDbCircle
 62
7
  6
CONTINUOUS
 10
183.5
 20
143.5
 40
0.4554895844
100
AcDbArc
 50
0.0
 51
90.0
  0
CIRCLE
  5
690
100
AcDbEntity
  8
0
100
AcDbCircle
 62
7
  6
CONTINUOUS
 10
89.1
 20
216.515
 40
1.5
  0
ARC
  5
691
100
AcDbEntity
  8
0
100
AcDbCircle
 62
7
  6
CONTINUOUS
 10
97.5283975643
 20
235.485
 40
1.5
100
AcDbArc
 50
3.0
 51
90.0
  0
ARC
  5
692
100
AcDbEntity
  8
NOGEOM
100
AcDbCircle
 62
7
  6
CONTINUOUS
 10
60.9
 20
216.515
 40
1.5
100
AcDbArc
 50
161.6589406597
 51
270.0
  0
ARC
  5
693
100
AcDbEntity
  8
0
100
AcDbCircle
 62
7
  6
CONTINUOUS
 10
52.4716024357
 20
235.485
 40
1.5
100
AcDbArc
 50
90.0
 51
176.9999999986
  0
ARC
  5
694
100
AcDbEntity
  8
0
100
AcDbCircle
 62
7
  6
CONTINUOUS
 10
84.55
 20
234.285
 40
0.4
100
AcDbArc
 50
0.0
 51
90.0
  0
ARC
  5
695
100
AcDbEntity
  8
0
100
AcDbCircle
 62
7
  6
CONTINUOUS
 10
96.39279648
 20
234.285
 40
0.4
100
AcDbArc
 50
3.0
 51
90.0
  0
ARC
  5
696
100
AcDbEntity
  8
0
100
AcDbCircle
 62
7
  6
CONTINUOUS
 10
86.7033286308
 20
234.285
 40
0.4
100
AcDbArc
 50
90.0
 51
177.0
  0
ARC
  5
697
100
AcDbEntity
  8
0
100
AcDbCircle
 62
7
  6
CONTINUOUS
 10
72.5691032535
 20
227.215
 40
0.3
100
AcDbArc
 50
90.0058184176
 51
178.0002029954
  0
SPLINE
  5
698
100
AcDbEntity
  8
0
100
AcDbSpline
 62
7
  6
CONTINUOUS
 70
0
 71
3
 72
21
 73
17
 74
0
 42
0.0000001
 43
0.0000001
 44
0.0000000001
 40
0.0
 40
0.0
 40
0.0
 40
0.0
 40
0.0625345083
 40
0.1250842623
 40
0.1876175958
 40
0.2501562207
 40
0.3126948422
 40
0.375233977
 40
0.5000081078
 40
0.6247784085
 40
0.6873151296
 40
0.7498511655
 40
0.8123897843
 40
0.8749241537
 40
0.9374695452
 40
1.0
 40
1.0
 40
1.0
 40
1.0
 10
166.0749753247
 20
132.9432156463
 30
0.0
 10
165.7093060019
 20
133.2142084954
 30
0.0
 10
164.9397330077
 20
133.7068442777
 30
0.0
 10
163.6962523825
 20
134.2809139372
 30
0.0
 10
162.3855854484
 20
134.6794362549
 30
0.0
 10
161.0328693669
 20
134.8946269699
 30
0.0
 10
159.663100708
 20
134.9217752815
 30
0.0
 10
157.8524828636
 20
134.7070376895
 30
0.0
 10
155.67064441
 20
133.971133804
 30
0.0
 10
153.7756061939
 20
132.6625852545
 30
0.0
 10
152.5228867764
 20
131.3376802056
 30
0.0
 10
151.7292732729
 20
130.2207919749
 30
0.0
 10
151.0997966575
 20
129.0040988076
 30
0.0
 10
150.646699239
 20
127.7110866068
 30
0.0
 10
150.3797239298
 20
126.3675788941
 30
0.0
 10
150.3294309201
 20
125.4550533178
 30
0.0
 10
150.3365580343
 20
124.9999999935
 30
0.0
  0
SPLINE
  5
699
100
AcDbEntity
  8
0
100
AcDbSpline
 62
7
  6
CONTINUOUS
 70
0
 71
3
 72
27
 73
23
 74
0
 42
0.0000001
 43
0.0000001
 44
0.0000000001
 40
0.0
 40
0.0
 40
0.0
 40
0.0
 40
0.0624870138
 40
0.0937671744
 40
0.1250438527
 40
0.1875294924
 40
0.2500113158
 40
0.2812891147
 40
0.3125674425
 40
0.375049938
 40
0.4375308598
 40
0.5000117371
 40
0.5624912461
 40
0.6249702998
 40
0.6874507758
 40
0.7187298315
 40
0.7500086015
 40
0.8124863791
 40
0.8749655266
 40
0.906242015
 40
0.9375208485
 40
1.0
 40
1.0
 40
1.0
 40
1.0
 10
150.3365580343
 20
124.9999999935
 30
0.0
 10
150.3462056157
 20
124.3840193978
 30
0.0
 10
150.4498551854
 20
123.4578859475
 30
0.0
 10
150.7620122991
 20
122.263849379
 30
0.0
 10
151.1872927816
 20
121.104893271
 30
0.0
 10
151.9254122402
 20
119.7412888511
 30
0.0
 10
152.9122672304
 20
118.5451564785
 30
0.0
 10
153.8274388398
 20
117.7167157758
 30
0.0
 10
154.8185254393
 20
116.9808256813
 30
0.0
 10
156.1848908548
 20
116.2469464584
 30
0.0
 10
157.9627104319
 20
115.7016874424
 30
0.0
 10
159.8129427379
 20
115.5123694947
 30
0.0
 10
161.6646085613
 20
115.6877485156
 30
0.0
 10
163.4459821385
 20
116.2218496017
 30
0.0
 10
164.8154171736
 20
116.9506685313
 30
0.0
 10
165.8073042949
 20
117.6856056652
 30
0.0
 10
166.721572132
 20
118.515119537
 30
0.0
 10
167.7029304677
 20
119.7164019288
 30
0.0
 10
168.4261857729
 20
121.0886724059
 30
0.0
 10
168.8321588799
 20
122.2546067511
 30
0.0
 10
169.1196176859
 20
123.4548515187
 30
0.0
 10
169.1980483252
 20
124.3841039788
 30
0.0
 10
169.1879610186
 20
125.0000000062
 30
0.0
  0
SPLINE
  5
69A
100
AcDbEntity
  8
0
100
AcDbSpline
 62
7
  6
CONTINUOUS
 70
0
 71
3
 72
47
 73
43
 74
0
 42
0.0000001
 43
0.0000001
 44
0.0000000001
 40
0.0
 40
0.0
 40
0.0
 40
0.0
 40
0.0312415908
 40
0.0468516992
 40
0.0546522653
 40
0.0624483843
 40
0.0702381055
 40
0.0780177902
 40
0.0857793136
 40
0.0934953937
 40
0.0972837996
 40
0.0992166587
 40
0.1008007216
 40
0.101523602
 40
0.1022946553
 40
0.1032346646
 40
0.1042295869
 40
0.1061115989
 40
0.1080195495
 40
0.1118858408
 40
0.1157645121
 40
0.1235448735
 40
0.1313415254
 40
0.1391462958
 40
0.1469561198
 40
0.1547693369
 40
0.1704024276
 40
0.186041257
 40
0.2016837625
 40
0.2173288062
 40
0.2486239306
 40
0.2799234679
 40
0.3112258441
 40
0.3425301718
 40
0.3738359046
 40
0.4364492821
 40
0.4990653761
 40
0.5616831505
 40
0.6243021022
 40
0.7495329769
 40
0.874765812
 40
1.0
 40
1.0
 40
1.0
 40
1.0
 10
160.0361200772
 20
134.1879290017
 30
0.0
 10
159.9969364575
 20
134.1856747117
 30
0.0
 10
159.9382052529
 20
134.1816883703
 30
0.0
 10
159.8698079328
 20
134.1756739493
 30
0.0
 10
159.8307994125
 20
134.1717506041
 30
0.0
 10
159.8015962368
 20
134.1685298263
 30
0.0
 10
159.7724582732
 20
134.1649583439
 30
0.0
 10
159.7434211246
 20
134.1609965995
 30
0.0
 10
159.7145605346
 20
134.1562703531
 30
0.0
 10
159.690813327
 20
134.1519969052
 30
0.0
 10
159.6744455553
 20
134.1470109213
 30
0.0
 10
159.6659292801
 20
134.1446365363
 30
0.0
 10
159.6606815946
 20
134.1412350205
 30
0.0
 10
159.6611515178
 20
134.1369249118
 30
0.0
 10
159.6636877357
 20
134.1348844707
 30
0.0
 10
159.6669583193
 20
134.1339339753
 30
0.0
 10
159.6716264173
 20
134.1328429458
 30
0.0
 10
159.6774639702
 20
134.1313947691
 30
0.0
 10
159.686954367
 20
134.1297957064
 30
0.0
 10
159.6989829706
 20
134.1282446641
 30
0.0
 10
159.718387266
 20
134.1262566176
 30
0.0
 10
159.7427586018
 20
134.1243672282
 30
0.0
 10
159.7720767825
 20
134.1225482754
 30
0.0
 10
159.8014473683
 20
134.1209961656
 30
0.0
 10
159.8308466091
 20
134.1196052626
 30
0.0
 10
159.8700756472
 20
134.1178851
 30
0.0
 10
159.9191369421
 20
134.1158810191
 30
0.0
 10
159.9780273863
 20
134.1135143963
 30
0.0
 10
160.0369301374
 20
134.1110795822
 30
0.0
 10
160.1154772126
 20
134.1076509509
 30
0.0
 10
160.2136549346
 20
134.1029029539
 30
0.0
 10
160.3314294132
 20
134.0962327997
 30
0.0
 10
160.4491480547
 20
134.0884586871
 30
0.0
 10
160.5667902169
 20
134.0794937759
 30
0.0
 10
160.7235186414
 20
134.0658747529
 30
0.0
 10
160.9191438194
 20
134.0456164532
 30
0.0
 10
161.1532776234
 20
134.0159101328
 30
0.0
 10
161.386654218
 20
133.9806793429
 30
0.0
 10
161.6965931855
 20
133.9262394672
 30
0.0
 10
162.0814110441
 20
133.8440521611
 30
0.0
 10
162.5377147173
 20
133.7226971665
 30
0.0
 10
162.837530327
 20
133.6266781177
 30
0.0
 10
162.9861091608
 20
133.5749374659
 30
0.0
  0
SPLINE
  5
69B
100
AcDbEntity
  8
0
100
AcDbSpline
 62
7
  6
CONTINUOUS
 70
0
 71
3
 72
15
 73
11
 74
0
 42
0.0000001
 43
0.0000001
 44
0.0000000001
 40
0.0
 40
0.0
 40
0.0
 40
0.0
 40
0.1249782967
 40
0.2499539703
 40
0.3749436683
 40
0.4999408239
 40
0.6249453246
 40
0.7499579497
 40
0.8749733108
 40
1.0
 40
1.0
 40
1.0
 40
1.0
 10
160.0361200772
 20
134.1879290017
 30
0.0
 10
160.6099502558
 20
134.2209422769
 30
0.0
 10
161.7666921548
 20
134.1786262949
 30
0.0
 10
163.4575582213
 20
133.7952977016
 30
0.0
 10
165.0502311623
 20
133.1090157691
 30
0.0
 10
166.4920519614
 20
132.14568543
 30
0.0
 10
167.7379335675
 20
130.9397311614
 30
0.0
 10
168.7501273036
 20
129.5318760178
 30
0.0
 10
169.49939614
 20
127.9688179131
 30
0.0
 10
169.8103307893
 20
126.8545874489
 30
0.0
 10
169.9165141998
 20
126.2894751352
 30
0.0
  0
ELLIPSE
  5
69C
100
AcDbEntity
  8
0
100
AcDbEllipse
 62
7
  6
CONTINUOUS
 10
98.497941481
 20
96.502058519
 30
0.0
 11
1.0635693652
 21
-1.0635693652
 31
0.0
 40
0.9972646886
 41
-0.4459615503
 42
0.7840286355
  0
ELLIPSE
  5
69D
100
AcDbEntity
  8
0
100
AcDbEllipse
 62
7
  6
CONTINUOUS
 10
98.497941481
 20
131.87782699
 30
0.0
 11
1.3880471618
 21
0.5749479596
 31
0.0
 40
0.9983949659
 41
-0.3921314831
 42
0.3921314831
  0
ELLIPSE
  5
69E
100
AcDbEntity
  8
0
100
AcDbEllipse
 62
7
  6
CONTINUOUS
 10
86.87782699
 20
143.497941481
 30
0.0
 11
0.5749479596
 21
1.3880471618
 31
0.0
 40
0.9983949659
 41
-0.3921314831
 42
0.3921314831
  0
ELLIPSE
  5
69F
100
AcDbEntity
  8
0
100
AcDbEllipse
 62
7
  6
CONTINUOUS
 10
51.502058519
 20
143.497941481
 30
0.0
 11
1.0635693652
 21
-1.0635693652
 31
0.0
 40
0.9972646886
 41
2.3575640181
 42
3.9256212891
  0
ELLIPSE
  5
6A0
100
AcDbEntity
  8
0
100
AcDbEllipse
 62
7
  6
CONTINUOUS
 10
51.502058519
 20
108.12217301
 30
0.0
 11
1.3880471618
 21
0.5749479596
 31
0.0
 40
0.9983949659
 41
2.7494611705
 42
3.5337241367
  0
ELLIPSE
  5
6A1
100
AcDbEntity
  8
0
100
AcDbEllipse
 62
7
  6
CONTINUOUS
 10
63.12217301
 20
96.502058519
 30
0.0
 11
0.5749479596
 21
1.3880471618
 31
0.0
 40
0.9983949659
 41
-3.5337241367
 42
-2.7494611705
  0
ELLIPSE
  5
6A2
100
AcDbEntity
  8
0
100
AcDbEllipse
 62
7
  6
CONTINUOUS
 10
98.3643016438
 20
96.6356983562
 30
0.0
 11
1.0635693652
 21
-1.0635693652
 31
0.0
 40
0.9972646886
 41
-0.7840286355
 42
-0.38223941
  0
ELLIPSE
  5
6A3
100
AcDbEntity
  8
0
100
AcDbEllipse
 62
7
  6
CONTINUOUS
 10
66.6947015586
 20
95.9066545816
 30
0.0
 11
0.5660737154
 21
-0.0007773806
 31
0.0
 40
0.0370070051
 41
1.6078880943
 42
3.1263245436
  0
ELLIPSE
  5
6A4
100
AcDbEntity
  8
0
100
AcDbEllipse
 62
7
  6
CONTINUOUS
 10
96.39279648
 20
95.9066545816
 30
0.0
 11
0.4
 21
0.0
 31
0.0
 40
0.0524077793
 41
0.0523598776
 42
1.5707963268
  0
ELLIPSE
  5
6A5
100
AcDbEntity
  8
0
100
AcDbEllipse
 62
7
  6
CONTINUOUS
 10
99.250723419
 20
95.749276581
 30
0.0
 11
-0.6377009169
 21
2.7020808209
 31
0.0
 40
0.1461761045
 41
-4.5623689909
 42
-4.4986468506
  0
ELLIPSE
  5
6A6
100
AcDbEntity
  8
0
100
AcDbEllipse
 62
7
  6
CONTINUOUS
 10
136.502058519
 20
96.502058519
 30
0.0
 11
1.0635693652
 21
1.0635693652
 31
0.0
 40
0.9972646886
 41
2.3575640181
 42
3.5875542039
  0
ELLIPSE
  5
6A7
100
AcDbEntity
  8
0
100
AcDbEllipse
 62
7
  6
CONTINUOUS
 10
136.502058519
 20
131.87782699
 30
0.0
 11
1.3880471618
 21
-0.5749479596
 31
0.0
 40
0.9983949659
 41
2.7494611705
 42
3.5337241367
  0
ELLIPSE
  5
6A8
100
AcDbEntity
  8
0
100
AcDbEllipse
 62
7
  6
CONTINUOUS
 10
148.12217301
 20
143.497941481
 30
0.0
 11
0.5749479596
 21
-1.3880471618
 31
0.0
 40
0.9983949659
 41
2.7494611705
 42
3.5337241367
  0
ELLIPSE
  5
6A9
100
AcDbEntity
  8
0
100
AcDbEllipse
 62
7
  6
CONTINUOUS
 10
183.497941481
 20
143.497941481
 30
0.0
 11
-1.0635693652
 21
-1.0635693652
 31
0.0
 40
0.9972646886
 41
2.3575640181
 42
3.9256212891
  0
ELLIPSE
  5
6AA
100
AcDbEntity
  8
0
100
AcDbEllipse
 62
7
  6
CONTINUOUS
 10
183.497941481
 20
108.12217301
 30
0.0
 11
-1.3880471618
 21
0.5749479596
 31
0.0
 40
0.9983949659
 41
2.7494611705
 42
3.5337241367
  0
ELLIPSE
  5
6AB
100
AcDbEntity
  8
0
100
AcDbEllipse
 62
7
  6
CONTINUOUS
 10
171.87782699
 20
96.502058519
 30
0.0
 11
0.5749479596
 21
-1.3880471618
 31
0.0
 40
0.9983949659
 41
-0.3921314831
 42
0.3921314831
  0
ELLIPSE
  5
6AC
100
AcDbEntity
  8
0
100
AcDbEllipse
 62
7
  6
CONTINUOUS
 10
136.6356983562
 20
96.6356983562
 30
0.0
 11
-1.0635693652
 21
-1.0635693652
 31
0.0
 40
0.9972646886
 41
6.6654247172
 42
7.0672139427
  0
ELLIPSE
  5
6AD
100
AcDbEntity
  8
0
100
AcDbEllipse
 62
7
  6
CONTINUOUS
 10
135.749276581
 20
95.749276581
 30
0.0
 11
0.6377009169
 21
2.7020808209
 31
0.0
 40
0.1461761045
 41
-1.7845384566
 42
-1.7208163163
  0
ENDSEC
  0
SECTION
  2
OBJECTS
  0
DICTIONARY
  5
C
100
AcDbDictionary
280
0
281
1
  3
ACAD_GROUP
350
D
  3
ACAD_MLINESTYLE
350
17
  3
ACAD_LAYOUT
350
1A
  3
ACAD_PLOTSETTINGS
350
19
  3
ACAD_PLOTSTYLENAME
350
E
  3
ACAD_TABLESTYLE
350
       6AE
  0
DICTIONARY
  5
D
102
{ACAD_REACTORS
330
C
102
}
100
AcDbDictionary
280
0
281
1
  0
ACDBDICTIONARYWDFLT
  5
E
102
{ACAD_REACTORS
330
C
102
}
100
AcDbDictionary
281
1
  3
Normal
350
F
100
AcDbDictionaryWithDefault
340
F
  0
DICTIONARY
  5
17
102
{ACAD_REACTORS
330
C
102
}
100
AcDbDictionary
280
0
281
1
  3
Standard
350
18
  0
DICTIONARY
  5
6AE
330
C
100
AcDbDictionary
281
1
  3
Standard
350
       6B1
  3
Standard1
350
       6B2
  0
DICTIONARY
  5
19
102
{ACAD_REACTORS
330
C
102
}
100
AcDbDictionary
281
1
  0
DICTIONARY
  5
1A
102
{ACAD_REACTORS
330
C
102
}
100
AcDbDictionary
281
1
  3
Model
350
6AF
  3
Layout1
350
6B0
  0
ACDBPLACEHOLDER
  5
F
102
{ACAD_REACTORS
330
E
102
}
  0
MLINESTYLE
  5
18
102
{ACAD_REACTORS
330
17
102
}
100
AcDbMlineStyle
  2
STANDARD
 70
0
  3

 62
256
 51
90.0
 52
90.0
 71
2
 49
0.5
 62
256
  6
BYLAYER
 49
-0.5
 62
256
  6
BYLAYER
  0
LAYOUT
  5
6AF
102
{ACAD_REACTORS
330
1A
102
}
100
AcDbPlotSettings
  1

  2
none_device
  4

  6

 40
0.0
 41
0.0
 42
0.0
 43
0.0
 44
210.0
 45
297.0
 46
0.0
 47
0.0
 48
0.0
 49
0.0
140
0.0
141
0.0
142
1.0
143
1.0
 70
1024
 72
1
 73
0
 74
0
  7

 75
0
147
1.0
148
0.0
149
0.0
100
AcDbLayout
  1
Model
 70
0
 71
0
 10
0.0
 20
0.0
 11
210.0
 21
297.0
 12
0.0
 22
0.0
 32
0.0
 14
0.0
 24
0.0
 34
0.0
 15
0.0
 25
0.0
 35
0.0
146
0.0
 13
0.0
 23
0.0
 33
0.0
 16
1.0
 26
0.0
 36
0.0
 17
0.0
 27
1.0
 37
0.0
 76
0
330
205
345
0
346
0
  0
LAYOUT
  5
6B0
102
{ACAD_REACTORS
330
1A
102
}
100
AcDbPlotSettings
  1

  2
none_device
  4

  6

 40
0.0
 41
0.0
 42
0.0
 43
0.0
 44
210.0
 45
297.0
 46
0.0
 47
0.0
 48
0.0
 49
0.0
140
0.0
141
0.0
142
1.0
143
1.0
 70
0
 72
1
 73
0
 74
0
  7

 75
0
147
1.0
148
0.0
149
0.0
100
AcDbLayout
  1
Layout1
 70
0
 71
1
 10
0.0
 20
0.0
 11
210.0
 21
297.0
 12
0.0
 22
0.0
 32
0.0
 14
0.0
 24
0.0
 34
0.0
 15
0.0
 25
0.0
 35
0.0
146
0.0
 13
0.0
 23
0.0
 33
0.0
 16
1.0
 26
0.0
 36
0.0
 17
0.0
 27
1.0
 37
0.0
 76
0
330
206
345
0
346
0
  0
TABLESTYLE
  5
6B1
102
{ACAD_REACTORS
330
6AE
330
44D
330
44E
330
44F
330
452
330
453
102
}
330
6AE
100
AcDbTableStyle
  3
Standard
 70
0
 71
0
 40
0.06
 41
0.06
280
1
281
1
  7
Standard
140
0.18
170
1
 62
0
 63
7
283
0
  7
Standard
140
0.18
170
1
 62
0
 63
7
283
0
  7
Standard
140
0.18
170
1
 62
0
 63
7
283
0
  0
TABLESTYLE
  5
6B2
102
{ACAD_REACTORS
330
6AE
330
44C
330
450
330
451
102
}
330
6AE
100
AcDbTableStyle
  3
Standard1
 70
1
 71
0
 40
0.06
 41
0.06
280
1
281
1
  7
Standard
140
0.18
170
1
 62
0
 63
7
283
0
  7
Standard
140
0.18
170
1
 62
0
 63
7
283
0
  7
Standard
140
0.18
170
1
 62
0
 63
7
283
0
  0
ENDSEC
  0
EOF
