  0
SECTION
  2
HEADER
  9
$ACADVER
  1
AC1015
  9
$DWGCODEPAGE
  3
ANSI_1252
  9
$EXTMAX
 10
210.0
 20
297.0
 30
0.0
  9
$EXTMIN
 10
0.0
 20
0.0
 30
0.0
  9
$LIMMIN
 10
0.0
 20
0.0
  9
$LIMMAX
 10
210.0
 20
297.0
  9
$VIEWCTR
 10
105.0
 20
148.5
  9
$VIEWSIZE
 40
297.0
  9
$CLAYER
  8
0
  9
$LTSCALE
 40
19.36
  9
$CELTYPE
  6
BYLAYER
  9
$DIMSCALE
 40
1.0
  9
$DIMASZ
 40
2.0
  9
$DIMEXO
 40
2.2
  9
$DIMDLI
 40
13.376
  9
$DIMEXE
 40
6.336
  9
$DIMCEN
 40
3.168
  9
$DIMLFAC
 40
1.0
  9
$DIMBLK
  1
_FILLED
  9
$DIMTXT
 40
2.0
  9
$DIMTOL
 70
1
  9
$DIMLIM
 70
0
  9
$DIMTFAC
 40
1.0
  9
$DIMTP
 40
0.01
  9
$DIMTM
 40
0.01
  9
$PDMODE
 70
3
  9
$PDSIZE
 40
0.1
  9
$HANDSEED
  5
6CE
  9
$MEASUREMENT
 70
1
  9
$INSUNITS
 70
4
  0
ENDSEC
  0
SECTION
  2
CLASSES
  0
CLASS
  1
ACDBDICTIONARYWDFLT
  2
AcDbDictionaryWithDefault
  3
AutoCAD 2000
 90
0
280
0
281
0
  0
CLASS
  1
ACDBPLACEHOLDER
  2
AcDbPlaceHolder
  3
AutoCAD 2000
 90
0
280
0
281
0
  0
CLASS
  1
LAYOUT
  2
AcDbLayout
  3
AutoCAD 2000
 90
0
280
0
281
0
  0
ENDSEC
  0
SECTION
  2
TABLES
  0
TABLE
  2
VPORT
  5
8
100
AcDbSymbolTable
 70
2
  0
VPORT
  5
1F4
100
AcDbSymbolTableRecord
100
AcDbViewportTableRecord
  2
*ACTIVE
 70
0
 10
0.0
 20
0.0
 11
1.0
 21
1.0
 12
105.0
 22
148.5
 13
0.0
 23
0.0
 14
1.0
 24
1.0
 15
0.0
 25
0.0
 16
0.0
 26
0.0
 36
1.0
 17
0.0
 27
0.0
 37
0.0
 40
297.0
 41
0.7070707071
 42
50.0
 43
0.0
 44
0.0
 50
0.0
 51
0.0
 71
0
 72
100
 73
1
 74
1
 75
0
 76
0
 77
0
 78
0
  0
ENDTAB
  0
TABLE
  2
LTYPE
  5
5
100
AcDbSymbolTable
 70
6
  0
LTYPE
  5
14
100
AcDbSymbolTableRecord
100
AcDbLinetypeTableRecord
  2
BYBLOCK
 70
0
  3

 72
65
 73
0
 40
0.0
  0
LTYPE
  5
15
100
AcDbSymbolTableRecord
100
AcDbLinetypeTableRecord
  2
BYLAYER
 70
0
  3

 72
65
 73
0
 40
0.0
  0
LTYPE
  5
16
100
AcDbSymbolTableRecord
100
AcDbLinetypeTableRecord
  2
CONTINUOUS
 70
64
  3
Solid line
 72
65
 73
0
 40
0.0
  0
LTYPE
  5
1F5
100
AcDbSymbolTableRecord
100
AcDbLinetypeTableRecord
  2
CENTER
 70
64
  3
____ _ ____ _ ____ _ ____ _ ____ _ ____ _ ____
 72
65
 73
4
 40
0.6
 49
0.375
 74
0
 49
-0.075
 74
0
 49
0.075
 74
0
 49
-0.075
 74
0
  0
LTYPE
  5
1F6
100
AcDbSymbolTableRecord
100
AcDbLinetypeTableRecord
  2
HIDDEN
 70
64
  3
- - - - - - - - - - - - - - - - - - - -
 72
65
 73
2
 40
0.2
 49
0.1
 74
0
 49
-0.1
 74
0
  0
LTYPE
  5
1F7
100
AcDbSymbolTableRecord
100
AcDbLinetypeTableRecord
  2
PHANTOM
 70
64
  3
_____ _ _ _____ _ _ _____ _ _ _____
 72
65
 73
6
 40
0.8
 49
0.45
 74
0
 49
-0.05
 74
0
 49
0.1
 74
0
 49
-0.05
 74
0
 49
0.1
 74
0
 49
-0.05
 74
0
  0
LTYPE
  5
1F8
100
AcDbSymbolTableRecord
100
AcDbLinetypeTableRecord
  2
DOT
 70
64
  3
. . . . . . . . . . . . . . . . . . . .
 72
65
 73
2
 40
0.2
 49
0.1
 74
0
 49
-0.1
 74
0
  0
LTYPE
  5
1F9
100
AcDbSymbolTableRecord
100
AcDbLinetypeTableRecord
  2
DASHED
 70
64
  3
- - - - - - - - - - - - - - - - - - - -
 72
65
 73
2
 40
0.2
 49
0.1
 74
0
 49
-0.1
 74
0
  0
ENDTAB
  0
TABLE
  2
LAYER
  5
2
100
AcDbSymbolTable
 70
36
  0
LAYER
  5
10
100
AcDbSymbolTableRecord
100
AcDbLayerTableRecord
  2
0
 70
0
 62
7
  6
CONTINUOUS
370
-3
390
F
  0
LAYER
  5
1FA
100
AcDbSymbolTableRecord
100
AcDbLayerTableRecord
  2
DEFAULT_1
 70
0
 62
7
  6
CENTER
370
-3
390
F
  0
LAYER
  5
1FB
100
AcDbSymbolTableRecord
100
AcDbLayerTableRecord
  2
DEFAULT_2
 70
0
 62
8
  6
HIDDEN
370
-3
390
F
  0
LAYER
  5
1FC
100
AcDbSymbolTableRecord
100
AcDbLayerTableRecord
  2
DEFAULT_3
 70
0
 62
7
  6
PHANTOM
370
-3
390
F
  0
LAYER
  5
1FD
100
AcDbSymbolTableRecord
100
AcDbLayerTableRecord
  2
_2D_DELETED_OBJS
 70
0
 62
7
  6
CONTINUOUS
370
-3
390
F
  0
LAYER
  5
1FE
100
AcDbSymbolTableRecord
100
AcDbLayerTableRecord
  2
_BLACK_HOLE
 70
0
 62
7
  6
CONTINUOUS
370
-3
390
F
  0
LAYER
  5
1FF
100
AcDbSymbolTableRecord
100
AcDbLayerTableRecord
  2
CSYS
 70
0
 62
7
  6
CONTINUOUS
370
-3
390
F
  0
LAYER
  5
200
100
AcDbSymbolTableRecord
100
AcDbLayerTableRecord
  2
EDGEFEAT
 70
0
 62
7
  6
CONTINUOUS
370
-3
390
F
  0
LAYER
  5
201
100
AcDbSymbolTableRecord
100
AcDbLayerTableRecord
  2
NOGEOM
 70
0
 62
7
  6
CONTINUOUS
370
-3
390
F
  0
LAYER
  5
202
100
AcDbSymbolTableRecord
100
AcDbLayerTableRecord
  2
XSEC_DATUMS
 70
0
 62
7
  6
CONTINUOUS
370
-3
390
F
  0
ENDTAB
  0
TABLE
  2
STYLE
  5
3
100
AcDbSymbolTable
 70
1
  0
STYLE
  5
11
100
AcDbSymbolTableRecord
100
AcDbTextStyleTableRecord
  2
STANDARD
 70
0
 40
0.0
 41
1.0
 50
0.0
 71
0
 42
0.2
  3
ARIAL.TTF
  4

  0
STYLE
  5
203
100
AcDbSymbolTableRecord
100
AcDbTextStyleTableRecord
  2
TEXTSTYLE_1
 70
0
 40
0.0
 41
1.0
 50
0.0
 71
0
 42
0.2
  3
ARIAL.TTF
  4

  0
ENDTAB
  0
TABLE
  2
VIEW
  5
6
100
AcDbSymbolTable
 70
0
  0
ENDTAB
  0
TABLE
  2
UCS
  5
7
100
AcDbSymbolTable
 70
0
  0
ENDTAB
  0
TABLE
  2
APPID
  5
9
100
AcDbSymbolTable
 70
1
  0
APPID
  5
204
100
AcDbSymbolTableRecord
100
AcDbRegAppTableRecord
  2
ACAD
 70
0
  0
ENDTAB
  0
TABLE
  2
BLOCK_RECORD
  5
1
100
AcDbSymbolTable
 70
0
  0
BLOCK_RECORD
  5
1F
100
AcDbSymbolTableRecord
100
AcDbBlockTableRecord
  2
*MODEL_SPACE
  0
BLOCK_RECORD
  5
1B
100
AcDbSymbolTableRecord
100
AcDbBlockTableRecord
  2
*PAPER_SPACE
  0
BLOCK_RECORD
  5
205
100
AcDbSymbolTableRecord
100
AcDbBlockTableRecord
  2
_FILLED
  0
BLOCK_RECORD
  5
206
100
AcDbSymbolTableRecord
100
AcDbBlockTableRecord
  2
ENSTO_BL0
  0
BLOCK_RECORD
  5
207
100
AcDbSymbolTableRecord
100
AcDbBlockTableRecord
  2
*D0
  0
BLOCK_RECORD
  5
208
100
AcDbSymbolTableRecord
100
AcDbBlockTableRecord
  2
*D1
  0
BLOCK_RECORD
  5
209
100
AcDbSymbolTableRecord
100
AcDbBlockTableRecord
  2
*D2
  0
BLOCK_RECORD
  5
20A
100
AcDbSymbolTableRecord
100
AcDbBlockTableRecord
  2
*D3
  0
BLOCK_RECORD
  5
20B
100
AcDbSymbolTableRecord
100
AcDbBlockTableRecord
  2
*D4
  0
BLOCK_RECORD
  5
20C
100
AcDbSymbolTableRecord
100
AcDbBlockTableRecord
  2
*D5
  0
BLOCK_RECORD
  5
20D
100
AcDbSymbolTableRecord
100
AcDbBlockTableRecord
  2
*D6
  0
BLOCK_RECORD
  5
20E
100
AcDbSymbolTableRecord
100
AcDbBlockTableRecord
  2
*D7
  0
BLOCK_RECORD
  5
20F
100
AcDbSymbolTableRecord
100
AcDbBlockTableRecord
  2
*D8
  0
BLOCK_RECORD
  5
210
100
AcDbSymbolTableRecord
100
AcDbBlockTableRecord
  2
*D9
  0
BLOCK_RECORD
  5
211
100
AcDbSymbolTableRecord
100
AcDbBlockTableRecord
  2
*D10
  0
BLOCK_RECORD
  5
212
100
AcDbSymbolTableRecord
100
AcDbBlockTableRecord
  2
*D11
  0
BLOCK_RECORD
  5
213
100
AcDbSymbolTableRecord
100
AcDbBlockTableRecord
  2
*D12
  0
BLOCK_RECORD
  5
214
100
AcDbSymbolTableRecord
100
AcDbBlockTableRecord
  2
*D13
  0
ENDTAB
  0
TABLE
  2
DIMSTYLE
  5
A
100
AcDbSymbolTable
 70
1
100
AcDbDimStyleTable
 71
0
  0
DIMSTYLE
105
215
100
AcDbSymbolTableRecord
100
AcDbDimStyleTableRecord
  2
STANDARD
 70
0
  3

  4

 40
1.0
 41
2.0
 42
0.0625
 43
0.38
 44
0.18
 45
0.0
 46
0.0
 47
0.01
 48
0.01
140
2.0
141
0.09
142
0.0
143
25.4
144
1.0
145
0.0
146
1.0
147
0.09
 71
1.0
 72
0.0
 73
0
 74
0
 75
0
 76
0
 77
1
 78
8
170
0
171
2
172
0
173
0
174
0
175
0
176
0
177
0
178
0
270
2
271
2
272
2
273
2
274
2
275
0
280
0
281
0
282
0
283
1
284
8
285
0
286
0
287
3
288
0
340
11
341
205
342
205
343
205
344
205
  0
DIMSTYLE
105
216
100
AcDbSymbolTableRecord
100
AcDbDimStyleTableRecord
  2
DIMSTYLE_1
 70
0
  3

  4

 40
1.0
 41
2.0
 42
0.0625
 43
0.38
 44
0.18
 45
0.0
 46
0.0
 47
0.2
 48
0.2
140
2.0
141
0.09
142
0.0
143
25.4
144
1.0
145
0.0
146
1.0
147
0.09
 71
0.0
 72
0.0
 73
0
 74
0
 75
0
 76
0
 77
1
 78
8
170
0
171
2
172
0
173
0
174
0
175
0
176
0
177
0
178
0
270
2
271
1
272
1
273
2
274
2
275
0
280
0
281
0
282
0
283
1
284
8
285
0
286
0
287
3
288
0
340
11
341
205
342
205
343
205
344
205
  0
DIMSTYLE
105
217
100
AcDbSymbolTableRecord
100
AcDbDimStyleTableRecord
  2
DIMSTYLE_2
 70
0
  3

  4

 40
1.0
 41
2.0
 42
0.0625
 43
0.38
 44
0.18
 45
0.0
 46
0.0
 47
0.3
 48
0.3
140
2.0
141
0.09
142
0.0
143
25.4
144
1.0
145
0.0
146
1.0
147
0.09
 71
0.0
 72
0.0
 73
0
 74
0
 75
0
 76
0
 77
1
 78
8
170
0
171
2
172
0
173
0
174
0
175
0
176
0
177
0
178
0
270
2
271
1
272
1
273
2
274
2
275
0
280
0
281
0
282
0
283
1
284
8
285
0
286
0
287
3
288
0
340
11
341
205
342
205
343
205
344
205
  0
DIMSTYLE
105
218
100
AcDbSymbolTableRecord
100
AcDbDimStyleTableRecord
  2
DIMSTYLE_3
 70
0
  3

  4

 40
1.0
 41
2.0
 42
0.0625
 43
0.38
 44
0.18
 45
0.0
 46
0.0
 47
0.1
 48
0.1
140
2.0
141
0.09
142
0.0
143
25.4
144
1.0
145
0.0
146
1.0
147
0.09
 71
0.0
 72
0.0
 73
0
 74
0
 75
0
 76
0
 77
1
 78
8
170
0
171
2
172
0
173
0
174
0
175
0
176
0
177
0
178
0
270
2
271
1
272
1
273
2
274
2
275
0
280
0
281
0
282
0
283
1
284
8
285
0
286
0
287
3
288
0
340
11
341
205
342
205
343
205
344
205
  0
ENDTAB
  0
ENDSEC
  0
SECTION
  2
BLOCKS
  0
BLOCK
  5
20
100
AcDbEntity
  8
0
100
AcDbBlockBegin
  2
*MODEL_SPACE
 70
0
 10
0.0
 20
0.0
 30
0.0
  3
*MODEL_SPACE
  1

  0
ENDBLK
  5
21
100
AcDbEntity
  8
0
100
AcDbBlockEnd
  0
BLOCK
  5
1C
100
AcDbEntity
  8
0
100
AcDbBlockBegin
  2
*PAPER_SPACE
 70
0
 10
0.0
 20
0.0
 30
0.0
  3
*PAPER_SPACE
  1

  0
ENDBLK
  5
1D
100
AcDbEntity
  8
0
100
AcDbBlockEnd
  0
BLOCK
  5
219
100
AcDbEntity
  8
0
100
AcDbBlockBegin
 62
2
  6
CONTINUOUS
  2
ENSTO_BL0
 70
64
 10
49.3918275707
 20
37.5779233823
  3
ENSTO_BL0
  1

  0
LINE
  5
21A
100
AcDbEntity
  8
0
100
AcDbLine
 62
7
  6
CONTINUOUS
 10
50.6818276453
 20
34.1219231823
 11
50.0338276078
 21
34.1459231837
  0
LINE
  5
21B
100
AcDbEntity
  8
0
100
AcDbLine
 62
7
  6
CONTINUOUS
 10
50.0338276078
 20
34.1459231837
 11
49.397827571
 21
34.2179231879
  0
LINE
  5
21C
100
AcDbEntity
  8
0
100
AcDbLine
 62
7
  6
CONTINUOUS
 10
49.397827571
 20
34.2179231879
 11
48.8218275377
 21
34.3139231934
  0
LINE
  5
21D
100
AcDbEntity
  8
0
100
AcDbLine
 62
7
  6
CONTINUOUS
 10
48.8218275377
 20
34.3139231934
 11
48.3058275078
 21
34.4339232004
  0
LINE
  5
21E
100
AcDbEntity
  8
0
100
AcDbLine
 62
7
  6
CONTINUOUS
 10
48.3058275078
 20
34.4339232004
 11
47.8618274821
 21
34.5539232073
  0
LINE
  5
21F
100
AcDbEntity
  8
0
100
AcDbLine
 62
7
  6
CONTINUOUS
 10
47.8618274821
 20
34.5539232073
 11
47.5018274613
 21
34.6739232142
  0
LINE
  5
220
100
AcDbEntity
  8
0
100
AcDbLine
 62
7
  6
CONTINUOUS
 10
47.5018274613
 20
34.6739232142
 11
47.1178274391
 21
34.8059232219
  0
LINE
  5
221
100
AcDbEntity
  8
0
100
AcDbLine
 62
7
  6
CONTINUOUS
 10
47.1178274391
 20
34.8059232219
 11
47.7058274731
 21
36.1499232997
  0
LINE
  5
222
100
AcDbEntity
  8
0
100
AcDbLine
 62
7
  6
CONTINUOUS
 10
47.7058274731
 20
36.1499232997
 11
48.1978275016
 21
35.9819232899
  0
LINE
  5
223
100
AcDbEntity
  8
0
100
AcDbLine
 62
7
  6
CONTINUOUS
 10
48.1978275016
 20
35.9819232899
 11
48.9298275439
 21
35.7659232774
  0
LINE
  5
224
100
AcDbEntity
  8
0
100
AcDbLine
 62
7
  6
CONTINUOUS
 10
48.9298275439
 20
35.7659232774
 11
49.3498275682
 21
35.6699232719
  0
LINE
  5
225
100
AcDbEntity
  8
0
100
AcDbLine
 62
7
  6
CONTINUOUS
 10
49.3498275682
 20
35.6699232719
 11
49.7938275939
 21
35.585923267
  0
LINE
  5
226
100
AcDbEntity
  8
0
100
AcDbLine
 62
7
  6
CONTINUOUS
 10
49.7938275939
 20
35.585923267
 11
50.2378276196
 21
35.5259232635
  0
LINE
  5
227
100
AcDbEntity
  8
0
100
AcDbLine
 62
7
  6
CONTINUOUS
 10
50.2378276196
 20
35.5259232635
 11
50.6698276446
 21
35.5019232622
  0
LINE
  5
228
100
AcDbEntity
  8
0
100
AcDbLine
 62
7
  6
CONTINUOUS
 10
50.6698276446
 20
35.5019232622
 11
51.0298276654
 21
35.5139232629
  0
LINE
  5
229
100
AcDbEntity
  8
0
100
AcDbLine
 62
7
  6
CONTINUOUS
 10
51.0298276654
 20
35.5139232629
 11
51.2458276779
 21
35.5499232649
  0
LINE
  5
22A
100
AcDbEntity
  8
0
100
AcDbLine
 62
7
  6
CONTINUOUS
 10
51.2458276779
 20
35.5499232649
 11
51.4738276911
 21
35.5979232677
  0
LINE
  5
22B
100
AcDbEntity
  8
0
100
AcDbLine
 62
7
  6
CONTINUOUS
 10
51.4738276911
 20
35.5979232677
 11
51.6778277029
 21
35.6819232726
  0
LINE
  5
22C
100
AcDbEntity
  8
0
100
AcDbLine
 62
7
  6
CONTINUOUS
 10
51.6778277029
 20
35.6819232726
 11
51.8458277127
 21
35.8019232795
  0
LINE
  5
22D
100
AcDbEntity
  8
0
100
AcDbLine
 62
7
  6
CONTINUOUS
 10
51.8458277127
 20
35.8019232795
 11
51.9058277161
 21
35.8739232837
  0
LINE
  5
22E
100
AcDbEntity
  8
0
100
AcDbLine
 62
7
  6
CONTINUOUS
 10
51.9058277161
 20
35.8739232837
 11
51.9538277189
 21
35.9579232885
  0
LINE
  5
22F
100
AcDbEntity
  8
0
100
AcDbLine
 62
7
  6
CONTINUOUS
 10
51.9538277189
 20
35.9579232885
 11
51.989827721
 21
36.0539232941
  0
LINE
  5
230
100
AcDbEntity
  8
0
100
AcDbLine
 62
7
  6
CONTINUOUS
 10
51.989827721
 20
36.0539232941
 11
52.0018277217
 21
36.1499232997
  0
LINE
  5
231
100
AcDbEntity
  8
0
100
AcDbLine
 62
7
  6
CONTINUOUS
 10
52.0018277217
 20
36.1499232997
 11
51.9778277203
 21
36.2579233059
  0
LINE
  5
232
100
AcDbEntity
  8
0
100
AcDbLine
 62
7
  6
CONTINUOUS
 10
51.9778277203
 20
36.2579233059
 11
51.9418277182
 21
36.3539233115
  0
LINE
  5
233
100
AcDbEntity
  8
0
100
AcDbLine
 62
7
  6
CONTINUOUS
 10
51.9418277182
 20
36.3539233115
 11
51.8818277148
 21
36.4379233163
  0
LINE
  5
234
100
AcDbEntity
  8
0
100
AcDbLine
 62
7
  6
CONTINUOUS
 10
51.8818277148
 20
36.4379233163
 11
51.7858277092
 21
36.4979233198
  0
LINE
  5
235
100
AcDbEntity
  8
0
100
AcDbLine
 62
7
  6
CONTINUOUS
 10
51.7858277092
 20
36.4979233198
 11
51.6778277029
 21
36.569923324
  0
LINE
  5
236
100
AcDbEntity
  8
0
100
AcDbLine
 62
7
  6
CONTINUOUS
 10
51.6778277029
 20
36.569923324
 11
51.557827696
 21
36.6179233267
  0
LINE
  5
237
100
AcDbEntity
  8
0
100
AcDbLine
 62
7
  6
CONTINUOUS
 10
51.557827696
 20
36.6179233267
 11
51.2458276779
 21
36.7019233316
  0
LINE
  5
238
100
AcDbEntity
  8
0
100
AcDbLine
 62
7
  6
CONTINUOUS
 10
51.2458276779
 20
36.7019233316
 11
50.8858276571
 21
36.7739233358
  0
LINE
  5
239
100
AcDbEntity
  8
0
100
AcDbLine
 62
7
  6
CONTINUOUS
 10
50.8858276571
 20
36.7739233358
 11
50.4898276342
 21
36.8219233385
  0
LINE
  5
23A
100
AcDbEntity
  8
0
100
AcDbLine
 62
7
  6
CONTINUOUS
 10
50.4898276342
 20
36.8219233385
 11
49.6138275835
 21
36.9419233455
  0
LINE
  5
23B
100
AcDbEntity
  8
0
100
AcDbLine
 62
7
  6
CONTINUOUS
 10
49.6138275835
 20
36.9419233455
 11
49.1698275578
 21
37.0139233497
  0
LINE
  5
23C
100
AcDbEntity
  8
0
100
AcDbLine
 62
7
  6
CONTINUOUS
 10
49.1698275578
 20
37.0139233497
 11
48.7378275328
 21
37.1219233559
  0
LINE
  5
23D
100
AcDbEntity
  8
0
100
AcDbLine
 62
7
  6
CONTINUOUS
 10
48.7378275328
 20
37.1219233559
 11
48.3298275092
 21
37.2539233635
  0
LINE
  5
23E
100
AcDbEntity
  8
0
100
AcDbLine
 62
7
  6
CONTINUOUS
 10
48.3298275092
 20
37.2539233635
 11
48.1498274988
 21
37.3379233684
  0
LINE
  5
23F
100
AcDbEntity
  8
0
100
AcDbLine
 62
7
  6
CONTINUOUS
 10
48.1498274988
 20
37.3379233684
 11
47.9698274884
 21
37.433923374
  0
LINE
  5
240
100
AcDbEntity
  8
0
100
AcDbLine
 62
7
  6
CONTINUOUS
 10
47.9698274884
 20
37.433923374
 11
47.8138274793
 21
37.5419233802
  0
LINE
  5
241
100
AcDbEntity
  8
0
100
AcDbLine
 62
7
  6
CONTINUOUS
 10
47.8138274793
 20
37.5419233802
 11
47.669827471
 21
37.6619233872
  0
LINE
  5
242
100
AcDbEntity
  8
0
100
AcDbLine
 62
7
  6
CONTINUOUS
 10
47.669827471
 20
37.6619233872
 11
47.5378274634
 21
37.8059233955
  0
LINE
  5
243
100
AcDbEntity
  8
0
100
AcDbLine
 62
7
  6
CONTINUOUS
 10
47.5378274634
 20
37.8059233955
 11
47.4298274571
 21
37.9499234038
  0
LINE
  5
244
100
AcDbEntity
  8
0
100
AcDbLine
 62
7
  6
CONTINUOUS
 10
47.4298274571
 20
37.9499234038
 11
47.3458274523
 21
38.1299234142
  0
LINE
  5
245
100
AcDbEntity
  8
0
100
AcDbLine
 62
7
  6
CONTINUOUS
 10
47.3458274523
 20
38.1299234142
 11
47.2858274488
 21
38.3099234247
  0
LINE
  5
246
100
AcDbEntity
  8
0
100
AcDbLine
 62
7
  6
CONTINUOUS
 10
47.2858274488
 20
38.3099234247
 11
47.2498274467
 21
38.5259234372
  0
LINE
  5
247
100
AcDbEntity
  8
0
100
AcDbLine
 62
7
  6
CONTINUOUS
 10
47.2498274467
 20
38.5259234372
 11
47.2258274453
 21
38.7539234504
  0
LINE
  5
248
100
AcDbEntity
  8
0
100
AcDbLine
 62
7
  6
CONTINUOUS
 10
47.2258274453
 20
38.7539234504
 11
47.237827446
 21
38.9339234608
  0
LINE
  5
249
100
AcDbEntity
  8
0
100
AcDbLine
 62
7
  6
CONTINUOUS
 10
47.237827446
 20
38.9339234608
 11
47.2738274481
 21
39.1259234719
  0
LINE
  5
24A
100
AcDbEntity
  8
0
100
AcDbLine
 62
7
  6
CONTINUOUS
 10
47.2738274481
 20
39.1259234719
 11
47.3218274509
 21
39.317923483
  0
LINE
  5
24B
100
AcDbEntity
  8
0
100
AcDbLine
 62
7
  6
CONTINUOUS
 10
47.3218274509
 20
39.317923483
 11
47.4058274557
 21
39.5099234941
  0
LINE
  5
24C
100
AcDbEntity
  8
0
100
AcDbLine
 62
7
  6
CONTINUOUS
 10
47.4058274557
 20
39.5099234941
 11
47.5018274613
 21
39.7019235052
  0
LINE
  5
24D
100
AcDbEntity
  8
0
100
AcDbLine
 62
7
  6
CONTINUOUS
 10
47.5018274613
 20
39.7019235052
 11
47.6218274682
 21
39.8939235163
  0
LINE
  5
24E
100
AcDbEntity
  8
0
100
AcDbLine
 62
7
  6
CONTINUOUS
 10
47.6218274682
 20
39.8939235163
 11
47.7778274773
 21
40.0739235267
  0
LINE
  5
24F
100
AcDbEntity
  8
0
100
AcDbLine
 62
7
  6
CONTINUOUS
 10
47.7778274773
 20
40.0739235267
 11
47.9578274877
 21
40.2539235372
  0
LINE
  5
250
100
AcDbEntity
  8
0
100
AcDbLine
 62
7
  6
CONTINUOUS
 10
47.9578274877
 20
40.2539235372
 11
48.1618274995
 21
40.4219235469
  0
LINE
  5
251
100
AcDbEntity
  8
0
100
AcDbLine
 62
7
  6
CONTINUOUS
 10
48.1618274995
 20
40.4219235469
 11
48.4018275134
 21
40.5659235552
  0
LINE
  5
252
100
AcDbEntity
  8
0
100
AcDbLine
 62
7
  6
CONTINUOUS
 10
48.4018275134
 20
40.5659235552
 11
48.6658275286
 21
40.6979235629
  0
LINE
  5
253
100
AcDbEntity
  8
0
100
AcDbLine
 62
7
  6
CONTINUOUS
 10
48.6658275286
 20
40.6979235629
 11
48.9538275453
 21
40.8179235698
  0
LINE
  5
254
100
AcDbEntity
  8
0
100
AcDbLine
 62
7
  6
CONTINUOUS
 10
48.9538275453
 20
40.8179235698
 11
49.2898275648
 21
40.9019235747
  0
LINE
  5
255
100
AcDbEntity
  8
0
100
AcDbLine
 62
7
  6
CONTINUOUS
 10
49.2898275648
 20
40.9019235747
 11
49.6498275856
 21
40.9739235788
  0
LINE
  5
256
100
AcDbEntity
  8
0
100
AcDbLine
 62
7
  6
CONTINUOUS
 10
49.6498275856
 20
40.9739235788
 11
50.0338276078
 21
41.0219235816
  0
LINE
  5
257
100
AcDbEntity
  8
0
100
AcDbLine
 62
7
  6
CONTINUOUS
 10
50.0338276078
 20
41.0219235816
 11
50.4658276328
 21
41.0339235823
  0
LINE
  5
258
100
AcDbEntity
  8
0
100
AcDbLine
 62
7
  6
CONTINUOUS
 10
50.4658276328
 20
41.0339235823
 11
51.0538276668
 21
41.0099235809
  0
LINE
  5
259
100
AcDbEntity
  8
0
100
AcDbLine
 62
7
  6
CONTINUOUS
 10
51.0538276668
 20
41.0099235809
 11
51.6178276995
 21
40.9379235767
  0
LINE
  5
25A
100
AcDbEntity
  8
0
100
AcDbLine
 62
7
  6
CONTINUOUS
 10
51.6178276995
 20
40.9379235767
 11
52.14582773
 21
40.8539235719
  0
LINE
  5
25B
100
AcDbEntity
  8
0
100
AcDbLine
 62
7
  6
CONTINUOUS
 10
52.14582773
 20
40.8539235719
 11
52.6138277571
 21
40.7459235656
  0
LINE
  5
25C
100
AcDbEntity
  8
0
100
AcDbLine
 62
7
  6
CONTINUOUS
 10
52.6138277571
 20
40.7459235656
 11
53.3338277988
 21
40.5299235531
  0
LINE
  5
25D
100
AcDbEntity
  8
0
100
AcDbLine
 62
7
  6
CONTINUOUS
 10
53.3338277988
 20
40.5299235531
 11
53.6458278168
 21
40.4219235469
  0
LINE
  5
25E
100
AcDbEntity
  8
0
100
AcDbLine
 62
7
  6
CONTINUOUS
 10
53.6458278168
 20
40.4219235469
 11
53.0818277842
 21
39.1259234719
  0
LINE
  5
25F
100
AcDbEntity
  8
0
100
AcDbLine
 62
7
  6
CONTINUOUS
 10
53.0818277842
 20
39.1259234719
 11
52.8658277717
 21
39.2099234767
  0
LINE
  5
260
100
AcDbEntity
  8
0
100
AcDbLine
 62
7
  6
CONTINUOUS
 10
52.8658277717
 20
39.2099234767
 11
52.3018277391
 21
39.3899234872
  0
LINE
  5
261
100
AcDbEntity
  8
0
100
AcDbLine
 62
7
  6
CONTINUOUS
 10
52.3018277391
 20
39.3899234872
 11
51.9418277182
 21
39.4859234927
  0
LINE
  5
262
100
AcDbEntity
  8
0
100
AcDbLine
 62
7
  6
CONTINUOUS
 10
51.9418277182
 20
39.4859234927
 11
51.557827696
 21
39.5699234976
  0
LINE
  5
263
100
AcDbEntity
  8
0
100
AcDbLine
 62
7
  6
CONTINUOUS
 10
51.557827696
 20
39.5699234976
 11
51.1618276731
 21
39.629923501
  0
LINE
  5
264
100
AcDbEntity
  8
0
100
AcDbLine
 62
7
  6
CONTINUOUS
 10
51.1618276731
 20
39.629923501
 11
50.7898276516
 21
39.6539235024
  0
LINE
  5
265
100
AcDbEntity
  8
0
100
AcDbLine
 62
7
  6
CONTINUOUS
 10
50.7898276516
 20
39.6539235024
 11
50.3698276273
 21
39.6419235017
  0
LINE
  5
266
100
AcDbEntity
  8
0
100
AcDbLine
 62
7
  6
CONTINUOUS
 10
50.3698276273
 20
39.6419235017
 11
50.105827612
 21
39.6179235004
  0
LINE
  5
267
100
AcDbEntity
  8
0
100
AcDbLine
 62
7
  6
CONTINUOUS
 10
50.105827612
 20
39.6179235004
 11
49.8178275953
 21
39.5699234976
  0
LINE
  5
268
100
AcDbEntity
  8
0
100
AcDbLine
 62
7
  6
CONTINUOUS
 10
49.8178275953
 20
39.5699234976
 11
49.55382758
 21
39.4979234934
  0
LINE
  5
269
100
AcDbEntity
  8
0
100
AcDbLine
 62
7
  6
CONTINUOUS
 10
49.55382758
 20
39.4979234934
 11
49.4338275731
 21
39.4379234899
  0
LINE
  5
26A
100
AcDbEntity
  8
0
100
AcDbLine
 62
7
  6
CONTINUOUS
 10
49.4338275731
 20
39.4379234899
 11
49.3378275675
 21
39.3779234865
  0
LINE
  5
26B
100
AcDbEntity
  8
0
100
AcDbLine
 62
7
  6
CONTINUOUS
 10
49.3378275675
 20
39.3779234865
 11
49.241827562
 21
39.2939234816
  0
LINE
  5
26C
100
AcDbEntity
  8
0
100
AcDbLine
 62
7
  6
CONTINUOUS
 10
49.241827562
 20
39.2939234816
 11
49.1818275585
 21
39.2099234767
  0
LINE
  5
26D
100
AcDbEntity
  8
0
100
AcDbLine
 62
7
  6
CONTINUOUS
 10
49.1818275585
 20
39.2099234767
 11
49.1338275557
 21
39.1019234705
  0
LINE
  5
26E
100
AcDbEntity
  8
0
100
AcDbLine
 62
7
  6
CONTINUOUS
 10
49.1338275557
 20
39.1019234705
 11
49.121827555
 21
38.9819234635
  0
LINE
  5
26F
100
AcDbEntity
  8
0
100
AcDbLine
 62
7
  6
CONTINUOUS
 10
49.121827555
 20
38.9819234635
 11
49.1338275557
 21
38.885923458
  0
LINE
  5
270
100
AcDbEntity
  8
0
100
AcDbLine
 62
7
  6
CONTINUOUS
 10
49.1338275557
 20
38.885923458
 11
49.1818275585
 21
38.8019234531
  0
LINE
  5
271
100
AcDbEntity
  8
0
100
AcDbLine
 62
7
  6
CONTINUOUS
 10
49.1818275585
 20
38.8019234531
 11
49.241827562
 21
38.729923449
  0
LINE
  5
272
100
AcDbEntity
  8
0
100
AcDbLine
 62
7
  6
CONTINUOUS
 10
49.241827562
 20
38.729923449
 11
49.3258275668
 21
38.6699234455
  0
LINE
  5
273
100
AcDbEntity
  8
0
100
AcDbLine
 62
7
  6
CONTINUOUS
 10
49.3258275668
 20
38.6699234455
 11
49.5658275807
 21
38.5619234392
  0
LINE
  5
274
100
AcDbEntity
  8
0
100
AcDbLine
 62
7
  6
CONTINUOUS
 10
49.5658275807
 20
38.5619234392
 11
49.8658275981
 21
38.4899234351
  0
LINE
  5
275
100
AcDbEntity
  8
0
100
AcDbLine
 62
7
  6
CONTINUOUS
 10
49.8658275981
 20
38.4899234351
 11
50.2258276189
 21
38.4299234316
  0
LINE
  5
276
100
AcDbEntity
  8
0
100
AcDbLine
 62
7
  6
CONTINUOUS
 10
50.2258276189
 20
38.4299234316
 11
50.6338276425
 21
38.3819234288
  0
LINE
  5
277
100
AcDbEntity
  8
0
100
AcDbLine
 62
7
  6
CONTINUOUS
 10
50.6338276425
 20
38.3819234288
 11
51.5098276932
 21
38.2619234219
  0
LINE
  5
278
100
AcDbEntity
  8
0
100
AcDbLine
 62
7
  6
CONTINUOUS
 10
51.5098276932
 20
38.2619234219
 11
51.9538277189
 21
38.177923417
  0
LINE
  5
279
100
AcDbEntity
  8
0
100
AcDbLine
 62
7
  6
CONTINUOUS
 10
51.9538277189
 20
38.177923417
 11
52.3858277439
 21
38.0699234108
  0
LINE
  5
27A
100
AcDbEntity
  8
0
100
AcDbLine
 62
7
  6
CONTINUOUS
 10
52.3858277439
 20
38.0699234108
 11
52.7818277668
 21
37.9259234024
  0
LINE
  5
27B
100
AcDbEntity
  8
0
100
AcDbLine
 62
7
  6
CONTINUOUS
 10
52.7818277668
 20
37.9259234024
 11
52.9738277779
 21
37.8299233969
  0
LINE
  5
27C
100
AcDbEntity
  8
0
100
AcDbLine
 62
7
  6
CONTINUOUS
 10
52.9738277779
 20
37.8299233969
 11
53.1418277877
 21
37.7339233913
  0
LINE
  5
27D
100
AcDbEntity
  8
0
100
AcDbLine
 62
7
  6
CONTINUOUS
 10
53.1418277877
 20
37.7339233913
 11
53.3098277974
 21
37.6259233851
  0
LINE
  5
27E
100
AcDbEntity
  8
0
100
AcDbLine
 62
7
  6
CONTINUOUS
 10
53.3098277974
 20
37.6259233851
 11
53.4538278057
 21
37.4939233774
  0
LINE
  5
27F
100
AcDbEntity
  8
0
100
AcDbLine
 62
7
  6
CONTINUOUS
 10
53.4538278057
 20
37.4939233774
 11
53.5738278127
 21
37.3499233691
  0
LINE
  5
280
100
AcDbEntity
  8
0
100
AcDbLine
 62
7
  6
CONTINUOUS
 10
53.5738278127
 20
37.3499233691
 11
53.6818278189
 21
37.1819233594
  0
LINE
  5
281
100
AcDbEntity
  8
0
100
AcDbLine
 62
7
  6
CONTINUOUS
 10
53.6818278189
 20
37.1819233594
 11
53.7778278245
 21
37.001923349
  0
LINE
  5
282
100
AcDbEntity
  8
0
100
AcDbLine
 62
7
  6
CONTINUOUS
 10
53.7778278245
 20
37.001923349
 11
53.8378278279
 21
36.8099233379
  0
LINE
  5
283
100
AcDbEntity
  8
0
100
AcDbLine
 62
7
  6
CONTINUOUS
 10
53.8378278279
 20
36.8099233379
 11
53.87382783
 21
36.5939233254
  0
LINE
  5
284
100
AcDbEntity
  8
0
100
AcDbLine
 62
7
  6
CONTINUOUS
 10
53.87382783
 20
36.5939233254
 11
53.8858278307
 21
36.3539233115
  0
LINE
  5
285
100
AcDbEntity
  8
0
100
AcDbLine
 62
7
  6
CONTINUOUS
 10
53.8858278307
 20
36.3539233115
 11
53.87382783
 21
36.1259232983
  0
LINE
  5
286
100
AcDbEntity
  8
0
100
AcDbLine
 62
7
  6
CONTINUOUS
 10
53.87382783
 20
36.1259232983
 11
53.8498278286
 21
35.9099232858
  0
LINE
  5
287
100
AcDbEntity
  8
0
100
AcDbLine
 62
7
  6
CONTINUOUS
 10
53.8498278286
 20
35.9099232858
 11
53.7898278252
 21
35.705923274
  0
LINE
  5
288
100
AcDbEntity
  8
0
100
AcDbLine
 62
7
  6
CONTINUOUS
 10
53.7898278252
 20
35.705923274
 11
53.7058278203
 21
35.5019232622
  0
LINE
  5
289
100
AcDbEntity
  8
0
100
AcDbLine
 62
7
  6
CONTINUOUS
 10
53.7058278203
 20
35.5019232622
 11
53.5978278141
 21
35.309923251
  0
LINE
  5
28A
100
AcDbEntity
  8
0
100
AcDbLine
 62
7
  6
CONTINUOUS
 10
53.5978278141
 20
35.309923251
 11
53.4658278064
 21
35.1179232399
  0
LINE
  5
28B
100
AcDbEntity
  8
0
100
AcDbLine
 62
7
  6
CONTINUOUS
 10
53.4658278064
 20
35.1179232399
 11
53.3098277974
 21
34.9499232302
  0
LINE
  5
28C
100
AcDbEntity
  8
0
100
AcDbLine
 62
7
  6
CONTINUOUS
 10
53.3098277974
 20
34.9499232302
 11
53.1178277863
 21
34.7939232212
  0
LINE
  5
28D
100
AcDbEntity
  8
0
100
AcDbLine
 62
7
  6
CONTINUOUS
 10
53.1178277863
 20
34.7939232212
 11
52.9138277745
 21
34.6499232129
  0
LINE
  5
28E
100
AcDbEntity
  8
0
100
AcDbLine
 62
7
  6
CONTINUOUS
 10
52.9138277745
 20
34.6499232129
 11
52.6738277606
 21
34.5179232052
  0
LINE
  5
28F
100
AcDbEntity
  8
0
100
AcDbLine
 62
7
  6
CONTINUOUS
 10
52.6738277606
 20
34.5179232052
 11
52.4098277453
 21
34.3979231983
  0
LINE
  5
290
100
AcDbEntity
  8
0
100
AcDbLine
 62
7
  6
CONTINUOUS
 10
52.4098277453
 20
34.3979231983
 11
52.1218277286
 21
34.3019231927
  0
LINE
  5
291
100
AcDbEntity
  8
0
100
AcDbLine
 62
7
  6
CONTINUOUS
 10
52.1218277286
 20
34.3019231927
 11
51.8098277106
 21
34.2299231885
  0
LINE
  5
292
100
AcDbEntity
  8
0
100
AcDbLine
 62
7
  6
CONTINUOUS
 10
51.8098277106
 20
34.2299231885
 11
51.4618276904
 21
34.1699231851
  0
LINE
  5
293
100
AcDbEntity
  8
0
100
AcDbLine
 62
7
  6
CONTINUOUS
 10
51.4618276904
 20
34.1699231851
 11
51.0898276689
 21
34.133923183
  0
LINE
  5
294
100
AcDbEntity
  8
0
100
AcDbLine
 62
7
  6
CONTINUOUS
 10
51.0898276689
 20
34.133923183
 11
50.6818276453
 21
34.1219231823
  0
LINE
  5
295
100
AcDbEntity
  8
0
100
AcDbLine
 62
7
  6
CONTINUOUS
 10
45.6538273543
 20
40.5659235552
 11
45.6538273543
 21
41.0219235816
  0
LINE
  5
296
100
AcDbEntity
  8
0
100
AcDbLine
 62
7
  6
CONTINUOUS
 10
45.6538273543
 20
41.0219235816
 11
43.8778272516
 21
41.0219235816
  0
LINE
  5
297
100
AcDbEntity
  8
0
100
AcDbLine
 62
7
  6
CONTINUOUS
 10
43.8778272516
 20
41.0219235816
 11
43.8778272516
 21
40.5659235552
  0
LINE
  5
298
100
AcDbEntity
  8
0
100
AcDbLine
 62
7
  6
CONTINUOUS
 10
43.8778272516
 20
40.5659235552
 11
43.8778272516
 21
37.5059233781
  0
LINE
  5
299
100
AcDbEntity
  8
0
100
AcDbLine
 62
7
  6
CONTINUOUS
 10
43.8778272516
 20
37.5059233781
 11
40.7698270717
 21
41.0219235816
  0
LINE
  5
29A
100
AcDbEntity
  8
0
100
AcDbLine
 62
7
  6
CONTINUOUS
 10
40.7698270717
 20
41.0219235816
 11
38.3938269342
 21
41.0219235816
  0
LINE
  5
29B
100
AcDbEntity
  8
0
100
AcDbLine
 62
7
  6
CONTINUOUS
 10
38.3938269342
 20
41.0219235816
 11
38.3938269342
 21
40.5659235552
  0
LINE
  5
29C
100
AcDbEntity
  8
0
100
AcDbLine
 62
7
  6
CONTINUOUS
 10
38.3938269342
 20
40.5659235552
 11
38.3938269342
 21
34.6619232135
  0
LINE
  5
29D
100
AcDbEntity
  8
0
100
AcDbLine
 62
7
  6
CONTINUOUS
 10
38.3938269342
 20
34.6619232135
 11
38.3938269342
 21
34.1939231865
  0
LINE
  5
29E
100
AcDbEntity
  8
0
100
AcDbLine
 62
7
  6
CONTINUOUS
 10
38.3938269342
 20
34.1939231865
 11
40.169827037
 21
34.1939231865
  0
LINE
  5
29F
100
AcDbEntity
  8
0
100
AcDbLine
 62
7
  6
CONTINUOUS
 10
40.169827037
 20
34.1939231865
 11
40.169827037
 21
34.6619232135
  0
LINE
  5
2A0
100
AcDbEntity
  8
0
100
AcDbLine
 62
7
  6
CONTINUOUS
 10
40.169827037
 20
34.6619232135
 11
40.169827037
 21
38.729923449
  0
LINE
  5
2A1
100
AcDbEntity
  8
0
100
AcDbLine
 62
7
  6
CONTINUOUS
 10
40.169827037
 20
38.729923449
 11
40.1938270384
 21
38.7539234504
  0
LINE
  5
2A2
100
AcDbEntity
  8
0
100
AcDbLine
 62
7
  6
CONTINUOUS
 10
40.1938270384
 20
38.7539234504
 11
44.2618272738
 21
34.1939231865
  0
LINE
  5
2A3
100
AcDbEntity
  8
0
100
AcDbLine
 62
7
  6
CONTINUOUS
 10
44.2618272738
 20
34.1939231865
 11
45.6538273543
 21
34.1939231865
  0
LINE
  5
2A4
100
AcDbEntity
  8
0
100
AcDbLine
 62
7
  6
CONTINUOUS
 10
45.6538273543
 20
34.1939231865
 11
45.6538273543
 21
34.6619232135
  0
LINE
  5
2A5
100
AcDbEntity
  8
0
100
AcDbLine
 62
7
  6
CONTINUOUS
 10
45.6538273543
 20
34.6619232135
 11
45.6538273543
 21
40.5659235552
  0
LINE
  5
2A6
100
AcDbEntity
  8
0
100
AcDbLine
 62
7
  6
CONTINUOUS
 10
65.381828496
 20
41.0339235823
 11
65.0338284759
 21
41.0219235816
  0
LINE
  5
2A7
100
AcDbEntity
  8
0
100
AcDbLine
 62
7
  6
CONTINUOUS
 10
65.0338284759
 20
41.0219235816
 11
64.6978284564
 21
40.9859235795
  0
LINE
  5
2A8
100
AcDbEntity
  8
0
100
AcDbLine
 62
7
  6
CONTINUOUS
 10
64.6978284564
 20
40.9859235795
 11
64.3498284363
 21
40.925923576
  0
LINE
  5
2A9
100
AcDbEntity
  8
0
100
AcDbLine
 62
7
  6
CONTINUOUS
 10
64.3498284363
 20
40.925923576
 11
64.0018284161
 21
40.8299235705
  0
LINE
  5
2AA
100
AcDbEntity
  8
0
100
AcDbLine
 62
7
  6
CONTINUOUS
 10
64.0018284161
 20
40.8299235705
 11
63.6778283974
 21
40.7219235642
  0
LINE
  5
2AB
100
AcDbEntity
  8
0
100
AcDbLine
 62
7
  6
CONTINUOUS
 10
63.6778283974
 20
40.7219235642
 11
63.3538283786
 21
40.5779235559
  0
LINE
  5
2AC
100
AcDbEntity
  8
0
100
AcDbLine
 62
7
  6
CONTINUOUS
 10
63.3538283786
 20
40.5779235559
 11
63.0418283606
 21
40.4099235462
  0
LINE
  5
2AD
100
AcDbEntity
  8
0
100
AcDbLine
 62
7
  6
CONTINUOUS
 10
63.0418283606
 20
40.4099235462
 11
62.7538283439
 21
40.2179235351
  0
LINE
  5
2AE
100
AcDbEntity
  8
0
100
AcDbLine
 62
7
  6
CONTINUOUS
 10
62.7538283439
 20
40.2179235351
 11
62.4898283286
 21
39.9899235219
  0
LINE
  5
2AF
100
AcDbEntity
  8
0
100
AcDbLine
 62
7
  6
CONTINUOUS
 10
62.4898283286
 20
39.9899235219
 11
62.2378283141
 21
39.7379235073
  0
LINE
  5
2B0
100
AcDbEntity
  8
0
100
AcDbLine
 62
7
  6
CONTINUOUS
 10
62.2378283141
 20
39.7379235073
 11
62.0218283016
 21
39.4499234906
  0
LINE
  5
2B1
100
AcDbEntity
  8
0
100
AcDbLine
 62
7
  6
CONTINUOUS
 10
62.0218283016
 20
39.4499234906
 11
61.8418282911
 21
39.1379234726
  0
LINE
  5
2B2
100
AcDbEntity
  8
0
100
AcDbLine
 62
7
  6
CONTINUOUS
 10
61.8418282911
 20
39.1379234726
 11
61.6978282828
 21
38.7899234524
  0
LINE
  5
2B3
100
AcDbEntity
  8
0
100
AcDbLine
 62
7
  6
CONTINUOUS
 10
61.6978282828
 20
38.7899234524
 11
61.5898282766
 21
38.4179234309
  0
LINE
  5
2B4
100
AcDbEntity
  8
0
100
AcDbLine
 62
7
  6
CONTINUOUS
 10
61.5898282766
 20
38.4179234309
 11
61.5178282724
 21
38.0099234073
  0
LINE
  5
2B5
100
AcDbEntity
  8
0
100
AcDbLine
 62
7
  6
CONTINUOUS
 10
61.5178282724
 20
38.0099234073
 11
61.493828271
 21
37.5779233823
  0
LINE
  5
2B6
100
AcDbEntity
  8
0
100
AcDbLine
 62
7
  6
CONTINUOUS
 10
61.493828271
 20
37.5779233823
 11
61.5178282724
 21
37.1339233566
  0
LINE
  5
2B7
100
AcDbEntity
  8
0
100
AcDbLine
 62
7
  6
CONTINUOUS
 10
61.5178282724
 20
37.1339233566
 11
61.5898282766
 21
36.7379233337
  0
LINE
  5
2B8
100
AcDbEntity
  8
0
100
AcDbLine
 62
7
  6
CONTINUOUS
 10
61.5898282766
 20
36.7379233337
 11
61.6978282828
 21
36.3659233122
  0
LINE
  5
2B9
100
AcDbEntity
  8
0
100
AcDbLine
 62
7
  6
CONTINUOUS
 10
61.6978282828
 20
36.3659233122
 11
61.8418282911
 21
36.017923292
  0
LINE
  5
2BA
100
AcDbEntity
  8
0
100
AcDbLine
 62
7
  6
CONTINUOUS
 10
61.8418282911
 20
36.017923292
 11
62.0218283016
 21
35.705923274
  0
LINE
  5
2BB
100
AcDbEntity
  8
0
100
AcDbLine
 62
7
  6
CONTINUOUS
 10
62.0218283016
 20
35.705923274
 11
62.2378283141
 21
35.4179232573
  0
LINE
  5
2BC
100
AcDbEntity
  8
0
100
AcDbLine
 62
7
  6
CONTINUOUS
 10
62.2378283141
 20
35.4179232573
 11
62.4898283286
 21
35.1659232427
  0
LINE
  5
2BD
100
AcDbEntity
  8
0
100
AcDbLine
 62
7
  6
CONTINUOUS
 10
62.4898283286
 20
35.1659232427
 11
62.7538283439
 21
34.9379232295
  0
LINE
  5
2BE
100
AcDbEntity
  8
0
100
AcDbLine
 62
7
  6
CONTINUOUS
 10
62.7538283439
 20
34.9379232295
 11
63.0418283606
 21
34.7459232184
  0
LINE
  5
2BF
100
AcDbEntity
  8
0
100
AcDbLine
 62
7
  6
CONTINUOUS
 10
63.0418283606
 20
34.7459232184
 11
63.3538283786
 21
34.5779232087
  0
LINE
  5
2C0
100
AcDbEntity
  8
0
100
AcDbLine
 62
7
  6
CONTINUOUS
 10
63.3538283786
 20
34.5779232087
 11
63.6778283974
 21
34.4339232004
  0
LINE
  5
2C1
100
AcDbEntity
  8
0
100
AcDbLine
 62
7
  6
CONTINUOUS
 10
63.6778283974
 20
34.4339232004
 11
64.0018284161
 21
34.3139231934
  0
LINE
  5
2C2
100
AcDbEntity
  8
0
100
AcDbLine
 62
7
  6
CONTINUOUS
 10
64.0018284161
 20
34.3139231934
 11
64.3498284363
 21
34.2299231885
  0
LINE
  5
2C3
100
AcDbEntity
  8
0
100
AcDbLine
 62
7
  6
CONTINUOUS
 10
64.3498284363
 20
34.2299231885
 11
64.6978284564
 21
34.1699231851
  0
LINE
  5
2C4
100
AcDbEntity
  8
0
100
AcDbLine
 62
7
  6
CONTINUOUS
 10
64.6978284564
 20
34.1699231851
 11
65.0338284759
 21
34.133923183
  0
LINE
  5
2C5
100
AcDbEntity
  8
0
100
AcDbLine
 62
7
  6
CONTINUOUS
 10
65.0338284759
 20
34.133923183
 11
65.381828496
 21
34.1219231823
  0
LINE
  5
2C6
100
AcDbEntity
  8
0
100
AcDbLine
 62
7
  6
CONTINUOUS
 10
65.381828496
 20
34.1219231823
 11
65.7298285161
 21
34.133923183
  0
LINE
  5
2C7
100
AcDbEntity
  8
0
100
AcDbLine
 62
7
  6
CONTINUOUS
 10
65.7298285161
 20
34.133923183
 11
66.0778285363
 21
34.1699231851
  0
LINE
  5
2C8
100
AcDbEntity
  8
0
100
AcDbLine
 62
7
  6
CONTINUOUS
 10
66.0778285363
 20
34.1699231851
 11
66.4138285557
 21
34.2299231885
  0
LINE
  5
2C9
100
AcDbEntity
  8
0
100
AcDbLine
 62
7
  6
CONTINUOUS
 10
66.4138285557
 20
34.2299231885
 11
66.7618285759
 21
34.3139231934
  0
LINE
  5
2CA
100
AcDbEntity
  8
0
100
AcDbLine
 62
7
  6
CONTINUOUS
 10
66.7618285759
 20
34.3139231934
 11
67.0978285953
 21
34.4339232004
  0
LINE
  5
2CB
100
AcDbEntity
  8
0
100
AcDbLine
 62
7
  6
CONTINUOUS
 10
67.0978285953
 20
34.4339232004
 11
67.4098286134
 21
34.5779232087
  0
LINE
  5
2CC
100
AcDbEntity
  8
0
100
AcDbLine
 62
7
  6
CONTINUOUS
 10
67.4098286134
 20
34.5779232087
 11
67.7218286314
 21
34.7459232184
  0
LINE
  5
2CD
100
AcDbEntity
  8
0
100
AcDbLine
 62
7
  6
CONTINUOUS
 10
67.7218286314
 20
34.7459232184
 11
68.0098286481
 21
34.9379232295
  0
LINE
  5
2CE
100
AcDbEntity
  8
0
100
AcDbLine
 62
7
  6
CONTINUOUS
 10
68.0098286481
 20
34.9379232295
 11
68.2858286641
 21
35.1659232427
  0
LINE
  5
2CF
100
AcDbEntity
  8
0
100
AcDbLine
 62
7
  6
CONTINUOUS
 10
68.2858286641
 20
35.1659232427
 11
68.5258286779
 21
35.4179232573
  0
LINE
  5
2D0
100
AcDbEntity
  8
0
100
AcDbLine
 62
7
  6
CONTINUOUS
 10
68.5258286779
 20
35.4179232573
 11
68.7418286904
 21
35.705923274
  0
LINE
  5
2D1
100
AcDbEntity
  8
0
100
AcDbLine
 62
7
  6
CONTINUOUS
 10
68.7418286904
 20
35.705923274
 11
68.9218287009
 21
36.017923292
  0
LINE
  5
2D2
100
AcDbEntity
  8
0
100
AcDbLine
 62
7
  6
CONTINUOUS
 10
68.9218287009
 20
36.017923292
 11
69.0658287092
 21
36.3659233122
  0
LINE
  5
2D3
100
AcDbEntity
  8
0
100
AcDbLine
 62
7
  6
CONTINUOUS
 10
69.0658287092
 20
36.3659233122
 11
69.1858287161
 21
36.7379233337
  0
LINE
  5
2D4
100
AcDbEntity
  8
0
100
AcDbLine
 62
7
  6
CONTINUOUS
 10
69.1858287161
 20
36.7379233337
 11
69.2458287196
 21
37.1339233566
  0
LINE
  5
2D5
100
AcDbEntity
  8
0
100
AcDbLine
 62
7
  6
CONTINUOUS
 10
69.2458287196
 20
37.1339233566
 11
69.269828721
 21
37.5779233823
  0
LINE
  5
2D6
100
AcDbEntity
  8
0
100
AcDbLine
 62
7
  6
CONTINUOUS
 10
69.269828721
 20
37.5779233823
 11
69.2458287196
 21
38.0099234073
  0
LINE
  5
2D7
100
AcDbEntity
  8
0
100
AcDbLine
 62
7
  6
CONTINUOUS
 10
69.2458287196
 20
38.0099234073
 11
69.1858287161
 21
38.4179234309
  0
LINE
  5
2D8
100
AcDbEntity
  8
0
100
AcDbLine
 62
7
  6
CONTINUOUS
 10
69.1858287161
 20
38.4179234309
 11
69.0658287092
 21
38.7899234524
  0
LINE
  5
2D9
100
AcDbEntity
  8
0
100
AcDbLine
 62
7
  6
CONTINUOUS
 10
69.0658287092
 20
38.7899234524
 11
68.9218287009
 21
39.1379234726
  0
LINE
  5
2DA
100
AcDbEntity
  8
0
100
AcDbLine
 62
7
  6
CONTINUOUS
 10
68.9218287009
 20
39.1379234726
 11
68.7418286904
 21
39.4499234906
  0
LINE
  5
2DB
100
AcDbEntity
  8
0
100
AcDbLine
 62
7
  6
CONTINUOUS
 10
68.7418286904
 20
39.4499234906
 11
68.5258286779
 21
39.7379235073
  0
LINE
  5
2DC
100
AcDbEntity
  8
0
100
AcDbLine
 62
7
  6
CONTINUOUS
 10
68.5258286779
 20
39.7379235073
 11
68.2858286641
 21
39.9899235219
  0
LINE
  5
2DD
100
AcDbEntity
  8
0
100
AcDbLine
 62
7
  6
CONTINUOUS
 10
68.2858286641
 20
39.9899235219
 11
68.0098286481
 21
40.2179235351
  0
LINE
  5
2DE
100
AcDbEntity
  8
0
100
AcDbLine
 62
7
  6
CONTINUOUS
 10
68.0098286481
 20
40.2179235351
 11
67.7218286314
 21
40.4099235462
  0
LINE
  5
2DF
100
AcDbEntity
  8
0
100
AcDbLine
 62
7
  6
CONTINUOUS
 10
67.7218286314
 20
40.4099235462
 11
67.4098286134
 21
40.5779235559
  0
LINE
  5
2E0
100
AcDbEntity
  8
0
100
AcDbLine
 62
7
  6
CONTINUOUS
 10
67.4098286134
 20
40.5779235559
 11
67.0978285953
 21
40.7219235642
  0
LINE
  5
2E1
100
AcDbEntity
  8
0
100
AcDbLine
 62
7
  6
CONTINUOUS
 10
67.0978285953
 20
40.7219235642
 11
66.7618285759
 21
40.8299235705
  0
LINE
  5
2E2
100
AcDbEntity
  8
0
100
AcDbLine
 62
7
  6
CONTINUOUS
 10
66.7618285759
 20
40.8299235705
 11
66.4138285557
 21
40.925923576
  0
LINE
  5
2E3
100
AcDbEntity
  8
0
100
AcDbLine
 62
7
  6
CONTINUOUS
 10
66.4138285557
 20
40.925923576
 11
66.0778285363
 21
40.9859235795
  0
LINE
  5
2E4
100
AcDbEntity
  8
0
100
AcDbLine
 62
7
  6
CONTINUOUS
 10
66.0778285363
 20
40.9859235795
 11
65.7298285161
 21
41.0219235816
  0
LINE
  5
2E5
100
AcDbEntity
  8
0
100
AcDbLine
 62
7
  6
CONTINUOUS
 10
65.7298285161
 20
41.0219235816
 11
65.381828496
 21
41.0339235823
  0
LINE
  5
2E6
100
AcDbEntity
  8
0
100
AcDbLine
 62
7
  6
CONTINUOUS
 10
65.381828496
 20
39.4139234885
 11
65.5858285078
 21
39.4019234879
  0
LINE
  5
2E7
100
AcDbEntity
  8
0
100
AcDbLine
 62
7
  6
CONTINUOUS
 10
65.5858285078
 20
39.4019234879
 11
65.7898285196
 21
39.3779234865
  0
LINE
  5
2E8
100
AcDbEntity
  8
0
100
AcDbLine
 62
7
  6
CONTINUOUS
 10
65.7898285196
 20
39.3779234865
 11
65.9818285307
 21
39.3419234844
  0
LINE
  5
2E9
100
AcDbEntity
  8
0
100
AcDbLine
 62
7
  6
CONTINUOUS
 10
65.9818285307
 20
39.3419234844
 11
66.1618285411
 21
39.2819234809
  0
LINE
  5
2EA
100
AcDbEntity
  8
0
100
AcDbLine
 62
7
  6
CONTINUOUS
 10
66.1618285411
 20
39.2819234809
 11
66.3418285516
 21
39.2099234767
  0
LINE
  5
2EB
100
AcDbEntity
  8
0
100
AcDbLine
 62
7
  6
CONTINUOUS
 10
66.3418285516
 20
39.2099234767
 11
66.4978285606
 21
39.1259234719
  0
LINE
  5
2EC
100
AcDbEntity
  8
0
100
AcDbLine
 62
7
  6
CONTINUOUS
 10
66.4978285606
 20
39.1259234719
 11
66.6538285696
 21
39.0299234663
  0
LINE
  5
2ED
100
AcDbEntity
  8
0
100
AcDbLine
 62
7
  6
CONTINUOUS
 10
66.6538285696
 20
39.0299234663
 11
66.7978285779
 21
38.9219234601
  0
LINE
  5
2EE
100
AcDbEntity
  8
0
100
AcDbLine
 62
7
  6
CONTINUOUS
 10
66.7978285779
 20
38.9219234601
 11
66.9298285856
 21
38.7899234524
  0
LINE
  5
2EF
100
AcDbEntity
  8
0
100
AcDbLine
 62
7
  6
CONTINUOUS
 10
66.9298285856
 20
38.7899234524
 11
67.0378285918
 21
38.6579234448
  0
LINE
  5
2F0
100
AcDbEntity
  8
0
100
AcDbLine
 62
7
  6
CONTINUOUS
 10
67.0378285918
 20
38.6579234448
 11
67.1338285974
 21
38.5019234358
  0
LINE
  5
2F1
100
AcDbEntity
  8
0
100
AcDbLine
 62
7
  6
CONTINUOUS
 10
67.1338285974
 20
38.5019234358
 11
67.2178286023
 21
38.3459234267
  0
LINE
  5
2F2
100
AcDbEntity
  8
0
100
AcDbLine
 62
7
  6
CONTINUOUS
 10
67.2178286023
 20
38.3459234267
 11
67.2898286064
 21
38.1659234163
  0
LINE
  5
2F3
100
AcDbEntity
  8
0
100
AcDbLine
 62
7
  6
CONTINUOUS
 10
67.2898286064
 20
38.1659234163
 11
67.3378286092
 21
37.9859234059
  0
LINE
  5
2F4
100
AcDbEntity
  8
0
100
AcDbLine
 62
7
  6
CONTINUOUS
 10
67.3378286092
 20
37.9859234059
 11
67.3738286113
 21
37.7819233941
  0
LINE
  5
2F5
100
AcDbEntity
  8
0
100
AcDbLine
 62
7
  6
CONTINUOUS
 10
67.3738286113
 20
37.7819233941
 11
67.3738286113
 21
37.5779233823
  0
LINE
  5
2F6
100
AcDbEntity
  8
0
100
AcDbLine
 62
7
  6
CONTINUOUS
 10
67.3738286113
 20
37.5779233823
 11
67.3738286113
 21
37.3739233705
  0
LINE
  5
2F7
100
AcDbEntity
  8
0
100
AcDbLine
 62
7
  6
CONTINUOUS
 10
67.3738286113
 20
37.3739233705
 11
67.3378286092
 21
37.1699233587
  0
LINE
  5
2F8
100
AcDbEntity
  8
0
100
AcDbLine
 62
7
  6
CONTINUOUS
 10
67.3378286092
 20
37.1699233587
 11
67.2898286064
 21
36.9899233483
  0
LINE
  5
2F9
100
AcDbEntity
  8
0
100
AcDbLine
 62
7
  6
CONTINUOUS
 10
67.2898286064
 20
36.9899233483
 11
67.2178286023
 21
36.8099233379
  0
LINE
  5
2FA
100
AcDbEntity
  8
0
100
AcDbLine
 62
7
  6
CONTINUOUS
 10
67.2178286023
 20
36.8099233379
 11
67.1338285974
 21
36.6539233288
  0
LINE
  5
2FB
100
AcDbEntity
  8
0
100
AcDbLine
 62
7
  6
CONTINUOUS
 10
67.1338285974
 20
36.6539233288
 11
67.0378285918
 21
36.4979233198
  0
LINE
  5
2FC
100
AcDbEntity
  8
0
100
AcDbLine
 62
7
  6
CONTINUOUS
 10
67.0378285918
 20
36.4979233198
 11
66.9298285856
 21
36.3539233115
  0
LINE
  5
2FD
100
AcDbEntity
  8
0
100
AcDbLine
 62
7
  6
CONTINUOUS
 10
66.9298285856
 20
36.3539233115
 11
66.7978285779
 21
36.2339233045
  0
LINE
  5
2FE
100
AcDbEntity
  8
0
100
AcDbLine
 62
7
  6
CONTINUOUS
 10
66.7978285779
 20
36.2339233045
 11
66.6538285696
 21
36.1259232983
  0
LINE
  5
2FF
100
AcDbEntity
  8
0
100
AcDbLine
 62
7
  6
CONTINUOUS
 10
66.6538285696
 20
36.1259232983
 11
66.4978285606
 21
36.017923292
  0
LINE
  5
300
100
AcDbEntity
  8
0
100
AcDbLine
 62
7
  6
CONTINUOUS
 10
66.4978285606
 20
36.017923292
 11
66.3418285516
 21
35.9339232872
  0
LINE
  5
301
100
AcDbEntity
  8
0
100
AcDbLine
 62
7
  6
CONTINUOUS
 10
66.3418285516
 20
35.9339232872
 11
66.1618285411
 21
35.8739232837
  0
LINE
  5
302
100
AcDbEntity
  8
0
100
AcDbLine
 62
7
  6
CONTINUOUS
 10
66.1618285411
 20
35.8739232837
 11
65.9818285307
 21
35.8139232802
  0
LINE
  5
303
100
AcDbEntity
  8
0
100
AcDbLine
 62
7
  6
CONTINUOUS
 10
65.9818285307
 20
35.8139232802
 11
65.7898285196
 21
35.7779232781
  0
LINE
  5
304
100
AcDbEntity
  8
0
100
AcDbLine
 62
7
  6
CONTINUOUS
 10
65.7898285196
 20
35.7779232781
 11
65.5858285078
 21
35.7539232767
  0
LINE
  5
305
100
AcDbEntity
  8
0
100
AcDbLine
 62
7
  6
CONTINUOUS
 10
65.5858285078
 20
35.7539232767
 11
65.381828496
 21
35.741923276
  0
LINE
  5
306
100
AcDbEntity
  8
0
100
AcDbLine
 62
7
  6
CONTINUOUS
 10
65.381828496
 20
35.741923276
 11
65.1778284842
 21
35.7539232767
  0
LINE
  5
307
100
AcDbEntity
  8
0
100
AcDbLine
 62
7
  6
CONTINUOUS
 10
65.1778284842
 20
35.7539232767
 11
64.9738284724
 21
35.7779232781
  0
LINE
  5
308
100
AcDbEntity
  8
0
100
AcDbLine
 62
7
  6
CONTINUOUS
 10
64.9738284724
 20
35.7779232781
 11
64.7818284613
 21
35.8139232802
  0
LINE
  5
309
100
AcDbEntity
  8
0
100
AcDbLine
 62
7
  6
CONTINUOUS
 10
64.7818284613
 20
35.8139232802
 11
64.6018284509
 21
35.8739232837
  0
LINE
  5
30A
100
AcDbEntity
  8
0
100
AcDbLine
 62
7
  6
CONTINUOUS
 10
64.6018284509
 20
35.8739232837
 11
64.4338284411
 21
35.9339232872
  0
LINE
  5
30B
100
AcDbEntity
  8
0
100
AcDbLine
 62
7
  6
CONTINUOUS
 10
64.4338284411
 20
35.9339232872
 11
64.2658284314
 21
36.017923292
  0
LINE
  5
30C
100
AcDbEntity
  8
0
100
AcDbLine
 62
7
  6
CONTINUOUS
 10
64.2658284314
 20
36.017923292
 11
64.1098284224
 21
36.1259232983
  0
LINE
  5
30D
100
AcDbEntity
  8
0
100
AcDbLine
 62
7
  6
CONTINUOUS
 10
64.1098284224
 20
36.1259232983
 11
63.9658284141
 21
36.2339233045
  0
LINE
  5
30E
100
AcDbEntity
  8
0
100
AcDbLine
 62
7
  6
CONTINUOUS
 10
63.9658284141
 20
36.2339233045
 11
63.8458284071
 21
36.3539233115
  0
LINE
  5
30F
100
AcDbEntity
  8
0
100
AcDbLine
 62
7
  6
CONTINUOUS
 10
63.8458284071
 20
36.3539233115
 11
63.7258284002
 21
36.4979233198
  0
LINE
  5
310
100
AcDbEntity
  8
0
100
AcDbLine
 62
7
  6
CONTINUOUS
 10
63.7258284002
 20
36.4979233198
 11
63.6298283946
 21
36.6539233288
  0
LINE
  5
311
100
AcDbEntity
  8
0
100
AcDbLine
 62
7
  6
CONTINUOUS
 10
63.6298283946
 20
36.6539233288
 11
63.5458283898
 21
36.8099233379
  0
LINE
  5
312
100
AcDbEntity
  8
0
100
AcDbLine
 62
7
  6
CONTINUOUS
 10
63.5458283898
 20
36.8099233379
 11
63.4738283856
 21
36.9899233483
  0
LINE
  5
313
100
AcDbEntity
  8
0
100
AcDbLine
 62
7
  6
CONTINUOUS
 10
63.4738283856
 20
36.9899233483
 11
63.4258283828
 21
37.1699233587
  0
LINE
  5
314
100
AcDbEntity
  8
0
100
AcDbLine
 62
7
  6
CONTINUOUS
 10
63.4258283828
 20
37.1699233587
 11
63.4018283814
 21
37.3739233705
  0
LINE
  5
315
100
AcDbEntity
  8
0
100
AcDbLine
 62
7
  6
CONTINUOUS
 10
63.4018283814
 20
37.3739233705
 11
63.3898283807
 21
37.5779233823
  0
LINE
  5
316
100
AcDbEntity
  8
0
100
AcDbLine
 62
7
  6
CONTINUOUS
 10
63.3898283807
 20
37.5779233823
 11
63.4018283814
 21
37.7819233941
  0
LINE
  5
317
100
AcDbEntity
  8
0
100
AcDbLine
 62
7
  6
CONTINUOUS
 10
63.4018283814
 20
37.7819233941
 11
63.4258283828
 21
37.9859234059
  0
LINE
  5
318
100
AcDbEntity
  8
0
100
AcDbLine
 62
7
  6
CONTINUOUS
 10
63.4258283828
 20
37.9859234059
 11
63.4738283856
 21
38.1659234163
  0
LINE
  5
319
100
AcDbEntity
  8
0
100
AcDbLine
 62
7
  6
CONTINUOUS
 10
63.4738283856
 20
38.1659234163
 11
63.5458283898
 21
38.3459234267
  0
LINE
  5
31A
100
AcDbEntity
  8
0
100
AcDbLine
 62
7
  6
CONTINUOUS
 10
63.5458283898
 20
38.3459234267
 11
63.6298283946
 21
38.5019234358
  0
LINE
  5
31B
100
AcDbEntity
  8
0
100
AcDbLine
 62
7
  6
CONTINUOUS
 10
63.6298283946
 20
38.5019234358
 11
63.7258284002
 21
38.6579234448
  0
LINE
  5
31C
100
AcDbEntity
  8
0
100
AcDbLine
 62
7
  6
CONTINUOUS
 10
63.7258284002
 20
38.6579234448
 11
63.8458284071
 21
38.7899234524
  0
LINE
  5
31D
100
AcDbEntity
  8
0
100
AcDbLine
 62
7
  6
CONTINUOUS
 10
63.8458284071
 20
38.7899234524
 11
63.9658284141
 21
38.9219234601
  0
LINE
  5
31E
100
AcDbEntity
  8
0
100
AcDbLine
 62
7
  6
CONTINUOUS
 10
63.9658284141
 20
38.9219234601
 11
64.1098284224
 21
39.0299234663
  0
LINE
  5
31F
100
AcDbEntity
  8
0
100
AcDbLine
 62
7
  6
CONTINUOUS
 10
64.1098284224
 20
39.0299234663
 11
64.2658284314
 21
39.1259234719
  0
LINE
  5
320
100
AcDbEntity
  8
0
100
AcDbLine
 62
7
  6
CONTINUOUS
 10
64.2658284314
 20
39.1259234719
 11
64.4338284411
 21
39.2099234767
  0
LINE
  5
321
100
AcDbEntity
  8
0
100
AcDbLine
 62
7
  6
CONTINUOUS
 10
64.4338284411
 20
39.2099234767
 11
64.6018284509
 21
39.2819234809
  0
LINE
  5
322
100
AcDbEntity
  8
0
100
AcDbLine
 62
7
  6
CONTINUOUS
 10
64.6018284509
 20
39.2819234809
 11
64.7818284613
 21
39.3419234844
  0
LINE
  5
323
100
AcDbEntity
  8
0
100
AcDbLine
 62
7
  6
CONTINUOUS
 10
64.7818284613
 20
39.3419234844
 11
64.9738284724
 21
39.3779234865
  0
LINE
  5
324
100
AcDbEntity
  8
0
100
AcDbLine
 62
7
  6
CONTINUOUS
 10
64.9738284724
 20
39.3779234865
 11
65.1778284842
 21
39.4019234879
  0
LINE
  5
325
100
AcDbEntity
  8
0
100
AcDbLine
 62
7
  6
CONTINUOUS
 10
65.1778284842
 20
39.4019234879
 11
65.381828496
 21
39.4139234885
  0
LINE
  5
326
100
AcDbEntity
  8
0
100
AcDbLine
 62
7
  6
CONTINUOUS
 10
33.3658266432
 20
34.1819231858
 11
33.0298266238
 21
34.1939231865
  0
LINE
  5
327
100
AcDbEntity
  8
0
100
AcDbLine
 62
7
  6
CONTINUOUS
 10
33.0298266238
 20
34.1939231865
 11
32.6818266036
 21
34.2419231892
  0
LINE
  5
328
100
AcDbEntity
  8
0
100
AcDbLine
 62
7
  6
CONTINUOUS
 10
32.6818266036
 20
34.2419231892
 11
32.3458265842
 21
34.3019231927
  0
LINE
  5
329
100
AcDbEntity
  8
0
100
AcDbLine
 62
7
  6
CONTINUOUS
 10
32.3458265842
 20
34.3019231927
 11
32.0098265648
 21
34.3859231976
  0
LINE
  5
32A
100
AcDbEntity
  8
0
100
AcDbLine
 62
7
  6
CONTINUOUS
 10
32.0098265648
 20
34.3859231976
 11
31.6738265453
 21
34.4939232038
  0
LINE
  5
32B
100
AcDbEntity
  8
0
100
AcDbLine
 62
7
  6
CONTINUOUS
 10
31.6738265453
 20
34.4939232038
 11
31.3618265273
 21
34.6379232122
  0
LINE
  5
32C
100
AcDbEntity
  8
0
100
AcDbLine
 62
7
  6
CONTINUOUS
 10
31.3618265273
 20
34.6379232122
 11
31.0498265092
 21
34.8059232219
  0
LINE
  5
32D
100
AcDbEntity
  8
0
100
AcDbLine
 62
7
  6
CONTINUOUS
 10
31.0498265092
 20
34.8059232219
 11
30.7618264925
 21
34.997923233
  0
LINE
  5
32E
100
AcDbEntity
  8
0
100
AcDbLine
 62
7
  6
CONTINUOUS
 10
30.7618264925
 20
34.997923233
 11
30.4978264773
 21
35.2259232462
  0
LINE
  5
32F
100
AcDbEntity
  8
0
100
AcDbLine
 62
7
  6
CONTINUOUS
 10
30.4978264773
 20
35.2259232462
 11
30.2578264634
 21
35.4779232608
  0
LINE
  5
330
100
AcDbEntity
  8
0
100
AcDbLine
 62
7
  6
CONTINUOUS
 10
30.2578264634
 20
35.4779232608
 11
30.0418264509
 21
35.7539232767
  0
LINE
  5
331
100
AcDbEntity
  8
0
100
AcDbLine
 62
7
  6
CONTINUOUS
 10
30.0418264509
 20
35.7539232767
 11
29.8618264404
 21
36.0659232948
  0
LINE
  5
332
100
AcDbEntity
  8
0
100
AcDbLine
 62
7
  6
CONTINUOUS
 10
29.8618264404
 20
36.0659232948
 11
29.7178264321
 21
36.4019233142
  0
LINE
  5
333
100
AcDbEntity
  8
0
100
AcDbLine
 62
7
  6
CONTINUOUS
 10
29.7178264321
 20
36.4019233142
 11
29.6098264259
 21
36.7739233358
  0
LINE
  5
334
100
AcDbEntity
  8
0
100
AcDbLine
 62
7
  6
CONTINUOUS
 10
29.6098264259
 20
36.7739233358
 11
29.5378264217
 21
37.1819233594
  0
LINE
  5
335
100
AcDbEntity
  8
0
100
AcDbLine
 62
7
  6
CONTINUOUS
 10
29.5378264217
 20
37.1819233594
 11
29.5138264203
 21
37.6139233844
  0
LINE
  5
336
100
AcDbEntity
  8
0
100
AcDbLine
 62
7
  6
CONTINUOUS
 10
29.5138264203
 20
37.6139233844
 11
29.5378264217
 21
38.0459234094
  0
LINE
  5
337
100
AcDbEntity
  8
0
100
AcDbLine
 62
7
  6
CONTINUOUS
 10
29.5378264217
 20
38.0459234094
 11
29.6098264259
 21
38.4419234323
  0
LINE
  5
338
100
AcDbEntity
  8
0
100
AcDbLine
 62
7
  6
CONTINUOUS
 10
29.6098264259
 20
38.4419234323
 11
29.7178264321
 21
38.8139234538
  0
LINE
  5
339
100
AcDbEntity
  8
0
100
AcDbLine
 62
7
  6
CONTINUOUS
 10
29.7178264321
 20
38.8139234538
 11
29.8618264404
 21
39.161923474
  0
LINE
  5
33A
100
AcDbEntity
  8
0
100
AcDbLine
 62
7
  6
CONTINUOUS
 10
29.8618264404
 20
39.161923474
 11
30.0418264509
 21
39.4619234913
  0
LINE
  5
33B
100
AcDbEntity
  8
0
100
AcDbLine
 62
7
  6
CONTINUOUS
 10
30.0418264509
 20
39.4619234913
 11
30.2578264634
 21
39.749923508
  0
LINE
  5
33C
100
AcDbEntity
  8
0
100
AcDbLine
 62
7
  6
CONTINUOUS
 10
30.2578264634
 20
39.749923508
 11
30.4978264773
 21
40.0019235226
  0
LINE
  5
33D
100
AcDbEntity
  8
0
100
AcDbLine
 62
7
  6
CONTINUOUS
 10
30.4978264773
 20
40.0019235226
 11
30.7618264925
 21
40.2179235351
  0
LINE
  5
33E
100
AcDbEntity
  8
0
100
AcDbLine
 62
7
  6
CONTINUOUS
 10
30.7618264925
 20
40.2179235351
 11
31.0498265092
 21
40.4099235462
  0
LINE
  5
33F
100
AcDbEntity
  8
0
100
AcDbLine
 62
7
  6
CONTINUOUS
 10
31.0498265092
 20
40.4099235462
 11
31.3618265273
 21
40.5779235559
  0
LINE
  5
340
100
AcDbEntity
  8
0
100
AcDbLine
 62
7
  6
CONTINUOUS
 10
31.3618265273
 20
40.5779235559
 11
31.6738265453
 21
40.7219235642
  0
LINE
  5
341
100
AcDbEntity
  8
0
100
AcDbLine
 62
7
  6
CONTINUOUS
 10
31.6738265453
 20
40.7219235642
 11
32.0098265648
 21
40.8419235712
  0
LINE
  5
342
100
AcDbEntity
  8
0
100
AcDbLine
 62
7
  6
CONTINUOUS
 10
32.0098265648
 20
40.8419235712
 11
32.3458265842
 21
40.925923576
  0
LINE
  5
343
100
AcDbEntity
  8
0
100
AcDbLine
 62
7
  6
CONTINUOUS
 10
32.3458265842
 20
40.925923576
 11
32.6938266043
 21
40.9859235795
  0
LINE
  5
344
100
AcDbEntity
  8
0
100
AcDbLine
 62
7
  6
CONTINUOUS
 10
32.6938266043
 20
40.9859235795
 11
33.0298266238
 21
41.0219235816
  0
LINE
  5
345
100
AcDbEntity
  8
0
100
AcDbLine
 62
7
  6
CONTINUOUS
 10
33.0298266238
 20
41.0219235816
 11
33.3778266439
 21
41.0339235823
  0
LINE
  5
346
100
AcDbEntity
  8
0
100
AcDbLine
 62
7
  6
CONTINUOUS
 10
33.3778266439
 20
41.0339235823
 11
36.9538268509
 21
41.0339235823
  0
LINE
  5
347
100
AcDbEntity
  8
0
100
AcDbLine
 62
7
  6
CONTINUOUS
 10
36.9538268509
 20
41.0339235823
 11
36.2578268106
 21
39.4259234892
  0
LINE
  5
348
100
AcDbEntity
  8
0
100
AcDbLine
 62
7
  6
CONTINUOUS
 10
36.2578268106
 20
39.4259234892
 11
33.3898266446
 21
39.4259234892
  0
LINE
  5
349
100
AcDbEntity
  8
0
100
AcDbLine
 62
7
  6
CONTINUOUS
 10
33.3898266446
 20
39.4259234892
 11
33.0778266266
 21
39.4139234885
  0
LINE
  5
34A
100
AcDbEntity
  8
0
100
AcDbLine
 62
7
  6
CONTINUOUS
 10
33.0778266266
 20
39.4139234885
 11
32.7778266092
 21
39.3539234851
  0
LINE
  5
34B
100
AcDbEntity
  8
0
100
AcDbLine
 62
7
  6
CONTINUOUS
 10
32.7778266092
 20
39.3539234851
 11
32.5018265932
 21
39.2579234795
  0
LINE
  5
34C
100
AcDbEntity
  8
0
100
AcDbLine
 62
7
  6
CONTINUOUS
 10
32.5018265932
 20
39.2579234795
 11
32.2498265786
 21
39.1259234719
  0
LINE
  5
34D
100
AcDbEntity
  8
0
100
AcDbLine
 62
7
  6
CONTINUOUS
 10
32.2498265786
 20
39.1259234719
 11
32.0218265654
 21
38.9699234629
  0
LINE
  5
34E
100
AcDbEntity
  8
0
100
AcDbLine
 62
7
  6
CONTINUOUS
 10
32.0218265654
 20
38.9699234629
 11
31.8298265543
 21
38.7779234517
  0
LINE
  5
34F
100
AcDbEntity
  8
0
100
AcDbLine
 62
7
  6
CONTINUOUS
 10
31.8298265543
 20
38.7779234517
 11
31.6618265446
 21
38.5499234385
  0
LINE
  5
350
100
AcDbEntity
  8
0
100
AcDbLine
 62
7
  6
CONTINUOUS
 10
31.6618265446
 20
38.5499234385
 11
31.5418265377
 21
38.297923424
  0
LINE
  5
351
100
AcDbEntity
  8
0
100
AcDbLine
 62
7
  6
CONTINUOUS
 10
31.5418265377
 20
38.297923424
 11
35.0458267404
 21
38.297923424
  0
LINE
  5
352
100
AcDbEntity
  8
0
100
AcDbLine
 62
7
  6
CONTINUOUS
 10
35.0458267404
 20
38.297923424
 11
35.0458267404
 21
36.9179233441
  0
LINE
  5
353
100
AcDbEntity
  8
0
100
AcDbLine
 62
7
  6
CONTINUOUS
 10
35.0458267404
 20
36.9179233441
 11
31.5418265377
 21
36.9179233441
  0
LINE
  5
354
100
AcDbEntity
  8
0
100
AcDbLine
 62
7
  6
CONTINUOUS
 10
31.5418265377
 20
36.9179233441
 11
31.6618265446
 21
36.6659233295
  0
LINE
  5
355
100
AcDbEntity
  8
0
100
AcDbLine
 62
7
  6
CONTINUOUS
 10
31.6618265446
 20
36.6659233295
 11
31.8298265543
 21
36.449923317
  0
LINE
  5
356
100
AcDbEntity
  8
0
100
AcDbLine
 62
7
  6
CONTINUOUS
 10
31.8298265543
 20
36.449923317
 11
32.0218265654
 21
36.2579233059
  0
LINE
  5
357
100
AcDbEntity
  8
0
100
AcDbLine
 62
7
  6
CONTINUOUS
 10
32.0218265654
 20
36.2579233059
 11
32.2498265786
 21
36.0899232962
  0
LINE
  5
358
100
AcDbEntity
  8
0
100
AcDbLine
 62
7
  6
CONTINUOUS
 10
32.2498265786
 20
36.0899232962
 11
32.5018265932
 21
35.9579232885
  0
LINE
  5
359
100
AcDbEntity
  8
0
100
AcDbLine
 62
7
  6
CONTINUOUS
 10
32.5018265932
 20
35.9579232885
 11
32.7778266092
 21
35.8739232837
  0
LINE
  5
35A
100
AcDbEntity
  8
0
100
AcDbLine
 62
7
  6
CONTINUOUS
 10
32.7778266092
 20
35.8739232837
 11
33.0778266266
 21
35.8139232802
  0
LINE
  5
35B
100
AcDbEntity
  8
0
100
AcDbLine
 62
7
  6
CONTINUOUS
 10
33.0778266266
 20
35.8139232802
 11
33.3898266446
 21
35.7899232788
  0
LINE
  5
35C
100
AcDbEntity
  8
0
100
AcDbLine
 62
7
  6
CONTINUOUS
 10
33.3898266446
 20
35.7899232788
 11
36.9538268509
 21
35.7899232788
  0
LINE
  5
35D
100
AcDbEntity
  8
0
100
AcDbLine
 62
7
  6
CONTINUOUS
 10
36.9538268509
 20
35.7899232788
 11
36.2578268106
 21
34.1939231865
  0
LINE
  5
35E
100
AcDbEntity
  8
0
100
AcDbLine
 62
7
  6
CONTINUOUS
 10
36.2578268106
 20
34.1939231865
 11
33.3778266439
 21
34.1819231858
  0
LINE
  5
35F
100
AcDbEntity
  8
0
100
AcDbLine
 62
7
  6
CONTINUOUS
 10
33.3778266439
 20
34.1819231858
 11
33.3658266432
 21
34.1819231858
  0
LINE
  5
360
100
AcDbEntity
  8
0
100
AcDbLine
 62
7
  6
CONTINUOUS
 10
56.8138280002
 20
34.1939231865
 11
56.8138280002
 21
39.4259234892
  0
LINE
  5
361
100
AcDbEntity
  8
0
100
AcDbLine
 62
7
  6
CONTINUOUS
 10
56.8138280002
 20
39.4259234892
 11
54.2098278495
 21
39.4379234899
  0
LINE
  5
362
100
AcDbEntity
  8
0
100
AcDbLine
 62
7
  6
CONTINUOUS
 10
54.2098278495
 20
39.4379234899
 11
54.8818278884
 21
41.0219235816
  0
LINE
  5
363
100
AcDbEntity
  8
0
100
AcDbLine
 62
7
  6
CONTINUOUS
 10
54.8818278884
 20
41.0219235816
 11
60.8218282321
 21
41.0219235816
  0
LINE
  5
364
100
AcDbEntity
  8
0
100
AcDbLine
 62
7
  6
CONTINUOUS
 10
60.8218282321
 20
41.0219235816
 11
61.5058282717
 21
39.4379234899
  0
LINE
  5
365
100
AcDbEntity
  8
0
100
AcDbLine
 62
7
  6
CONTINUOUS
 10
61.5058282717
 20
39.4379234899
 11
58.9258281224
 21
39.4379234899
  0
LINE
  5
366
100
AcDbEntity
  8
0
100
AcDbLine
 62
7
  6
CONTINUOUS
 10
58.9258281224
 20
39.4379234899
 11
58.9258281224
 21
34.1939231865
  0
LINE
  5
367
100
AcDbEntity
  8
0
100
AcDbLine
 62
7
  6
CONTINUOUS
 10
58.9258281224
 20
34.1939231865
 11
56.8138280002
 21
34.1939231865
  0
ENDBLK
  5
368
100
AcDbEntity
  8
0
  6
BYBLOCK
 62
0
100
AcDbBlockEnd
  0
BLOCK
  5
369
100
AcDbEntity
  8
0
100
AcDbBlockBegin
 62
2
  6
CONTINUOUS
  2
*D0
 70
65
 10
0.0
 20
0.0
  3
*D0
  1

  0
TEXT
  5
36A
100
AcDbEntity
  8
0
100
AcDbText
 62
2
  6
CONTINUOUS
 10
44.5
 20
239.9753669124
  7
STANDARD
 40
2.0
  1
10
 50
90.0
 41
1.0
 72
0
100
AcDbText
  0
TEXT
  5
36B
100
AcDbEntity
  8
0
100
AcDbText
 62
2
  6
CONTINUOUS
 10
44.5
 20
245.0831736039
  7
STANDARD
 40
2.0
  1
[0.39]
 50
90.0
 41
1.0
 72
0
100
AcDbText
  0
LINE
  5
36C
100
AcDbEntity
  8
0
100
AcDbLine
 62
2
  6
CONTINUOUS
 10
49.0
 20
228.0
 11
44.0
 21
228.0
  0
LINE
  5
36D
100
AcDbEntity
  8
0
100
AcDbLine
 62
2
  6
CONTINUOUS
 10
49.0
 20
238.0
 11
44.0
 21
238.0
  0
LINE
  5
36E
100
AcDbEntity
  8
0
100
AcDbLine
 62
2
  6
CONTINUOUS
 10
45.0
 20
228.0
 11
45.0
 21
233.0
  0
LINE
  5
36F
100
AcDbEntity
  8
0
100
AcDbLine
 62
2
  6
CONTINUOUS
 10
45.0
 20
238.0
 11
45.0
 21
233.0
  0
LINE
  5
370
100
AcDbEntity
  8
0
100
AcDbLine
 62
2
  6
CONTINUOUS
 10
45.0
 20
233.0
 11
45.0
 21
252.0645862433
  0
INSERT
  5
371
100
AcDbEntity
  8
0
100
AcDbBlockReference
 62
2
  6
CONTINUOUS
  2
_FILLED
 10
45.0
 20
228.0
 41
2.0
 42
2.0
 43
2.0
 50
270.0
  0
INSERT
  5
372
100
AcDbEntity
  8
0
100
AcDbBlockReference
 62
2
  6
CONTINUOUS
  2
_FILLED
 10
45.0
 20
238.0
 41
2.0
 42
2.0
 43
2.0
 50
90.0
  0
ENDBLK
  5
373
100
AcDbEntity
  8
0
  6
BYBLOCK
 62
0
100
AcDbBlockEnd
  0
BLOCK
  5
374
100
AcDbEntity
  8
0
100
AcDbBlockBegin
 62
2
  6
CONTINUOUS
  2
*D1
 70
65
 10
0.0
 20
0.0
  3
*D1
  1

  0
TEXT
  5
375
100
AcDbEntity
  8
0
100
AcDbText
 62
2
  6
CONTINUOUS
 10
71.9553903346
 20
81.5
  7
STANDARD
 40
2.0
  1
55
 41
1.0
 72
0
100
AcDbText
  0
TEXT
  5
376
100
AcDbEntity
  8
0
100
AcDbText
 62
2
  6
CONTINUOUS
 10
77.063197026
 20
81.5
  7
STANDARD
 40
2.0
  1
[2.17]
 41
1.0
 72
0
100
AcDbText
  0
LINE
  5
377
100
AcDbEntity
  8
0
100
AcDbLine
 62
2
  6
CONTINUOUS
 10
105.5
 20
92.0
 11
105.5
 21
80.0
  0
LINE
  5
378
100
AcDbEntity
  8
0
100
AcDbLine
 62
2
  6
CONTINUOUS
 10
50.5
 20
92.0
 11
50.5
 21
80.0
  0
LINE
  5
379
100
AcDbEntity
  8
0
100
AcDbLine
 62
2
  6
CONTINUOUS
 10
105.5
 20
81.0
 11
78.0
 21
81.0
  0
LINE
  5
37A
100
AcDbEntity
  8
0
100
AcDbLine
 62
2
  6
CONTINUOUS
 10
50.5
 20
81.0
 11
78.0
 21
81.0
  0
INSERT
  5
37B
100
AcDbEntity
  8
0
100
AcDbBlockReference
 62
2
  6
CONTINUOUS
  2
_FILLED
 10
105.5
 20
81.0
 41
2.0
 42
2.0
 43
2.0
  0
INSERT
  5
37C
100
AcDbEntity
  8
0
100
AcDbBlockReference
 62
2
  6
CONTINUOUS
  2
_FILLED
 10
50.5
 20
81.0
 41
2.0
 42
2.0
 43
2.0
 50
180.0
  0
ENDBLK
  5
37D
100
AcDbEntity
  8
0
  6
BYBLOCK
 62
0
100
AcDbBlockEnd
  0
BLOCK
  5
37E
100
AcDbEntity
  8
0
100
AcDbBlockBegin
 62
2
  6
CONTINUOUS
  2
*D2
 70
65
 10
0.0
 20
0.0
  3
*D2
  1

  0
TEXT
  5
37F
100
AcDbEntity
  8
0
100
AcDbText
 62
2
  6
CONTINUOUS
 10
41.0
 20
113.9553903346
  7
STANDARD
 40
2.0
  1
53
 50
90.0
 41
1.0
 72
0
100
AcDbText
  0
TEXT
  5
380
100
AcDbEntity
  8
0
100
AcDbText
 62
2
  6
CONTINUOUS
 10
41.0
 20
119.063197026
  7
STANDARD
 40
2.0
  1
[2.09]
 50
90.0
 41
1.0
 72
0
100
AcDbText
  0
LINE
  5
381
100
AcDbEntity
  8
0
100
AcDbLine
 62
2
  6
CONTINUOUS
 10
49.0
 20
93.5
 11
40.5
 21
93.5
  0
LINE
  5
382
100
AcDbEntity
  8
0
100
AcDbLine
 62
2
  6
CONTINUOUS
 10
49.0
 20
146.5
 11
40.5
 21
146.5
  0
LINE
  5
383
100
AcDbEntity
  8
0
100
AcDbLine
 62
2
  6
CONTINUOUS
 10
41.5
 20
93.5
 11
41.5
 21
120.0
  0
LINE
  5
384
100
AcDbEntity
  8
0
100
AcDbLine
 62
2
  6
CONTINUOUS
 10
41.5
 20
146.5
 11
41.5
 21
120.0
  0
INSERT
  5
385
100
AcDbEntity
  8
0
100
AcDbBlockReference
 62
2
  6
CONTINUOUS
  2
_FILLED
 10
41.5
 20
93.5
 41
2.0
 42
2.0
 43
2.0
 50
270.0
  0
INSERT
  5
386
100
AcDbEntity
  8
0
100
AcDbBlockReference
 62
2
  6
CONTINUOUS
  2
_FILLED
 10
41.5
 20
146.5
 41
2.0
 42
2.0
 43
2.0
 50
90.0
  0
ENDBLK
  5
387
100
AcDbEntity
  8
0
  6
BYBLOCK
 62
0
100
AcDbBlockEnd
  0
BLOCK
  5
388
100
AcDbEntity
  8
0
100
AcDbBlockBegin
 62
2
  6
CONTINUOUS
  2
*D3
 70
65
 10
0.0
 20
0.0
  3
*D3
  1

  0
TEXT
  5
389
100
AcDbEntity
  8
0
100
AcDbText
 62
2
  6
CONTINUOUS
 10
41.0
 20
213.9553903346
  7
STANDARD
 40
2.0
  1
36
 50
90.0
 41
1.0
 72
0
100
AcDbText
  0
TEXT
  5
38A
100
AcDbEntity
  8
0
100
AcDbText
 62
2
  6
CONTINUOUS
 10
41.0
 20
219.063197026
  7
STANDARD
 40
2.0
  1
[1.42]
 50
90.0
 41
1.0
 72
0
100
AcDbText
  0
LINE
  5
38B
100
AcDbEntity
  8
0
100
AcDbLine
 62
2
  6
CONTINUOUS
 10
49.0
 20
202.0
 11
40.5
 21
202.0
  0
LINE
  5
38C
100
AcDbEntity
  8
0
100
AcDbLine
 62
2
  6
CONTINUOUS
 10
49.0
 20
238.0
 11
40.5
 21
238.0
  0
LINE
  5
38D
100
AcDbEntity
  8
0
100
AcDbLine
 62
2
  6
CONTINUOUS
 10
41.5
 20
202.0
 11
41.5
 21
220.0
  0
LINE
  5
38E
100
AcDbEntity
  8
0
100
AcDbLine
 62
2
  6
CONTINUOUS
 10
41.5
 20
238.0
 11
41.5
 21
220.0
  0
INSERT
  5
38F
100
AcDbEntity
  8
0
100
AcDbBlockReference
 62
2
  6
CONTINUOUS
  2
_FILLED
 10
41.5
 20
202.0
 41
2.0
 42
2.0
 43
2.0
 50
270.0
  0
INSERT
  5
390
100
AcDbEntity
  8
0
100
AcDbBlockReference
 62
2
  6
CONTINUOUS
  2
_FILLED
 10
41.5
 20
238.0
 41
2.0
 42
2.0
 43
2.0
 50
90.0
  0
ENDBLK
  5
391
100
AcDbEntity
  8
0
  6
BYBLOCK
 62
0
100
AcDbBlockEnd
  0
BLOCK
  5
392
100
AcDbEntity
  8
0
100
AcDbBlockBegin
 62
2
  6
CONTINUOUS
  2
*D4
 70
65
 10
0.0
 20
0.0
  3
*D4
  1

  0
TEXT
  5
393
100
AcDbEntity
  8
0
100
AcDbText
 62
2
  6
CONTINUOUS
 10
183.5
 20
112.7040076194
  7
STANDARD
 40
2.0
  1
2.5
 41
1.0
 72
0
100
AcDbText
  0
TEXT
  5
394
100
AcDbEntity
  8
0
100
AcDbText
 62
2
  6
CONTINUOUS
 10
189.3810408922
 20
112.7040076194
  7
STANDARD
 40
2.0
  1
[0.1]
 41
1.0
 72
0
100
AcDbText
  0
LINE
  5
395
100
AcDbEntity
  8
0
100
AcDbLine
 62
2
  6
CONTINUOUS
 10
178.0
 20
98.0
 11
178.0
 21
113.2040076194
  0
LINE
  5
396
100
AcDbEntity
  8
0
100
AcDbLine
 62
2
  6
CONTINUOUS
 10
175.5
 20
99.5741783762
 11
175.5
 21
113.2040076194
  0
LINE
  5
397
100
AcDbEntity
  8
0
100
AcDbLine
 62
2
  6
CONTINUOUS
 10
178.0
 20
112.2040076194
 11
194.8085501859
 21
112.2040076194
  0
LINE
  5
398
100
AcDbEntity
  8
0
100
AcDbLine
 62
2
  6
CONTINUOUS
 10
194.8085501859
 20
112.2040076194
 11
176.75
 21
112.2040076194
  0
LINE
  5
399
100
AcDbEntity
  8
0
100
AcDbLine
 62
2
  6
CONTINUOUS
 10
175.5
 20
112.2040076194
 11
170.5
 21
112.2040076194
  0
LINE
  5
39A
100
AcDbEntity
  8
0
100
AcDbLine
 62
2
  6
CONTINUOUS
 10
170.5
 20
112.2040076194
 11
176.75
 21
112.2040076194
  0
INSERT
  5
39B
100
AcDbEntity
  8
0
100
AcDbBlockReference
 62
2
  6
CONTINUOUS
  2
_FILLED
 10
178.0
 20
112.2040076194
 41
2.0
 42
2.0
 43
2.0
 50
180.0
  0
INSERT
  5
39C
100
AcDbEntity
  8
0
100
AcDbBlockReference
 62
2
  6
CONTINUOUS
  2
_FILLED
 10
175.5
 20
112.2040076194
 41
2.0
 42
2.0
 43
2.0
  0
ENDBLK
  5
39D
100
AcDbEntity
  8
0
  6
BYBLOCK
 62
0
100
AcDbBlockEnd
  0
BLOCK
  5
39E
100
AcDbEntity
  8
0
100
AcDbBlockBegin
 62
2
  6
CONTINUOUS
  2
*D5
 70
65
 10
0.0
 20
0.0
  3
*D5
  1

  0
TEXT
  5
39F
100
AcDbEntity
  8
0
100
AcDbText
 62
2
  6
CONTINUOUS
 10
153.8187732342
 20
85.0
  7
STANDARD
 40
2.0
  1
30.5
 41
1.0
 72
0
100
AcDbText
  0
TEXT
  5
3A0
100
AcDbEntity
  8
0
100
AcDbText
 62
2
  6
CONTINUOUS
 10
161.2537174721
 20
85.0
  7
STANDARD
 40
2.0
  1
[1.2]
 41
1.0
 72
0
100
AcDbText
  0
LINE
  5
3A1
100
AcDbEntity
  8
0
100
AcDbLine
 62
2
  6
CONTINUOUS
 10
145.0
 20
94.8138082609
 11
145.0
 21
83.5
  0
LINE
  5
3A2
100
AcDbEntity
  8
0
100
AcDbLine
 62
2
  6
CONTINUOUS
 10
175.5
 20
96.5741783762
 11
175.5
 21
83.5
  0
LINE
  5
3A3
100
AcDbEntity
  8
0
100
AcDbLine
 62
2
  6
CONTINUOUS
 10
145.0
 20
84.5
 11
160.25
 21
84.5
  0
LINE
  5
3A4
100
AcDbEntity
  8
0
100
AcDbLine
 62
2
  6
CONTINUOUS
 10
175.5
 20
84.5
 11
160.25
 21
84.5
  0
INSERT
  5
3A5
100
AcDbEntity
  8
0
100
AcDbBlockReference
 62
2
  6
CONTINUOUS
  2
_FILLED
 10
145.0
 20
84.5
 41
2.0
 42
2.0
 43
2.0
 50
180.0
  0
INSERT
  5
3A6
100
AcDbEntity
  8
0
100
AcDbBlockReference
 62
2
  6
CONTINUOUS
  2
_FILLED
 10
175.5
 20
84.5
 41
2.0
 42
2.0
 43
2.0
  0
ENDBLK
  5
3A7
100
AcDbEntity
  8
0
  6
BYBLOCK
 62
0
100
AcDbBlockEnd
  0
BLOCK
  5
3A8
100
AcDbEntity
  8
0
100
AcDbBlockBegin
 62
2
  6
CONTINUOUS
  2
*D6
 70
65
 10
0.0
 20
0.0
  3
*D6
  1

  0
TEXT
  5
3A9
100
AcDbEntity
  8
0
100
AcDbText
 62
2
  6
CONTINUOUS
 10
128.2457567733
 20
88.5
  7
STANDARD
 40
2.0
  1
3.5
 41
1.0
 72
0
100
AcDbText
  0
TEXT
  5
3AA
100
AcDbEntity
  8
0
100
AcDbText
 62
2
  6
CONTINUOUS
 10
134.1267976655
 20
88.5
  7
STANDARD
 40
2.0
  1
[0.14]
 41
1.0
 72
0
100
AcDbText
  0
LINE
  5
3AB
100
AcDbEntity
  8
0
100
AcDbLine
 62
2
  6
CONTINUOUS
 10
145.0
 20
94.8138082609
 11
145.0
 21
87.0
  0
LINE
  5
3AC
100
AcDbEntity
  8
0
100
AcDbLine
 62
2
  6
CONTINUOUS
 10
148.5
 20
111.5
 11
148.5
 21
87.0
  0
LINE
  5
3AD
100
AcDbEntity
  8
0
100
AcDbLine
 62
2
  6
CONTINUOUS
 10
145.0
 20
88.0
 11
128.2457567733
 21
88.0
  0
LINE
  5
3AE
100
AcDbEntity
  8
0
100
AcDbLine
 62
2
  6
CONTINUOUS
 10
128.2457567733
 20
88.0
 11
146.75
 21
88.0
  0
LINE
  5
3AF
100
AcDbEntity
  8
0
100
AcDbLine
 62
2
  6
CONTINUOUS
 10
148.5
 20
88.0
 11
153.5
 21
88.0
  0
LINE
  5
3B0
100
AcDbEntity
  8
0
100
AcDbLine
 62
2
  6
CONTINUOUS
 10
153.5
 20
88.0
 11
146.75
 21
88.0
  0
INSERT
  5
3B1
100
AcDbEntity
  8
0
100
AcDbBlockReference
 62
2
  6
CONTINUOUS
  2
_FILLED
 10
145.0
 20
88.0
 41
2.0
 42
2.0
 43
2.0
  0
INSERT
  5
3B2
100
AcDbEntity
  8
0
100
AcDbBlockReference
 62
2
  6
CONTINUOUS
  2
_FILLED
 10
148.5
 20
88.0
 41
2.0
 42
2.0
 43
2.0
 50
180.0
  0
ENDBLK
  5
3B3
100
AcDbEntity
  8
0
  6
BYBLOCK
 62
0
100
AcDbBlockEnd
  0
BLOCK
  5
3B4
100
AcDbEntity
  8
0
100
AcDbBlockBegin
 62
2
  6
CONTINUOUS
  2
*D7
 70
65
 10
0.0
 20
0.0
  3
*D7
  1

  0
TEXT
  5
3B5
100
AcDbEntity
  8
0
100
AcDbText
 62
2
  6
CONTINUOUS
 10
136.0
 20
101.4691077174
  7
STANDARD
 40
2.0
  1
%%c2.6
 50
90.0
 41
1.0
 72
0
100
AcDbText
  0
TEXT
  5
3B6
100
AcDbEntity
  8
0
100
AcDbText
 62
2
  6
CONTINUOUS
 10
136.0
 20
110.0168152763
  7
STANDARD
 40
2.0
  1
[0.1]
 50
90.0
 41
1.0
 72
0
100
AcDbText
  0
LINE
  5
3B7
100
AcDbEntity
  8
0
100
AcDbLine
 62
2
  6
CONTINUOUS
 10
142.3
 20
121.275
 11
135.5
 21
121.275
  0
LINE
  5
3B8
100
AcDbEntity
  8
0
100
AcDbLine
 62
2
  6
CONTINUOUS
 10
142.3
 20
118.725
 11
135.5
 21
118.725
  0
LINE
  5
3B9
100
AcDbEntity
  8
0
100
AcDbLine
 62
2
  6
CONTINUOUS
 10
136.5
 20
121.275
 11
136.5
 21
126.275
  0
LINE
  5
3BA
100
AcDbEntity
  8
0
100
AcDbLine
 62
2
  6
CONTINUOUS
 10
136.5
 20
126.275
 11
136.5
 21
120.0
  0
LINE
  5
3BB
100
AcDbEntity
  8
0
100
AcDbLine
 62
2
  6
CONTINUOUS
 10
136.5
 20
118.725
 11
136.5
 21
101.4691077174
  0
LINE
  5
3BC
100
AcDbEntity
  8
0
100
AcDbLine
 62
2
  6
CONTINUOUS
 10
136.5
 20
101.4691077174
 11
136.5
 21
120.0
  0
INSERT
  5
3BD
100
AcDbEntity
  8
0
100
AcDbBlockReference
 62
2
  6
CONTINUOUS
  2
_FILLED
 10
136.5
 20
121.275
 41
2.0
 42
2.0
 43
2.0
 50
270.0
  0
INSERT
  5
3BE
100
AcDbEntity
  8
0
100
AcDbBlockReference
 62
2
  6
CONTINUOUS
  2
_FILLED
 10
136.5
 20
118.725
 41
2.0
 42
2.0
 43
2.0
 50
90.0
  0
ENDBLK
  5
3BF
100
AcDbEntity
  8
0
  6
BYBLOCK
 62
0
100
AcDbBlockEnd
  0
BLOCK
  5
3C0
100
AcDbEntity
  8
0
100
AcDbBlockBegin
 62
2
  6
CONTINUOUS
  2
*D8
 70
65
 10
0.0
 20
0.0
  3
*D8
  1

  0
TEXT
  5
3C1
100
AcDbEntity
  8
0
100
AcDbText
 62
2
  6
CONTINUOUS
 10
44.5
 20
113.9553903346
  7
STANDARD
 40
2.0
  1
41
 50
90.0
 41
1.0
 72
0
100
AcDbText
  0
TEXT
  5
3C2
100
AcDbEntity
  8
0
100
AcDbText
 62
2
  6
CONTINUOUS
 10
44.5
 20
119.063197026
  7
STANDARD
 40
2.0
  1
[1.61]
 50
90.0
 41
1.0
 72
0
100
AcDbText
  0
LINE
  5
3C3
100
AcDbEntity
  8
0
100
AcDbLine
 62
2
  6
CONTINUOUS
 10
55.0
 20
99.5
 11
44.0
 21
99.5
  0
LINE
  5
3C4
100
AcDbEntity
  8
0
100
AcDbLine
 62
2
  6
CONTINUOUS
 10
55.3656853248
 20
140.5
 11
44.0
 21
140.5
  0
LINE
  5
3C5
100
AcDbEntity
  8
0
100
AcDbLine
 62
2
  6
CONTINUOUS
 10
45.0
 20
99.5
 11
45.0
 21
120.0
  0
LINE
  5
3C6
100
AcDbEntity
  8
0
100
AcDbLine
 62
2
  6
CONTINUOUS
 10
45.0
 20
140.5
 11
45.0
 21
120.0
  0
INSERT
  5
3C7
100
AcDbEntity
  8
0
100
AcDbBlockReference
 62
2
  6
CONTINUOUS
  2
_FILLED
 10
45.0
 20
99.5
 41
2.0
 42
2.0
 43
2.0
 50
270.0
  0
INSERT
  5
3C8
100
AcDbEntity
  8
0
100
AcDbBlockReference
 62
2
  6
CONTINUOUS
  2
_FILLED
 10
45.0
 20
140.5
 41
2.0
 42
2.0
 43
2.0
 50
90.0
  0
ENDBLK
  5
3C9
100
AcDbEntity
  8
0
  6
BYBLOCK
 62
0
100
AcDbBlockEnd
  0
BLOCK
  5
3CA
100
AcDbEntity
  8
0
100
AcDbBlockBegin
 62
2
  6
CONTINUOUS
  2
*D9
 70
65
 10
0.0
 20
0.0
  3
*D9
  1

  0
TEXT
  5
3CB
100
AcDbEntity
  8
0
100
AcDbText
 62
2
  6
CONTINUOUS
 10
71.9553903346
 20
85.0
  7
STANDARD
 40
2.0
  1
43
 41
1.0
 72
0
100
AcDbText
  0
TEXT
  5
3CC
100
AcDbEntity
  8
0
100
AcDbText
 62
2
  6
CONTINUOUS
 10
77.063197026
 20
85.0
  7
STANDARD
 40
2.0
  1
[1.69]
 41
1.0
 72
0
100
AcDbText
  0
LINE
  5
3CD
100
AcDbEntity
  8
0
100
AcDbLine
 62
2
  6
CONTINUOUS
 10
56.5
 20
98.0
 11
56.5
 21
83.5
  0
LINE
  5
3CE
100
AcDbEntity
  8
0
100
AcDbLine
 62
2
  6
CONTINUOUS
 10
99.5
 20
98.0
 11
99.5
 21
83.5
  0
LINE
  5
3CF
100
AcDbEntity
  8
0
100
AcDbLine
 62
2
  6
CONTINUOUS
 10
56.5
 20
84.5
 11
78.0
 21
84.5
  0
LINE
  5
3D0
100
AcDbEntity
  8
0
100
AcDbLine
 62
2
  6
CONTINUOUS
 10
99.5
 20
84.5
 11
78.0
 21
84.5
  0
INSERT
  5
3D1
100
AcDbEntity
  8
0
100
AcDbBlockReference
 62
2
  6
CONTINUOUS
  2
_FILLED
 10
56.5
 20
84.5
 41
2.0
 42
2.0
 43
2.0
 50
180.0
  0
INSERT
  5
3D2
100
AcDbEntity
  8
0
100
AcDbBlockReference
 62
2
  6
CONTINUOUS
  2
_FILLED
 10
99.5
 20
84.5
 41
2.0
 42
2.0
 43
2.0
  0
ENDBLK
  5
3D3
100
AcDbEntity
  8
0
  6
BYBLOCK
 62
0
100
AcDbBlockEnd
  0
BLOCK
  5
3D4
100
AcDbEntity
  8
0
100
AcDbBlockBegin
 62
2
  6
CONTINUOUS
  2
*D10
 70
65
 10
0.0
 20
0.0
  3
*D10
  1

  0
TEXT
  5
3D5
100
AcDbEntity
  8
0
100
AcDbText
 62
2
  6
CONTINUOUS
 10
70.7918215613
 20
88.5
  7
STANDARD
 40
2.0
  1
16.2
 41
1.0
 72
0
100
AcDbText
  0
TEXT
  5
3D6
100
AcDbEntity
  8
0
100
AcDbText
 62
2
  6
CONTINUOUS
 10
78.2267657993
 20
88.5
  7
STANDARD
 40
2.0
  1
[0.64]
 41
1.0
 72
0
100
AcDbText
  0
LINE
  5
3D7
100
AcDbEntity
  8
0
100
AcDbLine
 62
2
  6
CONTINUOUS
 10
69.9
 20
118.5
 11
69.9
 21
87.0
  0
LINE
  5
3D8
100
AcDbEntity
  8
0
100
AcDbLine
 62
2
  6
CONTINUOUS
 10
86.1
 20
118.5
 11
86.1
 21
87.0
  0
LINE
  5
3D9
100
AcDbEntity
  8
0
100
AcDbLine
 62
2
  6
CONTINUOUS
 10
69.9
 20
88.0
 11
78.0
 21
88.0
  0
LINE
  5
3DA
100
AcDbEntity
  8
0
100
AcDbLine
 62
2
  6
CONTINUOUS
 10
86.1
 20
88.0
 11
78.0
 21
88.0
  0
INSERT
  5
3DB
100
AcDbEntity
  8
0
100
AcDbBlockReference
 62
2
  6
CONTINUOUS
  2
_FILLED
 10
69.9
 20
88.0
 41
2.0
 42
2.0
 43
2.0
 50
180.0
  0
INSERT
  5
3DC
100
AcDbEntity
  8
0
100
AcDbBlockReference
 62
2
  6
CONTINUOUS
  2
_FILLED
 10
86.1
 20
88.0
 41
2.0
 42
2.0
 43
2.0
  0
ENDBLK
  5
3DD
100
AcDbEntity
  8
0
  6
BYBLOCK
 62
0
100
AcDbBlockEnd
  0
BLOCK
  5
3DE
100
AcDbEntity
  8
0
100
AcDbBlockBegin
 62
2
  6
CONTINUOUS
  2
*D11
 70
65
 10
0.0
 20
0.0
  3
*D11
  1

  0
TEXT
  5
3DF
100
AcDbEntity
  8
0
100
AcDbText
 62
2
  6
CONTINUOUS
 10
136.0
 20
147.432472944
  7
STANDARD
 40
2.0
  1
%%c4.2
 50
90.0
 41
1.0
 72
0
100
AcDbText
  0
TEXT
  5
3E0
100
AcDbEntity
  8
0
100
AcDbText
 62
2
  6
CONTINUOUS
 10
136.0
 20
155.9801805029
  7
STANDARD
 40
2.0
  1
[0.17]
 50
90.0
 41
1.0
 72
0
100
AcDbText
  0
LINE
  5
3E1
100
AcDbEntity
  8
0
100
AcDbLine
 62
2
  6
CONTINUOUS
 10
140.5
 20
142.6
 11
135.5
 21
142.6
  0
LINE
  5
3E2
100
AcDbEntity
  8
0
100
AcDbLine
 62
2
  6
CONTINUOUS
 10
140.5
 20
138.4
 11
135.5
 21
138.4
  0
LINE
  5
3E3
100
AcDbEntity
  8
0
100
AcDbLine
 62
2
  6
CONTINUOUS
 10
136.5
 20
142.6
 11
136.5
 21
162.9615931423
  0
LINE
  5
3E4
100
AcDbEntity
  8
0
100
AcDbLine
 62
2
  6
CONTINUOUS
 10
136.5
 20
162.9615931423
 11
136.5
 21
140.5
  0
LINE
  5
3E5
100
AcDbEntity
  8
0
100
AcDbLine
 62
2
  6
CONTINUOUS
 10
136.5
 20
138.4
 11
136.5
 21
133.4
  0
LINE
  5
3E6
100
AcDbEntity
  8
0
100
AcDbLine
 62
2
  6
CONTINUOUS
 10
136.5
 20
133.4
 11
136.5
 21
140.5
  0
INSERT
  5
3E7
100
AcDbEntity
  8
0
100
AcDbBlockReference
 62
2
  6
CONTINUOUS
  2
_FILLED
 10
136.5
 20
142.6
 41
2.0
 42
2.0
 43
2.0
 50
270.0
  0
INSERT
  5
3E8
100
AcDbEntity
  8
0
100
AcDbBlockReference
 62
2
  6
CONTINUOUS
  2
_FILLED
 10
136.5
 20
138.4
 41
2.0
 42
2.0
 43
2.0
 50
90.0
  0
ENDBLK
  5
3E9
100
AcDbEntity
  8
0
  6
BYBLOCK
 62
0
100
AcDbBlockEnd
  0
BLOCK
  5
3EA
100
AcDbEntity
  8
0
100
AcDbBlockBegin
 62
2
  6
CONTINUOUS
  2
*D12
 70
65
 10
0.0
 20
0.0
  3
*D12
  1

  0
TEXT
  5
3EB
100
AcDbEntity
  8
0
100
AcDbText
 62
2
  6
CONTINUOUS
 10
183.0
 20
149.3609268711
  7
STANDARD
 40
2.0
  1
%%c8.4
 50
90.0
 41
1.0
 72
0
100
AcDbText
  0
TEXT
  5
3EC
100
AcDbEntity
  8
0
100
AcDbText
 62
2
  6
CONTINUOUS
 10
183.0
 20
157.90863443
  7
STANDARD
 40
2.0
  1
[0.33]
 50
90.0
 41
1.0
 72
0
100
AcDbText
  0
LINE
  5
3ED
100
AcDbEntity
  8
0
100
AcDbLine
 62
2
  6
CONTINUOUS
 10
169.5
 20
144.7007179592
 11
184.5
 21
144.7007179592
  0
LINE
  5
3EE
100
AcDbEntity
  8
0
100
AcDbLine
 62
2
  6
CONTINUOUS
 10
169.5
 20
136.2992820408
 11
184.5
 21
136.2992820408
  0
LINE
  5
3EF
100
AcDbEntity
  8
0
100
AcDbLine
 62
2
  6
CONTINUOUS
 10
183.5
 20
144.7007179592
 11
183.5
 21
140.5
  0
LINE
  5
3F0
100
AcDbEntity
  8
0
100
AcDbLine
 62
2
  6
CONTINUOUS
 10
183.5
 20
140.5
 11
183.5
 21
164.8900470694
  0
LINE
  5
3F1
100
AcDbEntity
  8
0
100
AcDbLine
 62
2
  6
CONTINUOUS
 10
183.5
 20
136.2992820408
 11
183.5
 21
140.5
  0
INSERT
  5
3F2
100
AcDbEntity
  8
0
100
AcDbBlockReference
 62
2
  6
CONTINUOUS
  2
_FILLED
 10
183.5
 20
144.7007179592
 41
2.0
 42
2.0
 43
2.0
 50
90.0
  0
INSERT
  5
3F3
100
AcDbEntity
  8
0
100
AcDbBlockReference
 62
2
  6
CONTINUOUS
  2
_FILLED
 10
183.5
 20
136.2992820408
 41
2.0
 42
2.0
 43
2.0
 50
270.0
  0
ENDBLK
  5
3F4
100
AcDbEntity
  8
0
  6
BYBLOCK
 62
0
100
AcDbBlockEnd
  0
BLOCK
  5
3F5
100
AcDbEntity
  8
0
100
AcDbBlockBegin
 62
2
  6
CONTINUOUS
  2
*D13
 70
65
 10
0.0
 20
0.0
  3
*D13
  1

  0
TEXT
  5
3F6
100
AcDbEntity
  8
0
100
AcDbText
 62
2
  6
CONTINUOUS
 10
148.6055267089
 20
166.5
  7
STANDARD
 40
2.0
  1
3
 41
1.0
 72
0
100
AcDbText
  0
TEXT
  5
3F7
100
AcDbEntity
  8
0
100
AcDbText
 62
2
  6
CONTINUOUS
 10
152.1594300546
 20
166.5
  7
STANDARD
 40
2.0
  1
[0.12]
 41
1.0
 72
0
100
AcDbText
  0
LINE
  5
3F8
100
AcDbEntity
  8
0
100
AcDbLine
 62
2
  6
CONTINUOUS
 10
145.0
 20
144.1
 11
145.0
 21
167.0
  0
LINE
  5
3F9
100
AcDbEntity
  8
0
100
AcDbLine
 62
2
  6
CONTINUOUS
 10
142.0
 20
144.1
 11
142.0
 21
167.0
  0
LINE
  5
3FA
100
AcDbEntity
  8
0
100
AcDbLine
 62
2
  6
CONTINUOUS
 10
145.0
 20
166.0
 11
159.140842694
 21
166.0
  0
LINE
  5
3FB
100
AcDbEntity
  8
0
100
AcDbLine
 62
2
  6
CONTINUOUS
 10
159.140842694
 20
166.0
 11
143.5
 21
166.0
  0
LINE
  5
3FC
100
AcDbEntity
  8
0
100
AcDbLine
 62
2
  6
CONTINUOUS
 10
142.0
 20
166.0
 11
137.0
 21
166.0
  0
LINE
  5
3FD
100
AcDbEntity
  8
0
100
AcDbLine
 62
2
  6
CONTINUOUS
 10
137.0
 20
166.0
 11
143.5
 21
166.0
  0
INSERT
  5
3FE
100
AcDbEntity
  8
0
100
AcDbBlockReference
 62
2
  6
CONTINUOUS
  2
_FILLED
 10
145.0
 20
166.0
 41
2.0
 42
2.0
 43
2.0
 50
180.0
  0
INSERT
  5
3FF
100
AcDbEntity
  8
0
100
AcDbBlockReference
 62
2
  6
CONTINUOUS
  2
_FILLED
 10
142.0
 20
166.0
 41
2.0
 42
2.0
 43
2.0
  0
ENDBLK
  5
400
100
AcDbEntity
  8
0
  6
BYBLOCK
 62
0
100
AcDbBlockEnd
  0
BLOCK
  5
401
100
AcDbEntity
  8
0
100
AcDbBlockBegin
  2
_FILLED
 70
64
 10
0.0
 20
0.0
  3
_FILLED
  1

  0
SOLID
  5
402
100
AcDbEntity
  8
0
  6
BYBLOCK
 62
0
100
AcDbTrace
 10
0.0
 20
0.0
 11
-1.0
 21
0.2
 12
-1.0
 22
-0.2
 13
-1.0
 23
-0.2
  0
ENDBLK
  5
403
100
AcDbEntity
  8
0
  6
BYBLOCK
 62
0
100
AcDbBlockEnd
  0
ENDSEC
  0
SECTION
  2
ENTITIES
  0
TEXT
  5
404
100
AcDbEntity
  8
0
100
AcDbText
 62
2
  6
CONTINUOUS
 10
163.9435114782
 20
57.6988375141
  7
TEXTSTYLE_1
 40
2.0
  1
Dimensions in mm [inches]
 41
1.0
 72
0
100
AcDbText
  0
INSERT
  5
405
100
AcDbEntity
  8
0
100
AcDbBlockReference
 62
2
  6
CONTINUOUS
  2
ENSTO_BL0
 10
49.3918275707
 20
37.5779233823
  0
DIMENSION
  5
406
100
AcDbEntity
  8
0
100
AcDbDimension
 62
2
  6
CONTINUOUS
  2
*D0
 10
45.0
 20
238.0
 11
43.5
 21
246.0199765779
 70
160
 42
10.0
  3
DIMSTYLE_1
100
AcDbAlignedDimension
 13
49.0
 23
228.0
 14
49.0
 24
238.0
 50
90.0
100
AcDbRotatedDimension
  0
DIMENSION
  5
407
100
AcDbEntity
  8
0
100
AcDbDimension
 62
2
  6
CONTINUOUS
  2
*D1
 10
50.5
 20
81.0
 11
78.0
 21
82.5
 70
160
 42
55.0
  3
DIMSTYLE_2
100
AcDbAlignedDimension
 13
105.5
 23
92.0
 14
50.5
 24
92.0
 50
180.0
100
AcDbRotatedDimension
  0
DIMENSION
  5
408
100
AcDbEntity
  8
0
100
AcDbDimension
 62
2
  6
CONTINUOUS
  2
*D2
 10
41.5
 20
146.5
 11
40.0
 21
120.0
 70
160
 42
53.0
  3
DIMSTYLE_2
100
AcDbAlignedDimension
 13
49.0
 23
93.5
 14
49.0
 24
146.5
 50
90.0
100
AcDbRotatedDimension
  0
DIMENSION
  5
409
100
AcDbEntity
  8
0
100
AcDbDimension
 62
2
  6
CONTINUOUS
  2
*D3
 10
41.5
 20
238.0
 11
40.0
 21
220.0
 70
160
 42
36.0
  3
DIMSTYLE_2
100
AcDbAlignedDimension
 13
49.0
 23
202.0
 14
49.0
 24
238.0
 50
90.0
100
AcDbRotatedDimension
  0
DIMENSION
  5
40A
100
AcDbEntity
  8
0
100
AcDbDimension
 62
2
  6
CONTINUOUS
  2
*D4
 10
175.5
 20
112.2040076194
 11
189.1542750929
 21
113.7040076194
 70
160
 42
2.5
  3
DIMSTYLE_3
100
AcDbAlignedDimension
 13
178.0
 23
98.0
 14
175.5
 24
99.5741783762
 50
180.0
100
AcDbRotatedDimension
  0
DIMENSION
  5
40B
100
AcDbEntity
  8
0
100
AcDbDimension
 62
2
  6
CONTINUOUS
  2
*D5
 10
175.5
 20
84.5
 11
160.25
 21
86.0
 70
160
 42
30.5
  3
DIMSTYLE_2
100
AcDbAlignedDimension
 13
145.0
 23
94.8138082609
 14
175.5
 24
96.5741783762
100
AcDbRotatedDimension
  0
DIMENSION
  5
40C
100
AcDbEntity
  8
0
100
AcDbDimension
 62
2
  6
CONTINUOUS
  2
*D6
 10
148.5
 20
88.0
 11
134.6769835391
 21
89.5
 70
160
 42
3.5
  3
DIMSTYLE_3
100
AcDbAlignedDimension
 13
145.0
 23
94.8138082609
 14
148.5
 24
111.5
100
AcDbRotatedDimension
  0
DIMENSION
  5
40D
100
AcDbEntity
  8
0
100
AcDbDimension
 62
2
  6
CONTINUOUS
  2
*D7
 10
136.5
 20
118.725
 11
135.0
 21
108.4567161437
 70
160
 42
2.55
  1
%%c<>
  3
DIMSTYLE_3
100
AcDbAlignedDimension
 13
142.3
 23
121.275
 14
142.3
 24
118.725
 50
270.0
100
AcDbRotatedDimension
  0
DIMENSION
  5
40E
100
AcDbEntity
  8
0
100
AcDbDimension
 62
2
  6
CONTINUOUS
  2
*D8
 10
45.0
 20
140.5
 11
43.5
 21
120.0
 70
160
 42
41.0
  3
DIMSTYLE_2
100
AcDbAlignedDimension
 13
55.0
 23
99.5
 14
55.3656853248
 24
140.5
 50
90.0
100
AcDbRotatedDimension
  0
DIMENSION
  5
40F
100
AcDbEntity
  8
0
100
AcDbDimension
 62
2
  6
CONTINUOUS
  2
*D9
 10
99.5
 20
84.5
 11
78.0
 21
86.0
 70
160
 42
43.0
  3
DIMSTYLE_2
100
AcDbAlignedDimension
 13
56.5
 23
98.0
 14
99.5
 24
98.0
100
AcDbRotatedDimension
  0
DIMENSION
  5
410
100
AcDbEntity
  8
0
100
AcDbDimension
 62
2
  6
CONTINUOUS
  2
*D10
 10
86.1
 20
88.0
 11
78.0
 21
89.5
 70
160
 42
16.2
  3
DIMSTYLE_1
100
AcDbAlignedDimension
 13
69.9
 23
118.5
 14
86.1
 24
118.5
100
AcDbRotatedDimension
  0
DIMENSION
  5
411
100
AcDbEntity
  8
0
100
AcDbDimension
 62
2
  6
CONTINUOUS
  2
*D11
 10
136.5
 20
138.4
 11
135.0
 21
155.1970330431
 70
160
 42
4.2
  1
%%c<>
  3
DIMSTYLE_3
100
AcDbAlignedDimension
 13
140.5
 23
142.6
 14
140.5
 24
138.4
 50
270.0
100
AcDbRotatedDimension
  0
DIMENSION
  5
412
100
AcDbEntity
  8
0
100
AcDbDimension
 62
2
  6
CONTINUOUS
  2
*D12
 10
183.5
 20
136.2992820408
 11
182.0
 21
157.1254869702
 70
160
 42
8.4014359184
  1
%%c<>
  3
DIMSTYLE_1
100
AcDbAlignedDimension
 13
169.5
 23
144.7007179592
 14
169.5
 24
136.2992820408
 50
270.0
100
AcDbRotatedDimension
  0
DIMENSION
  5
413
100
AcDbEntity
  8
0
100
AcDbDimension
 62
2
  6
CONTINUOUS
  2
*D13
 10
142.0
 20
166.0
 11
153.8731847014
 21
167.5
 70
160
 42
3.0
  3
DIMSTYLE_3
100
AcDbAlignedDimension
 13
145.0
 23
144.1
 14
142.0
 24
144.1
 50
180.0
100
AcDbRotatedDimension
  0
LINE
  5
414
100
AcDbEntity
  8
0
100
AcDbLine
 62
2
  6
CONTINUOUS
 10
201.9999978361
 20
266.0000036655
 11
16.9999978361
 21
266.0000036655
  0
LINE
  5
415
100
AcDbEntity
  8
0
100
AcDbLine
 62
2
  6
CONTINUOUS
 10
201.9999978361
 20
266.0000036655
 11
201.9999978361
 21
290.0000036655
  0
LINE
  5
416
100
AcDbEntity
  8
0
100
AcDbLine
 62
2
  6
CONTINUOUS
 10
201.9999978361
 20
272.0000036655
 11
16.9999978361
 21
272.0000036655
  0
LINE
  5
417
100
AcDbEntity
  8
0
100
AcDbLine
 62
2
  6
CONTINUOUS
 10
201.9999978361
 20
278.0000036655
 11
16.9999978361
 21
278.0000036655
  0
LINE
  5
418
100
AcDbEntity
  8
0
100
AcDbLine
 62
2
  6
CONTINUOUS
 10
201.9999978361
 20
284.0000036655
 11
16.9999978361
 21
284.0000036655
  0
LINE
  5
419
100
AcDbEntity
  8
0
100
AcDbLine
 62
2
  6
CONTINUOUS
 10
201.9999978361
 20
290.0000036655
 11
16.9999978361
 21
290.0000036655
  0
LINE
  5
41A
100
AcDbEntity
  8
0
100
AcDbLine
 62
2
  6
CONTINUOUS
 10
183.9999978361
 20
266.0000036655
 11
183.9999978361
 21
290.0000036655
  0
LINE
  5
41B
100
AcDbEntity
  8
0
100
AcDbLine
 62
2
  6
CONTINUOUS
 10
165.9999978361
 20
266.0000036655
 11
165.9999978361
 21
290.0000036655
  0
LINE
  5
41C
100
AcDbEntity
  8
0
100
AcDbLine
 62
2
  6
CONTINUOUS
 10
147.9999978361
 20
266.0000036655
 11
147.9999978361
 21
290.0000036655
  0
LINE
  5
41D
100
AcDbEntity
  8
0
100
AcDbLine
 62
2
  6
CONTINUOUS
 10
27.9999978361
 20
266.0000036655
 11
27.9999978361
 21
290.0000036655
  0
LINE
  5
41E
100
AcDbEntity
  8
0
100
AcDbLine
 62
2
  6
CONTINUOUS
 10
16.9999978361
 20
266.0000036655
 11
16.9999978361
 21
290.0000036655
  0
TEXT
  5
41F
100
AcDbEntity
  8
0
100
AcDbText
 62
2
  6
CONTINUOUS
 10
21.3382877989
 20
267.7500036655
  7
TEXTSTYLE_1
 40
2.5
  1
A
 41
1.0
 72
1
 11
22.4999978361
 21
267.7500036655
100
AcDbText
  0
TEXT
  5
420
100
AcDbEntity
  8
0
100
AcDbText
 62
2
  6
CONTINUOUS
 10
189.6654253454
 20
285.9961838279
  7
TEXTSTYLE_1
 40
2.0
  1
Appr.
 41
1.0
 51
5.0
 72
1
 11
192.9999978361
 21
285.9961838279
100
AcDbText
  0
TEXT
  5
421
100
AcDbEntity
  8
0
100
AcDbText
 62
2
  6
CONTINUOUS
 10
173.371745048
 20
285.9961838279
  7
TEXTSTYLE_1
 40
2.0
  1
By
 41
1.0
 51
5.0
 72
1
 11
174.9999978361
 21
285.9961838279
100
AcDbText
  0
TEXT
  5
422
100
AcDbEntity
  8
0
100
AcDbText
 62
2
  6
CONTINUOUS
 10
154.0520424457
 20
285.9961838279
  7
TEXTSTYLE_1
 40
2.0
  1
Date
 41
1.0
 51
5.0
 72
1
 11
156.9999978361
 21
285.9961838279
100
AcDbText
  0
TEXT
  5
423
100
AcDbEntity
  8
0
100
AcDbText
 62
2
  6
CONTINUOUS
 10
81.0185851967
 20
285.9961838279
  7
TEXTSTYLE_1
 40
2.0
  1
Description
 41
1.0
 51
5.0
 72
1
 11
87.9999978361
 21
285.9961838279
100
AcDbText
  0
TEXT
  5
424
100
AcDbEntity
  8
0
100
AcDbText
 62
2
  6
CONTINUOUS
 10
21.1059457915
 20
285.9961838279
  7
TEXTSTYLE_1
 40
2.0
  1
ID
 41
1.0
 51
5.0
 72
1
 11
22.4999978361
 21
285.9961838279
100
AcDbText
  0
LINE
  5
425
100
AcDbEntity
  8
0
100
AcDbLine
 62
2
  6
CONTINUOUS
 10
26.9999255792
 20
55.0000012973
 11
201.9999255792
 21
55.0000012973
  0
LINE
  5
426
100
AcDbEntity
  8
0
100
AcDbLine
 62
2
  6
CONTINUOUS
 10
26.9999255792
 20
55.0000012973
 11
26.9999255792
 21
49.0000012973
  0
LINE
  5
427
100
AcDbEntity
  8
0
100
AcDbLine
 62
2
  6
CONTINUOUS
 10
26.9999255792
 20
49.0000012973
 11
201.9999255792
 21
49.0000012973
  0
LINE
  5
428
100
AcDbEntity
  8
0
100
AcDbLine
 62
2
  6
CONTINUOUS
 10
119.9999255792
 20
55.0000012973
 11
119.9999255792
 21
49.0000012973
  0
LINE
  5
429
100
AcDbEntity
  8
0
100
AcDbLine
 62
2
  6
CONTINUOUS
 10
201.9999255792
 20
55.0000012973
 11
201.9999255792
 21
49.0000012973
  0
TEXT
  5
42A
100
AcDbEntity
  8
0
100
AcDbText
 62
2
  6
CONTINUOUS
 10
28.0499255792
 20
51.1216589394
  7
TEXTSTYLE_1
 40
1.75
  1
Material:
 41
1.0
 51
5.0
 72
0
100
AcDbText
  0
TEXT
  5
42B
100
AcDbEntity
  8
0
100
AcDbText
 62
2
  6
CONTINUOUS
 10
40.0499255792
 20
50.7500012973
  7
TEXTSTYLE_1
 40
2.5
  1
ABS
 41
1.0
 72
0
100
AcDbText
  0
TEXT
  5
42C
100
AcDbEntity
  8
0
100
AcDbText
 62
2
  6
CONTINUOUS
 10
121.0499255792
 20
51.1216589394
  7
TEXTSTYLE_1
 40
1.75
  1
Color:
 41
1.0
 51
5.0
 72
0
100
AcDbText
  0
TEXT
  5
42D
100
AcDbEntity
  8
0
100
AcDbText
 62
2
  6
CONTINUOUS
 10
136.0499255792
 20
50.7500012973
  7
TEXTSTYLE_1
 40
2.5
  1
RAL 7035
 41
1.0
 72
0
100
AcDbText
  0
LINE
  5
42E
100
AcDbEntity
  8
0
100
AcDbLine
 62
2
  6
CONTINUOUS
 10
26.9999216353
 20
49.0000005993
 11
119.9999216353
 21
49.0000005993
  0
LINE
  5
42F
100
AcDbEntity
  8
0
100
AcDbLine
 62
2
  6
CONTINUOUS
 10
26.9999216353
 20
49.0000005993
 11
26.9999216353
 21
43.0000005993
  0
LINE
  5
430
100
AcDbEntity
  8
0
100
AcDbLine
 62
2
  6
CONTINUOUS
 10
26.9999216353
 20
43.0000005993
 11
119.9999216353
 21
43.0000005993
  0
LINE
  5
431
100
AcDbEntity
  8
0
100
AcDbLine
 62
2
  6
CONTINUOUS
 10
70.9999216353
 20
49.0000005993
 11
70.9999216353
 21
43.0000005993
  0
LINE
  5
432
100
AcDbEntity
  8
0
100
AcDbLine
 62
2
  6
CONTINUOUS
 10
119.9999216353
 20
49.0000005993
 11
119.9999216353
 21
43.0000005993
  0
TEXT
  5
433
100
AcDbEntity
  8
0
100
AcDbText
 62
2
  6
CONTINUOUS
 10
28.0499216353
 20
45.1216582415
  7
TEXTSTYLE_1
 40
1.75
  1
Supplier:
 41
1.0
 51
5.0
 72
0
100
AcDbText
  0
TEXT
  5
434
100
AcDbEntity
  8
0
100
AcDbText
 62
2
  6
CONTINUOUS
 10
81.7250145721
 20
45.1216582415
  7
TEXTSTYLE_1
 40
1.75
  1
Tool No:
 41
1.0
 51
5.0
 72
2
 11
90.9499216353
 21
45.1216582415
100
AcDbText
  0
LINE
  5
435
100
AcDbEntity
  8
0
100
AcDbLine
 62
2
  6
CONTINUOUS
 10
119.9999200787
 20
49.0000032543
 11
201.9999200787
 21
49.0000032543
  0
LINE
  5
436
100
AcDbEntity
  8
0
100
AcDbLine
 62
2
  6
CONTINUOUS
 10
119.9999200787
 20
49.0000032543
 11
119.9999200787
 21
43.0000032543
  0
LINE
  5
437
100
AcDbEntity
  8
0
100
AcDbLine
 62
2
  6
CONTINUOUS
 10
119.9999200787
 20
43.0000032543
 11
201.9999200787
 21
43.0000032543
  0
LINE
  5
438
100
AcDbEntity
  8
0
100
AcDbLine
 62
2
  6
CONTINUOUS
 10
161.9999200787
 20
49.0000032543
 11
161.9999200787
 21
43.0000032543
  0
LINE
  5
439
100
AcDbEntity
  8
0
100
AcDbLine
 62
2
  6
CONTINUOUS
 10
201.9999200787
 20
49.0000032543
 11
201.9999200787
 21
43.0000032543
  0
TEXT
  5
43A
100
AcDbEntity
  8
0
100
AcDbText
 62
2
  6
CONTINUOUS
 10
121.1999200787
 20
45.1216608964
  7
TEXTSTYLE_1
 40
1.75
  1
Weight [kg]:
 41
1.0
 51
5.0
 72
0
100
AcDbText
  0
TEXT
  5
43B
100
AcDbEntity
  8
0
100
AcDbText
 62
2
  6
CONTINUOUS
 10
136.1999200787
 20
44.7500032543
  7
TEXTSTYLE_1
 40
2.5
  1
0.04
 41
1.0
 72
0
100
AcDbText
  0
TEXT
  5
43C
100
AcDbEntity
  8
0
100
AcDbText
 62
2
  6
CONTINUOUS
 10
163.1999200787
 20
45.1216608964
  7
TEXTSTYLE_1
 40
1.75
  1
Volume:
 41
1.0
 51
5.0
 72
0
100
AcDbText
  0
LINE
  5
43D
100
AcDbEntity
  8
0
100
AcDbLine
 62
2
  6
CONTINUOUS
 10
201.9999338812
 20
7.0000033963
 11
91.9999338812
 21
7.0000033963
  0
LINE
  5
43E
100
AcDbEntity
  8
0
100
AcDbLine
 62
2
  6
CONTINUOUS
 10
201.9999338812
 20
7.0000033963
 11
201.9999338812
 21
42.9996033963
  0
LINE
  5
43F
100
AcDbEntity
  8
0
100
AcDbLine
 62
2
  6
CONTINUOUS
 10
201.9999338812
 20
12.5548033963
 11
161.9999338812
 21
12.5548033963
  0
LINE
  5
440
100
AcDbEntity
  8
0
100
AcDbLine
 62
2
  6
CONTINUOUS
 10
201.9999338812
 20
18.7028033963
 11
161.9999338812
 21
18.7028033963
  0
LINE
  5
441
100
AcDbEntity
  8
0
100
AcDbLine
 62
2
  6
CONTINUOUS
 10
201.9999338812
 20
24.8512033963
 11
161.9999338812
 21
24.8512033963
  0
LINE
  5
442
100
AcDbEntity
  8
0
100
AcDbLine
 62
2
  6
CONTINUOUS
 10
201.9999338812
 20
30.9996033963
 11
161.9999338812
 21
30.9996033963
  0
LINE
  5
443
100
AcDbEntity
  8
0
100
AcDbLine
 62
2
  6
CONTINUOUS
 10
201.9999338812
 20
36.9996033963
 11
161.9999338812
 21
36.9996033963
  0
LINE
  5
444
100
AcDbEntity
  8
0
100
AcDbLine
 62
2
  6
CONTINUOUS
 10
201.9999338812
 20
42.9996033963
 11
91.9999338812
 21
42.9996033963
  0
LINE
  5
445
100
AcDbEntity
  8
0
100
AcDbLine
 62
2
  6
CONTINUOUS
 10
161.9999338812
 20
7.0000033963
 11
161.9999338812
 21
42.9996033963
  0
LINE
  5
446
100
AcDbEntity
  8
0
100
AcDbLine
 62
2
  6
CONTINUOUS
 10
91.9999338812
 20
7.0000033963
 11
91.9999338812
 21
42.9996033963
  0
TEXT
  5
447
100
AcDbEntity
  8
0
100
AcDbText
 62
2
  6
CONTINUOUS
 10
175.0499338812
 20
8.5548033963
  7
TEXTSTYLE_1
 40
2.5
  1
 
 41
1.0
 72
0
100
AcDbText
  0
TEXT
  5
448
100
AcDbEntity
  8
0
100
AcDbText
 62
2
  6
CONTINUOUS
 10
163.0499338812
 20
8.8990610385
  7
TEXTSTYLE_1
 40
1.75
  1
Sheet No:
 41
1.0
 51
5.0
 72
0
100
AcDbText
  0
TEXT
  5
449
100
AcDbEntity
  8
0
100
AcDbText
 62
2
  6
CONTINUOUS
 10
126.6133167808
 20
8.5000033963
  7
TEXTSTYLE_1
 40
2.0
  1
 
 41
1.0
 72
1
 11
126.9999338812
 21
8.5000033963
100
AcDbText
  0
TEXT
  5
44A
100
AcDbEntity
  8
0
100
AcDbText
 62
2
  6
CONTINUOUS
 10
175.0499338812
 20
14.7028033963
  7
TEXTSTYLE_1
 40
2.5
  1
DABP050504G
 41
1.0
 72
0
100
AcDbText
  0
TEXT
  5
44B
100
AcDbEntity
  8
0
100
AcDbText
 62
2
  6
CONTINUOUS
 10
163.0499338812
 20
14.7504610385
  7
TEXTSTYLE_1
 40
1.75
  1
Code:
 41
1.0
 51
5.0
 72
0
100
AcDbText
  0
TEXT
  5
44C
100
AcDbEntity
  8
0
100
AcDbText
 62
2
  6
CONTINUOUS
 10
126.5166625057
 20
14.0548033963
  7
TEXTSTYLE_1
 40
2.5
  1
 
 41
1.0
 72
1
 11
126.9999338812
 21
14.0548033963
100
AcDbText
  0
TEXT
  5
44D
100
AcDbEntity
  8
0
100
AcDbText
 62
2
  6
CONTINUOUS
 10
175.0499338812
 20
20.8512033963
  7
TEXTSTYLE_1
 40
2.5
  1
-
 41
1.0
 72
0
100
AcDbText
  0
TEXT
  5
44E
100
AcDbEntity
  8
0
100
AcDbText
 62
2
  6
CONTINUOUS
 10
163.0499338812
 20
20.8986610385
  7
TEXTSTYLE_1
 40
1.75
  1
Ref:
 41
1.0
 51
5.0
 72
0
100
AcDbText
  0
TEXT
  5
44F
100
AcDbEntity
  8
0
100
AcDbText
 62
2
  6
CONTINUOUS
 10
126.4200082307
 20
20.2028033963
  7
TEXTSTYLE_1
 40
3.0
  1
 
 41
1.0
 72
1
 11
126.9999338812
 21
20.2028033963
100
AcDbText
  0
TEXT
  5
450
100
AcDbEntity
  8
0
100
AcDbText
 62
2
  6
CONTINUOUS
 10
192.0499338812
 20
26.9996033963
  7
TEXTSTYLE_1
 40
2.5
  1
A
 41
1.0
 72
0
100
AcDbText
  0
TEXT
  5
451
100
AcDbEntity
  8
0
100
AcDbText
 62
2
  6
CONTINUOUS
 10
163.0499338812
 20
27.0470610385
  7
TEXTSTYLE_1
 40
1.75
  1
Drw No:
 41
1.0
 51
5.0
 72
0
100
AcDbText
  0
TEXT
  5
452
100
AcDbEntity
  8
0
100
AcDbText
 62
2
  6
CONTINUOUS
 10
126.4200082307
 20
26.3512033963
  7
TEXTSTYLE_1
 40
3.0
  1
 
 41
1.0
 72
1
 11
126.9999338812
 21
26.3512033963
100
AcDbText
  0
TEXT
  5
453
100
AcDbEntity
  8
0
100
AcDbText
 62
2
  6
CONTINUOUS
 10
175.0499338812
 20
32.9996033963
  7
TEXTSTYLE_1
 40
2.5
  1
 
 41
1.0
 72
0
100
AcDbText
  0
TEXT
  5
454
100
AcDbEntity
  8
0
100
AcDbText
 62
2
  6
CONTINUOUS
 10
163.0499338812
 20
33.1212610385
  7
TEXTSTYLE_1
 40
1.75
  1
Replaced:
 41
1.0
 51
5.0
 72
0
100
AcDbText
  0
TEXT
  5
455
100
AcDbEntity
  8
0
100
AcDbText
 62
2
  6
CONTINUOUS
 10
107.9144320225
 20
32.4996033963
  7
TEXTSTYLE_1
 40
4.0
  1
DABP050504G
 41
1.0
 72
1
 11
126.9999338812
 21
32.4996033963
100
AcDbText
  0
TEXT
  5
456
100
AcDbEntity
  8
0
100
AcDbText
 62
2
  6
CONTINUOUS
 10
175.0499338812
 20
38.9996033963
  7
TEXTSTYLE_1
 40
2.5
  1
 
 41
1.0
 72
0
100
AcDbText
  0
TEXT
  5
457
100
AcDbEntity
  8
0
100
AcDbText
 62
2
  6
CONTINUOUS
 10
163.0499338812
 20
39.1212610385
  7
TEXTSTYLE_1
 40
1.75
  1
Replaces:
 41
1.0
 51
5.0
 72
0
100
AcDbText
  0
LINE
  5
458
100
AcDbEntity
  8
0
100
AcDbLine
 62
2
  6
CONTINUOUS
 10
91.9999338817
 20
7.0000034085
 11
26.9999338817
 21
7.0000034085
  0
LINE
  5
459
100
AcDbEntity
  8
0
100
AcDbLine
 62
2
  6
CONTINUOUS
 10
91.9999338817
 20
7.0000034085
 11
91.9999338817
 21
43.0000034085
  0
LINE
  5
45A
100
AcDbEntity
  8
0
100
AcDbLine
 62
2
  6
CONTINUOUS
 10
91.9999338817
 20
12.0000034085
 11
56.9999338817
 21
12.0000034085
  0
LINE
  5
45B
100
AcDbEntity
  8
0
100
AcDbLine
 62
2
  6
CONTINUOUS
 10
91.9999338817
 20
17.0000034085
 11
56.9999338817
 21
17.0000034085
  0
LINE
  5
45C
100
AcDbEntity
  8
0
100
AcDbLine
 62
2
  6
CONTINUOUS
 10
91.9999338817
 20
22.0000034085
 11
26.9999338817
 21
22.0000034085
  0
LINE
  5
45D
100
AcDbEntity
  8
0
100
AcDbLine
 62
2
  6
CONTINUOUS
 10
91.9999338817
 20
27.0000034085
 11
26.9999338817
 21
27.0000034085
  0
LINE
  5
45E
100
AcDbEntity
  8
0
100
AcDbLine
 62
2
  6
CONTINUOUS
 10
91.9999338817
 20
43.0000034085
 11
26.9999338817
 21
43.0000034085
  0
LINE
  5
45F
100
AcDbEntity
  8
0
100
AcDbLine
 62
2
  6
CONTINUOUS
 10
70.9999338817
 20
7.0000034085
 11
70.9999338817
 21
43.0000034085
  0
LINE
  5
460
100
AcDbEntity
  8
0
100
AcDbLine
 62
2
  6
CONTINUOUS
 10
56.9999338817
 20
7.0000034085
 11
56.9999338817
 21
27.0000034085
  0
LINE
  5
461
100
AcDbEntity
  8
0
100
AcDbLine
 62
2
  6
CONTINUOUS
 10
26.9999338817
 20
7.0000034085
 11
26.9999338817
 21
43.0000034085
  0
TEXT
  5
462
100
AcDbEntity
  8
0
100
AcDbText
 62
2
  6
CONTINUOUS
 10
72.0499338817
 20
8.2500034085
  7
TEXTSTYLE_1
 40
2.5
  1
 
 41
1.0
 72
0
100
AcDbText
  0
TEXT
  5
463
100
AcDbEntity
  8
0
100
AcDbText
 62
2
  6
CONTINUOUS
 10
58.0499338817
 20
8.6216610506
  7
TEXTSTYLE_1
 40
1.75
  1
Ctrl
 41
1.0
 51
5.0
 72
0
100
AcDbText
  0
TEXT
  5
464
100
AcDbEntity
  8
0
100
AcDbText
 62
2
  6
CONTINUOUS
 10
41.4190788631
 20
8.2500034085
  7
TEXTSTYLE_1
 40
2.5
  1
-
 41
1.0
 72
1
 11
41.9999338817
 21
8.2500034085
100
AcDbText
  0
TEXT
  5
465
100
AcDbEntity
  8
0
100
AcDbText
 62
2
  6
CONTINUOUS
 10
72.0499338817
 20
13.2500034085
  7
TEXTSTYLE_1
 40
2.5
  1
 
 41
1.0
 72
0
100
AcDbText
  0
TEXT
  5
466
100
AcDbEntity
  8
0
100
AcDbText
 62
2
  6
CONTINUOUS
 10
58.0499338817
 20
13.6216610506
  7
TEXTSTYLE_1
 40
1.75
  1
Checked
 41
1.0
 51
5.0
 72
0
100
AcDbText
  0
TEXT
  5
467
100
AcDbEntity
  8
0
100
AcDbText
 62
2
  6
CONTINUOUS
 10
41.4190788631
 20
13.2500034085
  7
TEXTSTYLE_1
 40
2.5
  1
-
 41
1.0
 72
1
 11
41.9999338817
 21
13.2500034085
100
AcDbText
  0
TEXT
  5
468
100
AcDbEntity
  8
0
100
AcDbText
 62
2
  6
CONTINUOUS
 10
72.0499338817
 20
18.2500034085
  7
TEXTSTYLE_1
 40
2.5
  1
PKos
 41
1.0
 72
0
100
AcDbText
  0
TEXT
  5
469
100
AcDbEntity
  8
0
100
AcDbText
 62
2
  6
CONTINUOUS
 10
58.0499338817
 20
18.6216610506
  7
TEXTSTYLE_1
 40
1.75
  1
By
 41
1.0
 51
5.0
 72
0
100
AcDbText
  0
TEXT
  5
46A
100
AcDbEntity
  8
0
100
AcDbText
 62
2
  6
CONTINUOUS
 10
39.0891532126
 20
18.0000034085
  7
TEXTSTYLE_1
 40
3.0
  1
1:1
 41
1.0
 72
1
 11
41.9999338817
 21
18.0000034085
100
AcDbText
  0
TEXT
  5
46B
100
AcDbEntity
  8
0
100
AcDbText
 62
2
  6
CONTINUOUS
 10
72.0499338817
 20
23.2500034085
  7
TEXTSTYLE_1
 40
2.5
  1
18.12.08
 41
1.0
 72
0
100
AcDbText
  0
TEXT
  5
46C
100
AcDbEntity
  8
0
100
AcDbText
 62
2
  6
CONTINUOUS
 10
58.0499338817
 20
23.6216610506
  7
TEXTSTYLE_1
 40
1.75
  1
Date
 41
1.0
 51
5.0
 72
0
100
AcDbText
  0
TEXT
  5
46D
100
AcDbEntity
  8
0
100
AcDbText
 62
2
  6
CONTINUOUS
 10
38.945565852
 20
23.6216610506
  7
TEXTSTYLE_1
 40
1.75
  1
Scale
 41
1.0
 51
5.0
 72
1
 11
41.9999338817
 21
23.6216610506
100
AcDbText
  0
LINE
  5
46E
100
AcDbEntity
  8
0
100
AcDbLine
 62
2
  6
CONTINUOUS
 10
26.9999338006
 20
43.0000035528
 11
70.9999338006
 21
43.0000035528
  0
LINE
  5
46F
100
AcDbEntity
  8
0
100
AcDbLine
 62
2
  6
CONTINUOUS
 10
26.9999338006
 20
43.0000035528
 11
26.9999338006
 21
27.0000035528
  0
LINE
  5
470
100
AcDbEntity
  8
0
100
AcDbLine
 62
2
  6
CONTINUOUS
 10
26.9999338006
 20
27.0000035528
 11
70.9999338006
 21
27.0000035528
  0
LINE
  5
471
100
AcDbEntity
  8
0
100
AcDbLine
 62
2
  6
CONTINUOUS
 10
70.9999338006
 20
43.0000035528
 11
70.9999338006
 21
27.0000035528
  0
TEXT
  5
472
100
AcDbEntity
  8
0
100
AcDbText
 62
2
  6
CONTINUOUS
 10
33.3854356593
 20
28.7000035528
  7
TEXTSTYLE_1
 40
2.6
  1
ENSTO CONTROL
 41
1.0
 72
1
 11
48.9999338006
 21
28.7000035528
100
AcDbText
  0
LINE
  5
473
100
AcDbEntity
  8
0
100
AcDbLine
 62
2
  6
CONTINUOUS
 10
16.9999254007
 20
7.0000024496
 11
16.9999254007
 21
49.0000024496
  0
LINE
  5
474
100
AcDbEntity
  8
0
100
AcDbLine
 62
2
  6
CONTINUOUS
 10
16.9999254007
 20
7.0000024496
 11
26.9999254007
 21
7.0000024496
  0
LINE
  5
475
100
AcDbEntity
  8
0
100
AcDbLine
 62
2
  6
CONTINUOUS
 10
21.9999254007
 20
7.0000024496
 11
21.9999254007
 21
49.0000024496
  0
LINE
  5
476
100
AcDbEntity
  8
0
100
AcDbLine
 62
2
  6
CONTINUOUS
 10
26.9999254007
 20
7.0000024496
 11
26.9999254007
 21
49.0000024496
  0
LINE
  5
477
100
AcDbEntity
  8
0
100
AcDbLine
 62
2
  6
CONTINUOUS
 10
16.9999254007
 20
49.0000024496
 11
26.9999254007
 21
49.0000024496
  0
TEXT
  5
478
100
AcDbEntity
  8
0
100
AcDbText
 62
2
  6
CONTINUOUS
 10
20.2527902789
 20
8.0500024496
  7
TEXTSTYLE_1
 40
1.5
  1
model
 50
90.0
 41
1.0
 51
5.0
 72
0
100
AcDbText
  0
MTEXT
  5
479
100
AcDbEntity
  8
0
100
AcDbMText
 62
2
  6
CONTINUOUS
  7
TEXTSTYLE_1
 71
1
 72
1
 10
18.2499254007
 20
18.0500024496
 30
0.0
 11
0.0
 21
1.0
 31
0.0
  1
DABP050504G\H1.0000000000;.PART
 40
2.5
 41
27.9609665428
  0
TEXT
  5
47A
100
AcDbEntity
  8
0
100
AcDbText
 62
2
  6
CONTINUOUS
 10
25.2527902789
 20
8.0500024496
  7
TEXTSTYLE_1
 40
1.5
  1
drawing
 50
90.0
 41
1.0
 51
5.0
 72
0
100
AcDbText
  0
MTEXT
  5
47B
100
AcDbEntity
  8
0
100
AcDbMText
 62
2
  6
CONTINUOUS
  7
TEXTSTYLE_1
 71
1
 72
1
 10
23.2499254007
 20
18.0500024496
 30
0.0
 11
0.0
 21
1.0
 31
0.0
  1
CUBO_D_1\H1.0000000000;.DRAWING
 40
2.5
 41
25.5464684015
  0
LINE
  5
47C
100
AcDbEntity
  8
0
100
AcDbLine
 62
7
  6
CONTINUOUS
 10
17.0
 20
7.0
 11
202.0
 21
7.0
  0
LINE
  5
47D
100
AcDbEntity
  8
0
100
AcDbLine
 62
2
  6
CONTINUOUS
 10
72.6876968233
 20
34.8664854626
 11
89.3903951458
 21
34.8664854626
  0
LINE
  5
47E
100
AcDbEntity
  8
0
100
AcDbLine
 62
7
  6
CONTINUOUS
 10
74.6149312451
 20
33.5816625147
 11
81.0390459845
 21
32.2968395668
  0
LINE
  5
47F
100
AcDbEntity
  8
0
100
AcDbLine
 62
7
  6
CONTINUOUS
 10
74.6149312451
 20
36.1513084105
 11
81.0390459845
 21
37.4361313584
  0
LINE
  5
480
100
AcDbEntity
  8
0
100
AcDbLine
 62
2
  6
CONTINUOUS
 10
202.0
 20
43.0
 11
200.0
 21
43.0
  0
LINE
  5
481
100
AcDbEntity
  8
0
100
AcDbLine
 62
7
  6
CONTINUOUS
 10
17.0
 20
7.0
 11
17.0
 21
290.0
  0
LINE
  5
482
100
AcDbEntity
  8
0
100
AcDbLine
 62
2
  6
CONTINUOUS
 10
27.0
 20
7.0
 11
27.0
 21
9.0
  0
LINE
  5
483
100
AcDbEntity
  8
0
100
AcDbLine
 62
7
  6
CONTINUOUS
 10
74.6149312451
 20
33.5816625147
 11
74.6149312451
 21
36.1513084105
  0
LINE
  5
484
100
AcDbEntity
  8
0
100
AcDbLine
 62
7
  6
CONTINUOUS
 10
81.0390459845
 20
37.4361313584
 11
81.0390459845
 21
32.2968395668
  0
LINE
  5
485
100
AcDbEntity
  8
0
100
AcDbLine
 62
2
  6
CONTINUOUS
 10
86.1783377761
 20
38.0785428323
 11
86.1783377761
 21
31.6544280929
  0
LINE
  5
486
100
AcDbEntity
  8
0
100
AcDbLine
 62
2
  6
CONTINUOUS
 10
92.0
 20
7.0
 11
92.0
 21
9.0
  0
LINE
  5
487
100
AcDbEntity
  8
0
100
AcDbLine
 62
2
  6
CONTINUOUS
 10
17.0
 20
150.5
 11
12.0
 21
150.5
  0
LINE
  5
488
100
AcDbEntity
  8
0
100
AcDbLine
 62
7
  6
CONTINUOUS
 10
202.0
 20
7.0
 11
202.0
 21
290.0
  0
LINE
  5
489
100
AcDbEntity
  8
0
100
AcDbLine
 62
7
  6
CONTINUOUS
 10
17.0
 20
290.0
 11
202.0
 21
290.0
  0
LINE
  5
48A
100
AcDbEntity
  8
EDGEFEAT
100
AcDbLine
 62
7
  6
CONTINUOUS
 10
50.5
 20
143.5
 11
53.5
 21
146.5
  0
LINE
  5
48B
100
AcDbEntity
  8
EDGEFEAT
100
AcDbLine
 62
7
  6
CONTINUOUS
 10
51.0358983849
 20
143.2780236209
 11
53.7219763791
 21
145.9641016151
  0
LINE
  5
48C
100
AcDbEntity
  8
EDGEFEAT
100
AcDbLine
 62
7
  6
CONTINUOUS
 10
53.5
 20
93.5
 11
50.5
 21
96.5
  0
LINE
  5
48D
100
AcDbEntity
  8
EDGEFEAT
100
AcDbLine
 62
7
  6
CONTINUOUS
 10
53.7219763791
 20
94.0358983849
 11
51.0358983849
 21
96.7219763791
  0
LINE
  5
48E
100
AcDbEntity
  8
EDGEFEAT
100
AcDbLine
 62
7
  6
CONTINUOUS
 10
50.5
 20
96.5
 11
50.5
 21
143.5
  0
LINE
  5
48F
100
AcDbEntity
  8
EDGEFEAT
100
AcDbLine
 62
7
  6
CONTINUOUS
 10
51.0358983849
 20
96.7219763791
 11
51.0358983849
 21
143.2780236209
  0
LINE
  5
490
100
AcDbEntity
  8
0
100
AcDbLine
 62
7
  6
CONTINUOUS
 10
56.9711388647
 20
142.1334099668
 11
56.9988529156
 21
142.229492906
  0
LINE
  5
491
100
AcDbEntity
  8
0
100
AcDbLine
 62
7
  6
CONTINUOUS
 10
55.9708717806
 20
138.7795281889
 11
56.0002677928
 21
138.8751099562
  0
LINE
  5
492
100
AcDbEntity
  8
EDGEFEAT
100
AcDbLine
 62
7
  6
CONTINUOUS
 10
102.5
 20
93.5
 11
53.5
 21
93.5
  0
LINE
  5
493
100
AcDbEntity
  8
EDGEFEAT
100
AcDbLine
 62
7
  6
CONTINUOUS
 10
102.2780236209
 20
94.0358983849
 11
53.7219763791
 21
94.0358983849
  0
LINE
  5
494
100
AcDbEntity
  8
0
100
AcDbLine
 62
7
  6
CONTINUOUS
 10
53.1130903017
 20
133.0
 11
53.1130903017
 21
107.0
  0
LINE
  5
495
100
AcDbEntity
  8
0
100
AcDbLine
 62
7
  6
CONTINUOUS
 10
53.3138082609
 20
107.0
 11
53.3138082609
 21
133.0
  0
LINE
  5
496
100
AcDbEntity
  8
0
100
AcDbLine
 62
7
  6
CONTINUOUS
 10
54.1
 20
106.2138082609
 11
54.1
 21
106.0130903017
  0
LINE
  5
497
100
AcDbEntity
  8
0
100
AcDbLine
 62
7
  6
CONTINUOUS
 10
54.1
 20
133.7861917391
 11
54.1
 21
133.9869096983
  0
LINE
  5
498
100
AcDbEntity
  8
0
100
AcDbLine
 62
7
  6
CONTINUOUS
 10
64.0
 20
96.1130903017
 11
92.0
 21
96.1130903017
  0
LINE
  5
499
100
AcDbEntity
  8
0
100
AcDbLine
 62
7
  6
CONTINUOUS
 10
92.0
 20
96.3138082609
 11
64.0
 21
96.3138082609
  0
LINE
  5
49A
100
AcDbEntity
  8
0
100
AcDbLine
 62
7
  6
CONTINUOUS
 10
63.2138082609
 20
97.1
 11
63.0130903017
 21
97.1
  0
LINE
  5
49B
100
AcDbEntity
  8
0
100
AcDbLine
 62
7
  6
CONTINUOUS
 10
92.7861917391
 20
97.1
 11
92.9869096983
 21
97.1
  0
LINE
  5
49C
100
AcDbEntity
  8
0
100
AcDbLine
 62
7
  6
CONTINUOUS
 10
56.5
 20
106.2138082609
 11
56.5
 21
106.0130903017
  0
LINE
  5
49D
100
AcDbEntity
  8
0
100
AcDbLine
 62
7
  6
CONTINUOUS
 10
56.5
 20
133.7861917391
 11
56.5
 21
133.9869096983
  0
LINE
  5
49E
100
AcDbEntity
  8
0
100
AcDbLine
 62
7
  6
CONTINUOUS
 10
99.0940030393
 20
100.9440105498
 11
99.5
 21
101.0
  0
LINE
  5
49F
100
AcDbEntity
  8
0
100
AcDbLine
 62
7
  6
CONTINUOUS
 10
63.2138082609
 20
99.5
 11
63.0130903017
 21
99.5
  0
LINE
  5
4A0
100
AcDbEntity
  8
0
100
AcDbLine
 62
7
  6
CONTINUOUS
 10
92.7861917391
 20
99.5
 11
92.9869096983
 21
99.5
  0
LINE
  5
4A1
100
AcDbEntity
  8
0
100
AcDbLine
 62
7
  6
CONTINUOUS
 10
63.0130903017
 20
142.9
 11
63.0130903017
 21
140.5
  0
LINE
  5
4A2
100
AcDbEntity
  8
0
100
AcDbLine
 62
7
  6
CONTINUOUS
 10
63.0130903017
 20
99.5
 11
63.0130903017
 21
97.1
  0
LINE
  5
4A3
100
AcDbEntity
  8
0
100
AcDbLine
 62
7
  6
CONTINUOUS
 10
63.2138082609
 20
97.1
 11
63.2138082609
 21
99.5
  0
LINE
  5
4A4
100
AcDbEntity
  8
0
100
AcDbLine
 62
7
  6
CONTINUOUS
 10
63.2138082609
 20
140.5
 11
63.2138082609
 21
142.9
  0
LINE
  5
4A5
100
AcDbEntity
  8
0
100
AcDbLine
 62
7
  6
CONTINUOUS
 10
64.0
 20
96.3138082609
 11
64.0
 21
96.1130903017
  0
LINE
  5
4A6
100
AcDbEntity
  8
0
100
AcDbLine
 62
7
  6
CONTINUOUS
 10
64.0
 20
143.6861917391
 11
64.0
 21
143.8869096983
  0
LINE
  5
4A7
100
AcDbEntity
  8
EDGEFEAT
100
AcDbLine
 62
7
  6
CONTINUOUS
 10
53.5
 20
93.5
 11
53.7219763791
 21
94.0358983849
  0
LINE
  5
4A8
100
AcDbEntity
  8
0
100
AcDbLine
 62
7
  6
CONTINUOUS
 10
54.1
 20
106.0130903017
 11
56.5
 21
106.0130903017
  0
LINE
  5
4A9
100
AcDbEntity
  8
0
100
AcDbLine
 62
7
  6
CONTINUOUS
 10
99.5
 20
106.0130903017
 11
101.9
 21
106.0130903017
  0
LINE
  5
4AA
100
AcDbEntity
  8
0
100
AcDbLine
 62
7
  6
CONTINUOUS
 10
101.9
 20
106.2138082609
 11
99.5
 21
106.2138082609
  0
LINE
  5
4AB
100
AcDbEntity
  8
0
100
AcDbLine
 62
7
  6
CONTINUOUS
 10
56.5
 20
106.2138082609
 11
54.1
 21
106.2138082609
  0
LINE
  5
4AC
100
AcDbEntity
  8
0
100
AcDbLine
 62
7
  6
CONTINUOUS
 10
53.3138082609
 20
107.0
 11
53.1130903017
 21
107.0
  0
LINE
  5
4AD
100
AcDbEntity
  8
0
100
AcDbLine
 62
7
  6
CONTINUOUS
 10
102.6861917391
 20
107.0
 11
102.8869096983
 21
107.0
  0
LINE
  5
4AE
100
AcDbEntity
  8
EDGEFEAT
100
AcDbLine
 62
7
  6
CONTINUOUS
 10
53.7219763791
 20
145.9641016151
 11
53.5
 21
146.5
  0
LINE
  5
4AF
100
AcDbEntity
  8
EDGEFEAT
100
AcDbLine
 62
7
  6
CONTINUOUS
 10
105.5
 20
143.5
 11
104.9641016151
 21
143.2780236209
  0
LINE
  5
4B0
100
AcDbEntity
  8
EDGEFEAT
100
AcDbLine
 62
7
  6
CONTINUOUS
 10
105.5
 20
96.5
 11
104.9641016151
 21
96.7219763791
  0
LINE
  5
4B1
100
AcDbEntity
  8
0
100
AcDbLine
 62
7
  6
CONTINUOUS
 10
98.5516584233
 20
97.9700822915
 11
99.0011470844
 21
97.770507094
  0
LINE
  5
4B2
100
AcDbEntity
  8
EDGEFEAT
100
AcDbLine
 62
7
  6
CONTINUOUS
 10
68.8220625996
 20
127.0
 11
68.8220625996
 21
123.1485263789
  0
LINE
  5
4B3
100
AcDbEntity
  8
EDGEFEAT
100
AcDbLine
 62
7
  6
CONTINUOUS
 10
68.8220625996
 20
116.8514736231
 11
68.8220625996
 21
113.0
  0
LINE
  5
4B4
100
AcDbEntity
  8
EDGEFEAT
100
AcDbLine
 62
7
  6
CONTINUOUS
 10
69.1220511765
 20
127.0
 11
69.1220511765
 21
123.1485263795
  0
LINE
  5
4B5
100
AcDbEntity
  8
EDGEFEAT
100
AcDbLine
 62
7
  6
CONTINUOUS
 10
69.1220511765
 20
116.8514736205
 11
69.1220511765
 21
113.0
  0
LINE
  5
4B6
100
AcDbEntity
  8
EDGEFEAT
100
AcDbLine
 62
7
  6
CONTINUOUS
 10
69.15
 20
127.0
 11
69.15
 21
123.1284898268
  0
LINE
  5
4B7
100
AcDbEntity
  8
EDGEFEAT
100
AcDbLine
 62
7
  6
CONTINUOUS
 10
69.15
 20
116.8715101732
 11
69.15
 21
113.0
  0
LINE
  5
4B8
100
AcDbEntity
  8
EDGEFEAT
100
AcDbLine
 62
7
  6
CONTINUOUS
 10
70.65
 20
113.0
 11
70.65
 21
116.8715101732
  0
LINE
  5
4B9
100
AcDbEntity
  8
EDGEFEAT
100
AcDbLine
 62
7
  6
CONTINUOUS
 10
70.65
 20
123.1284898268
 11
70.65
 21
127.0
  0
LINE
  5
4BA
100
AcDbEntity
  8
EDGEFEAT
100
AcDbLine
 62
7
  6
CONTINUOUS
 10
70.6779488235
 20
113.0
 11
70.6779488235
 21
116.8514736205
  0
LINE
  5
4BB
100
AcDbEntity
  8
EDGEFEAT
100
AcDbLine
 62
7
  6
CONTINUOUS
 10
70.6779488235
 20
123.1485263795
 11
70.6779488235
 21
127.0
  0
LINE
  5
4BC
100
AcDbEntity
  8
EDGEFEAT
100
AcDbLine
 62
7
  6
CONTINUOUS
 10
70.9779374004
 20
123.1485263699
 11
70.8807694349
 21
122.8647103507
  0
LINE
  5
4BD
100
AcDbEntity
  8
EDGEFEAT
100
AcDbLine
 62
7
  6
CONTINUOUS
 10
68.8220625996
 20
116.8514736301
 11
68.9192305651
 21
117.1352896493
  0
LINE
  5
4BE
100
AcDbEntity
  8
EDGEFEAT
100
AcDbLine
 62
7
  6
CONTINUOUS
 10
68.8220625996
 20
123.1485263699
 11
68.9192305651
 21
122.8647103507
  0
LINE
  5
4BF
100
AcDbEntity
  8
EDGEFEAT
100
AcDbLine
 62
7
  6
CONTINUOUS
 10
70.9779374004
 20
116.8514736301
 11
70.8807694349
 21
117.1352896493
  0
LINE
  5
4C0
100
AcDbEntity
  8
EDGEFEAT
100
AcDbLine
 62
7
  6
CONTINUOUS
 10
70.9779374004
 20
113.0
 11
70.9779374004
 21
116.8514736222
  0
LINE
  5
4C1
100
AcDbEntity
  8
EDGEFEAT
100
AcDbLine
 62
7
  6
CONTINUOUS
 10
70.9779374004
 20
123.1485263781
 11
70.9779374004
 21
127.0
  0
LINE
  5
4C2
100
AcDbEntity
  8
EDGEFEAT
100
AcDbLine
 62
7
  6
CONTINUOUS
 10
87.1779374004
 20
113.0
 11
86.85
 21
113.0
  0
LINE
  5
4C3
100
AcDbEntity
  8
EDGEFEAT
100
AcDbLine
 62
7
  6
CONTINUOUS
 10
70.9779374004
 20
113.0
 11
70.65
 21
113.0
  0
LINE
  5
4C4
100
AcDbEntity
  8
EDGEFEAT
100
AcDbLine
 62
7
  6
CONTINUOUS
 10
68.8220625996
 20
113.0
 11
69.15
 21
113.0
  0
LINE
  5
4C5
100
AcDbEntity
  8
EDGEFEAT
100
AcDbLine
 62
7
  6
CONTINUOUS
 10
85.0220625996
 20
113.0
 11
85.35
 21
113.0
  0
LINE
  5
4C6
100
AcDbEntity
  8
EDGEFEAT
100
AcDbLine
 62
7
  6
CONTINUOUS
 10
87.1779374004
 20
116.8514736301
 11
86.8779488235
 21
116.8514736301
  0
LINE
  5
4C7
100
AcDbEntity
  8
EDGEFEAT
100
AcDbLine
 62
7
  6
CONTINUOUS
 10
70.9779374004
 20
116.8514736301
 11
70.6779488235
 21
116.8514736301
  0
LINE
  5
4C8
100
AcDbEntity
  8
EDGEFEAT
100
AcDbLine
 62
7
  6
CONTINUOUS
 10
68.8220625996
 20
116.8514736301
 11
69.1220511765
 21
116.8514736301
  0
LINE
  5
4C9
100
AcDbEntity
  8
EDGEFEAT
100
AcDbLine
 62
7
  6
CONTINUOUS
 10
85.0220625996
 20
116.8514736301
 11
85.3220511765
 21
116.8514736301
  0
LINE
  5
4CA
100
AcDbEntity
  8
EDGEFEAT
100
AcDbLine
 62
7
  6
CONTINUOUS
 10
87.1779374004
 20
123.1485263699
 11
86.8779488235
 21
123.1485263699
  0
LINE
  5
4CB
100
AcDbEntity
  8
EDGEFEAT
100
AcDbLine
 62
7
  6
CONTINUOUS
 10
70.9779374004
 20
123.1485263699
 11
70.6779488235
 21
123.1485263699
  0
LINE
  5
4CC
100
AcDbEntity
  8
EDGEFEAT
100
AcDbLine
 62
7
  6
CONTINUOUS
 10
68.8220625996
 20
123.1485263699
 11
69.1220511765
 21
123.1485263699
  0
LINE
  5
4CD
100
AcDbEntity
  8
EDGEFEAT
100
AcDbLine
 62
7
  6
CONTINUOUS
 10
85.0220625996
 20
123.1485263699
 11
85.3220511765
 21
123.1485263699
  0
LINE
  5
4CE
100
AcDbEntity
  8
EDGEFEAT
100
AcDbLine
 62
7
  6
CONTINUOUS
 10
85.0220625996
 20
127.0
 11
85.0220625996
 21
123.1485263778
  0
LINE
  5
4CF
100
AcDbEntity
  8
EDGEFEAT
100
AcDbLine
 62
7
  6
CONTINUOUS
 10
85.0220625996
 20
116.8514736219
 11
85.0220625996
 21
113.0
  0
LINE
  5
4D0
100
AcDbEntity
  8
EDGEFEAT
100
AcDbLine
 62
7
  6
CONTINUOUS
 10
85.3220511765
 20
127.0
 11
85.3220511765
 21
123.1485263795
  0
LINE
  5
4D1
100
AcDbEntity
  8
EDGEFEAT
100
AcDbLine
 62
7
  6
CONTINUOUS
 10
85.3220511765
 20
116.8514736205
 11
85.3220511765
 21
113.0
  0
LINE
  5
4D2
100
AcDbEntity
  8
EDGEFEAT
100
AcDbLine
 62
7
  6
CONTINUOUS
 10
85.35
 20
127.0
 11
85.35
 21
123.1284898268
  0
LINE
  5
4D3
100
AcDbEntity
  8
EDGEFEAT
100
AcDbLine
 62
7
  6
CONTINUOUS
 10
85.35
 20
116.8715101732
 11
85.35
 21
113.0
  0
LINE
  5
4D4
100
AcDbEntity
  8
EDGEFEAT
100
AcDbLine
 62
7
  6
CONTINUOUS
 10
87.1779374004
 20
123.1485263699
 11
87.0807694349
 21
122.8647103507
  0
LINE
  5
4D5
100
AcDbEntity
  8
EDGEFEAT
100
AcDbLine
 62
7
  6
CONTINUOUS
 10
85.0220625996
 20
116.8514736301
 11
85.1192305651
 21
117.1352896493
  0
LINE
  5
4D6
100
AcDbEntity
  8
EDGEFEAT
100
AcDbLine
 62
7
  6
CONTINUOUS
 10
87.1779374004
 20
127.0
 11
86.85
 21
127.0
  0
LINE
  5
4D7
100
AcDbEntity
  8
EDGEFEAT
100
AcDbLine
 62
7
  6
CONTINUOUS
 10
70.9779374004
 20
127.0
 11
70.65
 21
127.0
  0
LINE
  5
4D8
100
AcDbEntity
  8
EDGEFEAT
100
AcDbLine
 62
7
  6
CONTINUOUS
 10
68.8220625996
 20
127.0
 11
69.15
 21
127.0
  0
LINE
  5
4D9
100
AcDbEntity
  8
EDGEFEAT
100
AcDbLine
 62
7
  6
CONTINUOUS
 10
85.0220625996
 20
127.0
 11
85.35
 21
127.0
  0
LINE
  5
4DA
100
AcDbEntity
  8
EDGEFEAT
100
AcDbLine
 62
7
  6
CONTINUOUS
 10
85.0220625996
 20
123.1485263699
 11
85.1192305651
 21
122.8647103507
  0
LINE
  5
4DB
100
AcDbEntity
  8
EDGEFEAT
100
AcDbLine
 62
7
  6
CONTINUOUS
 10
87.1779374004
 20
116.8514736301
 11
87.0807694349
 21
117.1352896493
  0
LINE
  5
4DC
100
AcDbEntity
  8
EDGEFEAT
100
AcDbLine
 62
7
  6
CONTINUOUS
 10
86.85
 20
113.0
 11
86.85
 21
116.8715101732
  0
LINE
  5
4DD
100
AcDbEntity
  8
EDGEFEAT
100
AcDbLine
 62
7
  6
CONTINUOUS
 10
86.85
 20
123.1284898268
 11
86.85
 21
127.0
  0
LINE
  5
4DE
100
AcDbEntity
  8
EDGEFEAT
100
AcDbLine
 62
7
  6
CONTINUOUS
 10
86.8779488235
 20
113.0
 11
86.8779488235
 21
116.8514736205
  0
LINE
  5
4DF
100
AcDbEntity
  8
EDGEFEAT
100
AcDbLine
 62
7
  6
CONTINUOUS
 10
86.8779488235
 20
123.1485263795
 11
86.8779488235
 21
127.0
  0
LINE
  5
4E0
100
AcDbEntity
  8
EDGEFEAT
100
AcDbLine
 62
7
  6
CONTINUOUS
 10
87.1779374004
 20
113.0
 11
87.1779374004
 21
116.8514736211
  0
LINE
  5
4E1
100
AcDbEntity
  8
EDGEFEAT
100
AcDbLine
 62
7
  6
CONTINUOUS
 10
87.1779374004
 20
123.1485263769
 11
87.1779374004
 21
127.0
  0
LINE
  5
4E2
100
AcDbEntity
  8
EDGEFEAT
100
AcDbLine
 62
7
  6
CONTINUOUS
 10
102.5
 20
146.5
 11
102.2780236209
 21
145.9641016151
  0
LINE
  5
4E3
100
AcDbEntity
  8
EDGEFEAT
100
AcDbLine
 62
7
  6
CONTINUOUS
 10
51.0358983849
 20
96.7219763791
 11
50.5
 21
96.5
  0
LINE
  5
4E4
100
AcDbEntity
  8
0
100
AcDbLine
 62
7
  6
CONTINUOUS
 10
53.3138082609
 20
133.0
 11
53.1130903017
 21
133.0
  0
LINE
  5
4E5
100
AcDbEntity
  8
0
100
AcDbLine
 62
7
  6
CONTINUOUS
 10
102.6861917391
 20
133.0
 11
102.8869096983
 21
133.0
  0
LINE
  5
4E6
100
AcDbEntity
  8
EDGEFEAT
100
AcDbLine
 62
7
  6
CONTINUOUS
 10
50.5
 20
143.5
 11
51.0358983849
 21
143.2780236209
  0
LINE
  5
4E7
100
AcDbEntity
  8
0
100
AcDbLine
 62
7
  6
CONTINUOUS
 10
57.4483415767
 20
142.0299177085
 11
56.9988529156
 21
142.229492906
  0
LINE
  5
4E8
100
AcDbEntity
  8
EDGEFEAT
100
AcDbLine
 62
7
  6
CONTINUOUS
 10
102.2780236209
 20
94.0358983849
 11
102.5
 21
93.5
  0
LINE
  5
4E9
100
AcDbEntity
  8
0
100
AcDbLine
 62
7
  6
CONTINUOUS
 10
92.0
 20
96.3138082609
 11
92.0
 21
96.1130903017
  0
LINE
  5
4EA
100
AcDbEntity
  8
0
100
AcDbLine
 62
7
  6
CONTINUOUS
 10
92.0
 20
143.6861917391
 11
92.0
 21
143.8869096983
  0
LINE
  5
4EB
100
AcDbEntity
  8
0
100
AcDbLine
 62
7
  6
CONTINUOUS
 10
92.7861917391
 20
142.9
 11
92.7861917391
 21
140.5
  0
LINE
  5
4EC
100
AcDbEntity
  8
0
100
AcDbLine
 62
7
  6
CONTINUOUS
 10
92.7861917391
 20
99.5
 11
92.7861917391
 21
97.1
  0
LINE
  5
4ED
100
AcDbEntity
  8
0
100
AcDbLine
 62
7
  6
CONTINUOUS
 10
92.9869096983
 20
97.1
 11
92.9869096983
 21
99.5
  0
LINE
  5
4EE
100
AcDbEntity
  8
0
100
AcDbLine
 62
7
  6
CONTINUOUS
 10
92.9869096983
 20
140.5
 11
92.9869096983
 21
142.9
  0
LINE
  5
4EF
100
AcDbEntity
  8
0
100
AcDbLine
 62
7
  6
CONTINUOUS
 10
54.1
 20
133.7861917391
 11
56.5
 21
133.7861917391
  0
LINE
  5
4F0
100
AcDbEntity
  8
0
100
AcDbLine
 62
7
  6
CONTINUOUS
 10
99.5
 20
133.7861917391
 11
101.9
 21
133.7861917391
  0
LINE
  5
4F1
100
AcDbEntity
  8
0
100
AcDbLine
 62
7
  6
CONTINUOUS
 10
101.9
 20
133.9869096983
 11
99.5
 21
133.9869096983
  0
LINE
  5
4F2
100
AcDbEntity
  8
0
100
AcDbLine
 62
7
  6
CONTINUOUS
 10
56.5
 20
133.9869096983
 11
54.1
 21
133.9869096983
  0
LINE
  5
4F3
100
AcDbEntity
  8
0
100
AcDbLine
 62
7
  6
CONTINUOUS
 10
63.2138082609
 20
140.5
 11
63.0130903017
 21
140.5
  0
LINE
  5
4F4
100
AcDbEntity
  8
0
100
AcDbLine
 62
7
  6
CONTINUOUS
 10
92.7861917391
 20
140.5
 11
92.9869096983
 21
140.5
  0
LINE
  5
4F5
100
AcDbEntity
  8
0
100
AcDbLine
 62
7
  6
CONTINUOUS
 10
99.5
 20
106.2138082609
 11
99.5
 21
106.0130903017
  0
LINE
  5
4F6
100
AcDbEntity
  8
0
100
AcDbLine
 62
7
  6
CONTINUOUS
 10
99.5
 20
133.7861917391
 11
99.5
 21
133.9869096983
  0
LINE
  5
4F7
100
AcDbEntity
  8
0
100
AcDbLine
 62
7
  6
CONTINUOUS
 10
56.9059969607
 20
139.0559894502
 11
56.5
 21
139.0
  0
LINE
  5
4F8
100
AcDbEntity
  8
0
100
AcDbLine
 62
7
  6
CONTINUOUS
 10
92.9869096983
 20
142.9
 11
92.7861917391
 21
142.9
  0
LINE
  5
4F9
100
AcDbEntity
  8
0
100
AcDbLine
 62
7
  6
CONTINUOUS
 10
63.2138082609
 20
142.9
 11
63.0130903017
 21
142.9
  0
LINE
  5
4FA
100
AcDbEntity
  8
0
100
AcDbLine
 62
7
  6
CONTINUOUS
 10
101.9
 20
106.2138082609
 11
101.9
 21
106.0130903017
  0
LINE
  5
4FB
100
AcDbEntity
  8
0
100
AcDbLine
 62
7
  6
CONTINUOUS
 10
101.9
 20
133.7861917391
 11
101.9
 21
133.9869096983
  0
LINE
  5
4FC
100
AcDbEntity
  8
0
100
AcDbLine
 62
7
  6
CONTINUOUS
 10
102.6861917391
 20
133.0
 11
102.6861917391
 21
107.0
  0
LINE
  5
4FD
100
AcDbEntity
  8
0
100
AcDbLine
 62
7
  6
CONTINUOUS
 10
102.8869096983
 20
107.0
 11
102.8869096983
 21
133.0
  0
LINE
  5
4FE
100
AcDbEntity
  8
0
100
AcDbLine
 62
7
  6
CONTINUOUS
 10
64.0
 20
143.6861917391
 11
92.0
 21
143.6861917391
  0
LINE
  5
4FF
100
AcDbEntity
  8
0
100
AcDbLine
 62
7
  6
CONTINUOUS
 10
92.0
 20
143.8869096983
 11
64.0
 21
143.8869096983
  0
LINE
  5
500
100
AcDbEntity
  8
EDGEFEAT
100
AcDbLine
 62
7
  6
CONTINUOUS
 10
104.9641016151
 20
143.2780236209
 11
104.9641016151
 21
96.7219763791
  0
LINE
  5
501
100
AcDbEntity
  8
EDGEFEAT
100
AcDbLine
 62
7
  6
CONTINUOUS
 10
105.5
 20
143.5
 11
105.5
 21
96.5
  0
LINE
  5
502
100
AcDbEntity
  8
0
100
AcDbLine
 62
7
  6
CONTINUOUS
 10
99.0288611353
 20
97.8665900332
 11
99.0011470844
 21
97.770507094
  0
LINE
  5
503
100
AcDbEntity
  8
0
100
AcDbLine
 62
7
  6
CONTINUOUS
 10
100.0291282194
 20
101.2204718111
 11
99.9997322072
 21
101.1248900438
  0
LINE
  5
504
100
AcDbEntity
  8
EDGEFEAT
100
AcDbLine
 62
7
  6
CONTINUOUS
 10
53.7219763791
 20
145.9641016151
 11
102.2780236209
 21
145.9641016151
  0
LINE
  5
505
100
AcDbEntity
  8
EDGEFEAT
100
AcDbLine
 62
7
  6
CONTINUOUS
 10
53.5
 20
146.5
 11
102.5
 21
146.5
  0
LINE
  5
506
100
AcDbEntity
  8
EDGEFEAT
100
AcDbLine
 62
7
  6
CONTINUOUS
 10
104.9641016151
 20
96.7219763791
 11
102.2780236209
 21
94.0358983849
  0
LINE
  5
507
100
AcDbEntity
  8
EDGEFEAT
100
AcDbLine
 62
7
  6
CONTINUOUS
 10
105.5
 20
96.5
 11
102.5
 21
93.5
  0
LINE
  5
508
100
AcDbEntity
  8
EDGEFEAT
100
AcDbLine
 62
7
  6
CONTINUOUS
 10
102.2780236209
 20
145.9641016151
 11
104.9641016151
 21
143.2780236209
  0
LINE
  5
509
100
AcDbEntity
  8
EDGEFEAT
100
AcDbLine
 62
7
  6
CONTINUOUS
 10
102.5
 20
146.5
 11
105.5
 21
143.5
  0
LINE
  5
50A
100
AcDbEntity
  8
EDGEFEAT
100
AcDbLine
 62
7
  6
CONTINUOUS
 10
143.5
 20
146.5
 11
143.0
 21
146.0
  0
LINE
  5
50B
100
AcDbEntity
  8
0
100
AcDbLine
 62
7
  6
CONTINUOUS
 10
143.0
 20
94.0
 11
143.5
 21
93.5
  0
LINE
  5
50C
100
AcDbEntity
  8
EDGEFEAT
100
AcDbLine
 62
7
  6
CONTINUOUS
 10
143.0
 20
143.2928932188
 11
143.5
 21
143.5
  0
LINE
  5
50D
100
AcDbEntity
  8
0
100
AcDbLine
 62
7
  6
CONTINUOUS
 10
168.0
 20
94.0358983849
 11
166.0
 21
93.5
  0
LINE
  5
50E
100
AcDbEntity
  8
0
100
AcDbLine
 62
7
  6
CONTINUOUS
 10
168.0
 20
94.1
 11
173.2424960623
 21
94.2830719966
  0
LINE
  5
50F
100
AcDbEntity
  8
0
100
AcDbLine
 62
7
  6
CONTINUOUS
 10
143.5
 20
93.5
 11
166.0
 21
93.5
  0
LINE
  5
510
100
AcDbEntity
  8
0
100
AcDbLine
 62
7
  6
CONTINUOUS
 10
168.0
 20
93.5
 11
175.0
 21
93.5
  0
LINE
  5
511
100
AcDbEntity
  8
0
100
AcDbLine
 62
7
  6
CONTINUOUS
 10
145.0
 20
96.3138082609
 11
168.0
 21
96.1130903017
  0
LINE
  5
512
100
AcDbEntity
  8
0
100
AcDbLine
 62
7
  6
CONTINUOUS
 10
175.5
 20
98.0741783762
 11
167.0
 21
98.0
  0
LINE
  5
513
100
AcDbEntity
  8
0
100
AcDbLine
 62
7
  6
CONTINUOUS
 10
145.0
 20
97.1
 11
167.0
 21
97.1
  0
LINE
  5
514
100
AcDbEntity
  8
0
100
AcDbLine
 62
7
  6
CONTINUOUS
 10
173.2424960623
 20
96.7169280034
 11
167.0
 21
96.9349207695
  0
LINE
  5
515
100
AcDbEntity
  8
0
100
AcDbLine
 62
7
  6
CONTINUOUS
 10
145.0
 20
99.5
 11
175.5
 21
99.5
  0
LINE
  5
516
100
AcDbEntity
  8
0
100
AcDbLine
 62
7
  6
CONTINUOUS
 10
142.0
 20
136.5003181879
 11
142.0
 21
144.4996818121
  0
LINE
  5
517
100
AcDbEntity
  8
0
100
AcDbLine
 62
7
  6
CONTINUOUS
 10
143.0
 20
94.0
 11
143.0
 21
119.999999998
  0
LINE
  5
518
100
AcDbEntity
  8
EDGEFEAT
100
AcDbLine
 62
7
  6
CONTINUOUS
 10
143.0
 20
119.999999998
 11
143.0
 21
146.0
  0
LINE
  5
519
100
AcDbEntity
  8
EDGEFEAT
100
AcDbLine
 62
8
  6
HIDDEN
 10
145.2973820394
 20
122.8647103507
 11
145.2968465445
 21
122.9283421666
  0
LWPOLYLINE
  5
51A
100
AcDbEntity
  8
EDGEFEAT
100
AcDbPolyline
 62
7
  6
CONTINUOUS
 90
4
 70
0
 10
145.2973820394
 20
116.8514736301
 10
145.2968465445
 20
116.9729086456
 10
145.2968588541
 20
117.0735242311
 10
145.2973820394
 20
117.1352896493
  0
LINE
  5
51B
100
AcDbEntity
  8
DEFAULT_2
100
AcDbLine
 62
8
  6
HIDDEN
 10
143.5
 20
119.025
 11
143.5
 21
119.999999998
  0
LINE
  5
51C
100
AcDbEntity
  8
EDGEFEAT
100
AcDbLine
 62
8
  6
HIDDEN
 10
143.5
 20
119.0250012543
 11
143.5
 21
119.999999998
  0
LINE
  5
51D
100
AcDbEntity
  8
EDGEFEAT
100
AcDbLine
 62
7
  6
CONTINUOUS
 10
143.5
 20
119.999999998
 11
143.5
 21
146.5
  0
LINE
  5
51E
100
AcDbEntity
  8
EDGEFEAT
100
AcDbLine
 62
8
  6
HIDDEN
 10
143.8
 20
121.275
 11
143.8
 21
118.725
  0
LINE
  5
51F
100
AcDbEntity
  8
EDGEFEAT
100
AcDbLine
 62
8
  6
HIDDEN
 10
145.0
 20
123.1485263778
 11
145.0
 21
116.8514736219
  0
LINE
  5
520
100
AcDbEntity
  8
0
100
AcDbLine
 62
7
  6
CONTINUOUS
 10
145.0
 20
96.3138082609
 11
145.0
 21
119.999999998
  0
LINE
  5
521
100
AcDbEntity
  8
DEFAULT_2
100
AcDbLine
 62
8
  6
HIDDEN
 10
145.0
 20
119.999999998
 11
145.0
 21
144.5
  0
LINE
  5
522
100
AcDbEntity
  8
EDGEFEAT
100
AcDbLine
 62
8
  6
HIDDEN
 10
145.2973820394
 20
127.0
 11
145.2973820394
 21
123.1485263795
  0
LINE
  5
523
100
AcDbEntity
  8
EDGEFEAT
100
AcDbLine
 62
7
  6
CONTINUOUS
 10
145.2973820394
 20
119.999999998
 11
145.2973820394
 21
117.1352896572
  0
LINE
  5
524
100
AcDbEntity
  8
EDGEFEAT
100
AcDbLine
 62
7
  6
CONTINUOUS
 10
145.2973820394
 20
116.8514736205
 11
145.2973822054
 21
112.222051178
  0
LINE
  5
525
100
AcDbEntity
  8
EDGEFEAT
100
AcDbLine
 62
8
  6
HIDDEN
 10
145.2973820394
 20
119.999999998
 11
145.2973820394
 21
122.8647103428
  0
LWPOLYLINE
  5
526
100
AcDbEntity
  8
EDGEFEAT
100
AcDbPolyline
 62
8
  6
HIDDEN
 90
3
 70
0
 10
145.2973820394
 20
123.1485263699
 10
145.2968465445
 20
123.0270913544
 10
145.2968588541
 20
122.9264757689
  0
LWPOLYLINE
  5
527
100
AcDbEntity
  8
EDGEFEAT
100
AcDbPolyline
 62
7
  6
CONTINUOUS
 90
5
 70
0
 10
145.0
 20
116.8514736301
 10
145.0225863343
 20
116.959517117
 10
145.0869443873
 20
117.0512918951
 10
145.183383409
 20
117.1129789256
 10
145.2973820394
 20
117.1352896493
  0
LINE
  5
528
100
AcDbEntity
  8
0
100
AcDbLine
 62
7
  6
CONTINUOUS
 10
145.0
 20
107.0
 11
167.0
 21
107.0
  0
LINE
  5
529
100
AcDbEntity
  8
0
100
AcDbLine
 62
7
  6
CONTINUOUS
 10
145.0
 20
106.2138082609
 11
167.0
 21
106.0218171695
  0
LWPOLYLINE
  5
52A
100
AcDbEntity
  8
EDGEFEAT
100
AcDbPolyline
 62
8
  6
HIDDEN
 90
5
 70
0
 10
145.0
 20
123.1485263699
 10
145.0225863343
 20
123.040482883
 10
145.0869443873
 20
122.9487081049
 10
145.183383409
 20
122.8870210744
 10
145.2973820394
 20
122.8647103507
  0
LINE
  5
52B
100
AcDbEntity
  8
DEFAULT_2
100
AcDbLine
 62
8
  6
HIDDEN
 10
147.5
 20
121.5
 11
147.5
 21
118.5
  0
LINE
  5
52C
100
AcDbEntity
  8
EDGEFEAT
100
AcDbLine
 62
8
  6
HIDDEN
 10
148.5
 20
127.0
 11
148.5
 21
119.999999998
  0
LINE
  5
52D
100
AcDbEntity
  8
EDGEFEAT
100
AcDbLine
 62
7
  6
CONTINUOUS
 10
148.5
 20
119.999999998
 11
148.5
 21
113.0
  0
LINE
  5
52E
100
AcDbEntity
  8
0
100
AcDbLine
 62
7
  6
CONTINUOUS
 10
148.5
 20
113.0
 11
148.5
 21
112.2498913511
  0
LINE
  5
52F
100
AcDbEntity
  8
DEFAULT_2
100
AcDbLine
 62
8
  6
HIDDEN
 10
148.5
 20
120.0
 11
148.5
 21
121.499767684
  0
LINE
  5
530
100
AcDbEntity
  8
0
100
AcDbLine
 62
2
  6
CONTINUOUS
 10
144.2607483192
 20
119.999999998
 11
143.0
 21
118.7392516788
  0
LINE
  5
531
100
AcDbEntity
  8
0
100
AcDbLine
 62
7
  6
CONTINUOUS
 10
175.5
 20
108.0741783762
 11
167.0
 21
108.0
  0
LINE
  5
532
100
AcDbEntity
  8
0
100
AcDbLine
 62
7
  6
CONTINUOUS
 10
145.2973822057
 20
112.2220511779
 11
148.5
 21
112.25
  0
LINE
  5
533
100
AcDbEntity
  8
EDGEFEAT
100
AcDbLine
 62
7
  6
CONTINUOUS
 10
145.0
 20
113.0
 11
148.5
 21
113.0
  0
LINE
  5
534
100
AcDbEntity
  8
0
100
AcDbLine
 62
2
  6
CONTINUOUS
 10
145.0
 20
110.7831881997
 11
143.0
 21
108.7831881997
  0
LINE
  5
535
100
AcDbEntity
  8
EDGEFEAT
100
AcDbLine
 62
7
  6
CONTINUOUS
 10
145.2973820394
 20
117.1352896572
 11
148.5
 21
117.1559084944
  0
LINE
  5
536
100
AcDbEntity
  8
EDGEFEAT
100
AcDbLine
 62
7
  6
CONTINUOUS
 10
145.2973820394
 20
116.8514736205
 11
148.5
 21
116.8715101732
  0
LINE
  5
537
100
AcDbEntity
  8
EDGEFEAT
100
AcDbLine
 62
7
  6
CONTINUOUS
 10
145.0
 20
116.8514736301
 11
145.2973820394
 21
116.8514736301
  0
LINE
  5
538
100
AcDbEntity
  8
DEFAULT_2
100
AcDbLine
 62
8
  6
HIDDEN
 10
147.5
 20
118.5
 11
148.5
 21
118.5
  0
LINE
  5
539
100
AcDbEntity
  8
DEFAULT_2
100
AcDbLine
 62
8
  6
HIDDEN
 10
143.8
 20
118.725
 11
147.5
 21
118.725
  0
LINE
  5
53A
100
AcDbEntity
  8
0
100
AcDbLine
 62
7
  6
CONTINUOUS
 10
143.0
 20
119.999999998
 11
178.0
 21
119.999999998
  0
LINE
  5
53B
100
AcDbEntity
  8
DEFAULT_2
100
AcDbLine
 62
8
  6
HIDDEN
 10
143.8
 20
121.275
 11
147.5
 21
121.275
  0
LINE
  5
53C
100
AcDbEntity
  8
DEFAULT_2
100
AcDbLine
 62
8
  6
HIDDEN
 10
147.5
 20
121.5
 11
148.5
 21
121.5
  0
LINE
  5
53D
100
AcDbEntity
  8
0
100
AcDbLine
 62
2
  6
CONTINUOUS
 10
145.0
 20
100.8271247206
 11
143.0
 21
98.8271247206
  0
LINE
  5
53E
100
AcDbEntity
  8
EDGEFEAT
100
AcDbLine
 62
8
  6
HIDDEN
 10
145.2973820394
 20
122.8647103428
 11
148.5
 21
122.8440915056
  0
LINE
  5
53F
100
AcDbEntity
  8
EDGEFEAT
100
AcDbLine
 62
7
  6
CONTINUOUS
 10
166.0
 20
119.999999998
 11
166.0
 21
146.5
  0
LINE
  5
540
100
AcDbEntity
  8
0
100
AcDbLine
 62
7
  6
CONTINUOUS
 10
167.0
 20
96.9349207695
 11
167.0
 21
119.999999998
  0
LINE
  5
541
100
AcDbEntity
  8
0
100
AcDbLine
 62
7
  6
CONTINUOUS
 10
168.0
 20
93.5
 11
168.0
 21
96.9
  0
LINE
  5
542
100
AcDbEntity
  8
EDGEFEAT
100
AcDbLine
 62
7
  6
CONTINUOUS
 10
168.0
 20
119.999999998
 11
168.0
 21
146.5
  0
LINE
  5
543
100
AcDbEntity
  8
EDGEFEAT
100
AcDbLine
 62
8
  6
HIDDEN
 10
145.2973820394
 20
127.0
 11
148.5
 21
127.0
  0
LINE
  5
544
100
AcDbEntity
  8
0
100
AcDbLine
 62
2
  6
CONTINUOUS
 10
150.3956598096
 20
96.2667210511
 11
147.6289387585
 21
93.5
  0
LINE
  5
545
100
AcDbEntity
  8
0
100
AcDbLine
 62
7
  6
CONTINUOUS
 10
173.2424960623
 20
96.7169280034
 11
173.2424960623
 21
94.2830719966
  0
LINE
  5
546
100
AcDbEntity
  8
0
100
AcDbLine
 62
7
  6
CONTINUOUS
 10
175.0
 20
119.999999998
 11
175.0
 21
146.5
  0
LINE
  5
547
100
AcDbEntity
  8
0
100
AcDbLine
 62
7
  6
CONTINUOUS
 10
175.5
 20
98.0741783762
 11
175.5
 21
119.999999998
  0
LINE
  5
548
100
AcDbEntity
  8
0
100
AcDbLine
 62
2
  6
CONTINUOUS
 10
178.0
 20
116.3521269582
 11
175.5
 21
113.8521269582
  0
LINE
  5
549
100
AcDbEntity
  8
0
100
AcDbLine
 62
2
  6
CONTINUOUS
 10
160.2655897153
 20
96.1805874777
 11
157.5850022376
 21
93.5
  0
LINE
  5
54A
100
AcDbEntity
  8
0
100
AcDbLine
 62
7
  6
CONTINUOUS
 10
143.0
 20
136.5
 11
142.0
 21
136.5
  0
LINE
  5
54B
100
AcDbEntity
  8
DEFAULT_2
100
AcDbLine
 62
8
  6
HIDDEN
 10
168.0
 20
136.2992820408
 11
145.0
 21
136.5
  0
LINE
  5
54C
100
AcDbEntity
  8
0
100
AcDbLine
 62
7
  6
CONTINUOUS
 10
178.0
 20
136.4738193966
 11
175.0
 21
136.5
  0
LINE
  5
54D
100
AcDbEntity
  8
0
100
AcDbLine
 62
7
  6
CONTINUOUS
 10
178.0
 20
96.5
 11
178.0
 21
143.5
  0
LINE
  5
54E
100
AcDbEntity
  8
DEFAULT_2
100
AcDbLine
 62
8
  6
HIDDEN
 10
145.0
 20
138.4
 11
142.0
 21
138.4
  0
LINE
  5
54F
100
AcDbEntity
  8
0
100
AcDbLine
 62
7
  6
CONTINUOUS
 10
178.0
 20
140.5
 11
175.0
 21
140.5
  0
LINE
  5
550
100
AcDbEntity
  8
0
100
AcDbLine
 62
2
  6
CONTINUOUS
 10
178.0
 20
106.3960634791
 11
175.5
 21
103.8960634791
  0
LINE
  5
551
100
AcDbEntity
  8
0
100
AcDbLine
 62
2
  6
CONTINUOUS
 10
169.6268607877
 20
98.0229242668
 11
168.4869324645
 21
96.8829959436
  0
LINE
  5
552
100
AcDbEntity
  8
DEFAULT_2
100
AcDbLine
 62
8
  6
HIDDEN
 10
145.0
 20
142.6
 11
142.0
 21
142.6
  0
LINE
  5
553
100
AcDbEntity
  8
EDGEFEAT
100
AcDbLine
 62
7
  6
CONTINUOUS
 10
143.5
 20
143.5
 11
166.0
 21
143.5
  0
LINE
  5
554
100
AcDbEntity
  8
0
100
AcDbLine
 62
7
  6
CONTINUOUS
 10
168.0
 20
143.5
 11
175.0
 21
143.5
  0
LINE
  5
555
100
AcDbEntity
  8
DEFAULT_2
100
AcDbLine
 62
8
  6
HIDDEN
 10
168.0
 20
144.7007179592
 11
145.0
 21
144.5
  0
LINE
  5
556
100
AcDbEntity
  8
0
100
AcDbLine
 62
7
  6
CONTINUOUS
 10
143.0
 20
144.5
 11
142.0
 21
144.5
  0
LINE
  5
557
100
AcDbEntity
  8
EDGEFEAT
100
AcDbLine
 62
7
  6
CONTINUOUS
 10
166.0
 20
143.5
 11
168.0
 21
143.2780236209
  0
LINE
  5
558
100
AcDbEntity
  8
EDGEFEAT
100
AcDbLine
 62
7
  6
CONTINUOUS
 10
143.5
 20
146.5
 11
166.0
 21
146.5
  0
LINE
  5
559
100
AcDbEntity
  8
0
100
AcDbLine
 62
7
  6
CONTINUOUS
 10
168.0
 20
146.5
 11
175.0
 21
146.5
  0
LINE
  5
55A
100
AcDbEntity
  8
EDGEFEAT
100
AcDbLine
 62
7
  6
CONTINUOUS
 10
168.0
 20
145.9641016151
 11
166.0
 21
146.5
  0
LINE
  5
55B
100
AcDbEntity
  8
0
100
AcDbLine
 62
7
  6
CONTINUOUS
 10
178.0
 20
96.5
 11
175.0
 21
93.5
  0
LINE
  5
55C
100
AcDbEntity
  8
0
100
AcDbLine
 62
7
  6
CONTINUOUS
 10
178.0
 20
143.5
 11
175.0
 21
146.5
  0
LINE
  5
55D
100
AcDbEntity
  8
EDGEFEAT
100
AcDbLine
 62
7
  6
CONTINUOUS
 10
50.5
 20
203.5
 11
51.0
 21
203.0
  0
LINE
  5
55E
100
AcDbEntity
  8
EDGEFEAT
100
AcDbLine
 62
7
  6
CONTINUOUS
 10
53.5
 20
238.0
 11
50.5
 21
235.0
  0
LINE
  5
55F
100
AcDbEntity
  8
EDGEFEAT
100
AcDbLine
 62
7
  6
CONTINUOUS
 10
53.7071067812
 20
203.0
 11
53.5
 21
203.5
  0
LINE
  5
560
100
AcDbEntity
  8
EDGEFEAT
100
AcDbLine
 62
7
  6
CONTINUOUS
 10
50.5
 20
203.5
 11
50.5
 21
226.0
  0
LINE
  5
561
100
AcDbEntity
  8
EDGEFEAT
100
AcDbLine
 62
7
  6
CONTINUOUS
 10
50.5
 20
228.0
 11
50.5
 21
235.0
  0
LINE
  5
562
100
AcDbEntity
  8
EDGEFEAT
100
AcDbLine
 62
7
  6
CONTINUOUS
 10
51.0358983849
 20
228.0
 11
50.5
 21
226.0
  0
LINE
  5
563
100
AcDbEntity
  8
DEFAULT_2
100
AcDbLine
 62
8
  6
HIDDEN
 10
52.5349074712
 20
224.0
 11
52.5
 21
228.0
  0
LINE
  5
564
100
AcDbEntity
  8
DEFAULT_2
100
AcDbLine
 62
8
  6
HIDDEN
 10
52.543634339
 20
230.0
 11
52.5
 21
235.0
  0
LINE
  5
565
100
AcDbEntity
  8
DEFAULT_2
100
AcDbLine
 62
8
  6
HIDDEN
 10
53.5
 20
212.0
 11
53.4301850577
 21
220.0
  0
LINE
  5
566
100
AcDbEntity
  8
0
100
AcDbLine
 62
7
  6
CONTINUOUS
 10
52.5
 20
203.0
 11
52.5
 21
202.0
  0
LINE
  5
567
100
AcDbEntity
  8
EDGEFEAT
100
AcDbLine
 62
7
  6
CONTINUOUS
 10
53.5
 20
203.5
 11
53.5
 21
226.0
  0
LINE
  5
568
100
AcDbEntity
  8
EDGEFEAT
100
AcDbLine
 62
7
  6
CONTINUOUS
 10
53.5
 20
228.0
 11
53.5
 21
235.0
  0
LINE
  5
569
100
AcDbEntity
  8
DEFAULT_2
100
AcDbLine
 62
8
  6
HIDDEN
 10
52.5087268678
 20
203.0
 11
52.6570836202
 21
220.0
  0
LINE
  5
56A
100
AcDbEntity
  8
EDGEFEAT
100
AcDbLine
 62
7
  6
CONTINUOUS
 10
53.5
 20
226.0
 11
53.7219763791
 21
228.0
  0
LINE
  5
56B
100
AcDbEntity
  8
DEFAULT_2
100
AcDbLine
 62
8
  6
HIDDEN
 10
54.25
 20
221.5
 11
54.25
 21
224.0
  0
LINE
  5
56C
100
AcDbEntity
  8
DEFAULT_2
100
AcDbLine
 62
8
  6
HIDDEN
 10
54.5000000233
 20
220.9375008956
 11
54.5000000233
 21
220.4375008956
  0
LINE
  5
56D
100
AcDbEntity
  8
DEFAULT_2
100
AcDbLine
 62
8
  6
HIDDEN
 10
54.5000000147
 20
219.1474993506
 11
54.5000000147
 21
218.6474993506
  0
LINE
  5
56E
100
AcDbEntity
  8
DEFAULT_2
100
AcDbLine
 62
8
  6
HIDDEN
 10
54.5000000022
 20
217.3574989549
 11
54.5000000022
 21
216.8574989549
  0
LINE
  5
56F
100
AcDbEntity
  8
DEFAULT_2
100
AcDbLine
 62
8
  6
HIDDEN
 10
54.5000000162
 20
215.5675010889
 11
54.5000000162
 21
215.0675010889
  0
LINE
  5
570
100
AcDbEntity
  8
DEFAULT_2
100
AcDbLine
 62
8
  6
HIDDEN
 10
54.5000000226
 20
213.7775005876
 11
54.5000000226
 21
213.2775005876
  0
LINE
  5
571
100
AcDbEntity
  8
DEFAULT_2
100
AcDbLine
 62
8
  6
HIDDEN
 10
55.0
 20
228.0
 11
55.0
 21
228.5
  0
LINE
  5
572
100
AcDbEntity
  8
DEFAULT_2
100
AcDbLine
 62
8
  6
HIDDEN
 10
54.5000000022
 20
216.8574989549
 11
54.5000104698
 21
216.8584206709
  0
LINE
  5
573
100
AcDbEntity
  8
DEFAULT_2
100
AcDbLine
 62
8
  6
HIDDEN
 10
54.5000000233
 20
220.4375008956
 11
54.5000139357
 21
220.4385635058
  0
LINE
  5
574
100
AcDbEntity
  8
DEFAULT_2
100
AcDbLine
 62
8
  6
HIDDEN
 10
54.5000000147
 20
218.6474993506
 11
54.5000174326
 21
218.6486883219
  0
LINE
  5
575
100
AcDbEntity
  8
DEFAULT_2
100
AcDbLine
 62
8
  6
HIDDEN
 10
54.5000000162
 20
215.0675010889
 11
54.5000395305
 21
215.0692919044
  0
LINE
  5
576
100
AcDbEntity
  8
DEFAULT_2
100
AcDbLine
 62
8
  6
HIDDEN
 10
54.5000000226
 20
213.2775005876
 11
54.500044953
 21
213.2794101955
  0
LWPOLYLINE
  5
577
100
AcDbEntity
  8
DEFAULT_2
100
AcDbPolyline
 62
8
  6
HIDDEN
 90
14
 70
0
 10
54.5000174326
 20
218.6486883219
 10
54.5083950247
 20
218.6736111111
 10
54.6280607908
 20
218.75
 10
54.881509715
 20
218.8263888889
 10
55.2506283822
 20
218.9027777778
 10
55.7090367323
 20
218.9791666667
 10
56.2239733826
 20
219.0555555556
 10
56.7586370071
 20
219.1319444444
 10
57.2748164414
 20
219.2083333333
 10
57.7356215446
 20
219.2847222222
 10
58.1081196511
 20
219.3611111111
 10
58.3656891899
 20
219.4375
 10
58.4899222663
 20
219.5138888889
 10
58.4999999794
 20
219.5425001561
  0
LINE
  5
578
100
AcDbEntity
  8
DEFAULT_2
100
AcDbLine
 62
8
  6
HIDDEN
 10
58.4999999773
 20
214.1725011436
 11
58.4999502392
 21
214.1745103236
  0
LINE
  5
579
100
AcDbEntity
  8
DEFAULT_2
100
AcDbLine
 62
8
  6
HIDDEN
 10
58.4999999818
 20
212.382499774
 11
58.4999519847
 21
212.3844734786
  0
LINE
  5
57A
100
AcDbEntity
  8
DEFAULT_2
100
AcDbLine
 62
8
  6
HIDDEN
 10
58.4999999991
 20
215.9625000699
 11
58.4999542435
 21
215.9644271311
  0
LINE
  5
57B
100
AcDbEntity
  8
DEFAULT_2
100
AcDbLine
 62
8
  6
HIDDEN
 10
58.4999999921
 20
217.7524988325
 11
58.4999857153
 21
217.7535752709
  0
LINE
  5
57C
100
AcDbEntity
  8
DEFAULT_2
100
AcDbLine
 62
8
  6
HIDDEN
 10
58.4999999794
 20
219.5425001561
 11
58.4999886674
 21
219.5434583269
  0
LINE
  5
57D
100
AcDbEntity
  8
DEFAULT_2
100
AcDbLine
 62
8
  6
HIDDEN
 10
58.4999999793
 20
221.3325012157
 11
58.4999890168
 21
221.3334444687
  0
LINE
  5
57E
100
AcDbEntity
  8
DEFAULT_2
100
AcDbLine
 62
8
  6
HIDDEN
 10
58.0
 20
228.0
 11
58.0
 21
228.5
  0
LINE
  5
57F
100
AcDbEntity
  8
DEFAULT_2
100
AcDbLine
 62
8
  6
HIDDEN
 10
58.4999999818
 20
212.382499774
 11
58.4999999818
 21
212.882499774
  0
LINE
  5
580
100
AcDbEntity
  8
DEFAULT_2
100
AcDbLine
 62
8
  6
HIDDEN
 10
58.4999999773
 20
214.1725011436
 11
58.4999999773
 21
214.6725011436
  0
LINE
  5
581
100
AcDbEntity
  8
DEFAULT_2
100
AcDbLine
 62
8
  6
HIDDEN
 10
58.4999999991
 20
215.9625000699
 11
58.4999999991
 21
216.4625000699
  0
LINE
  5
582
100
AcDbEntity
  8
DEFAULT_2
100
AcDbLine
 62
8
  6
HIDDEN
 10
58.4999999921
 20
217.7524988325
 11
58.4999999921
 21
218.2524988325
  0
LINE
  5
583
100
AcDbEntity
  8
DEFAULT_2
100
AcDbLine
 62
8
  6
HIDDEN
 10
58.4999999794
 20
219.5425001561
 11
58.4999999794
 21
220.0425001561
  0
LINE
  5
584
100
AcDbEntity
  8
DEFAULT_2
100
AcDbLine
 62
8
  6
HIDDEN
 10
58.4999999793
 20
221.3325012157
 11
58.4999999793
 21
221.5
  0
LWPOLYLINE
  5
585
100
AcDbEntity
  8
DEFAULT_2
100
AcDbPolyline
 62
8
  6
HIDDEN
 90
8
 70
0
 10
54.5000395305
 20
215.0692919044
 10
54.5088685229
 20
215.0943396226
 10
54.6275909106
 20
215.1698113208
 10
54.8769550065
 20
215.2452830189
 10
55.2395622176
 20
215.320754717
 10
55.6901127437
 20
215.3962264151
 10
56.19717079
 20
215.4716981132
 10
57.2378213851
 20
215.6226415094
  0
LINE
  5
586
100
AcDbEntity
  8
EDGEFEAT
100
AcDbLine
 62
8
  6
HIDDEN
 10
58.0
 20
228.5
 11
59.5
 21
230.0
  0
LWPOLYLINE
  5
587
100
AcDbEntity
  8
DEFAULT_2
100
AcDbPolyline
 62
8
  6
HIDDEN
 90
5
 70
0
 10
58.4999519847
 20
212.3844734786
 10
58.4393637195
 20
212.4528301887
 10
58.243740312
 20
212.5283018868
 10
57.9264530755
 20
212.6037735849
 10
57.5096396986
 20
212.679245283
  0
LWPOLYLINE
  5
588
100
AcDbEntity
  8
DEFAULT_2
100
AcDbPolyline
 62
8
  6
HIDDEN
 90
10
 70
0
 10
58.4999994924
 20
214.67269952
 10
58.4718679422
 20
214.7857390593
 10
58.3838751402
 20
214.8877598554
 10
58.2727591228
 20
214.9522576908
 10
58.1311004563
 20
215.0060227884
 10
57.9483315464
 20
215.0576911725
 10
57.7165849112
 20
215.1105058199
 10
57.4336917662
 20
215.1654992436
 10
57.1009679387
 20
215.2233195386
 10
56.4994881987
 20
215.3200822176
  0
LWPOLYLINE
  5
589
100
AcDbEntity
  8
DEFAULT_2
100
AcDbPolyline
 62
8
  6
HIDDEN
 90
11
 70
0
 10
58.4999998631
 20
212.8825979388
 10
58.4749446907
 20
212.9895664626
 10
58.3903973633
 20
213.0926721114
 10
58.2849492623
 20
213.1565687593
 10
58.1531966418
 20
213.2087314706
 10
57.9886706891
 20
213.2573115674
 10
57.7869150703
 20
213.3054609364
 10
57.5451415195
 20
213.3546947689
 10
57.2634392698
 20
213.4057341281
 10
56.9446904456
 20
213.4590360565
 10
56.5001984297
 20
213.5299687854
  0
LWPOLYLINE
  5
58A
100
AcDbEntity
  8
DEFAULT_2
100
AcDbPolyline
 62
8
  6
HIDDEN
 90
6
 70
0
 10
58.4999502392
 20
214.1745103236
 10
58.4967760015
 20
214.1886792453
 10
58.3973951906
 20
214.2641509434
 10
58.1656295948
 20
214.3396226415
 10
57.8176499061
 20
214.4150943396
 10
57.3777352951
 20
214.4905660377
  0
LWPOLYLINE
  5
58B
100
AcDbEntity
  8
DEFAULT_2
100
AcDbPolyline
 62
8
  6
HIDDEN
 90
12
 70
0
 10
58.4999990219
 20
218.2527794532
 10
58.4811340346
 20
218.3457266727
 10
58.4141449214
 20
218.4420096513
 10
58.3279387331
 20
218.5043039394
 10
58.2222192356
 20
218.5536535683
 10
58.0906923644
 20
218.5986350342
 10
57.9305261802
 20
218.6421304073
 10
57.7382757624
 20
218.6859378581
 10
57.513289666
 20
218.73073634
 10
57.2569701413
 20
218.7768520771
 10
56.9723778037
 20
218.824524402
 10
56.4998684984
 20
218.9000198467
  0
LWPOLYLINE
  5
58C
100
AcDbEntity
  8
DEFAULT_2
100
AcDbPolyline
 62
8
  6
HIDDEN
 90
3
 70
0
 10
58.4999992634
 20
216.4622557133
 10
58.4885259726
 20
216.5354467506
 10
58.4319518964
 20
216.6336030997
  0
LINE
  5
58D
100
AcDbEntity
  8
DEFAULT_2
100
AcDbLine
 62
8
  6
HIDDEN
 10
60.4912731322
 20
203.0
 11
60.3429163798
 21
220.0
  0
LINE
  5
58E
100
AcDbEntity
  8
DEFAULT_2
100
AcDbLine
 62
8
  6
HIDDEN
 10
58.75
 20
221.5
 11
58.75
 21
224.0
  0
LINE
  5
58F
100
AcDbEntity
  8
0
100
AcDbLine
 62
7
  6
CONTINUOUS
 10
60.5
 20
203.0
 11
60.5
 21
202.0
  0
LINE
  5
590
100
AcDbEntity
  8
DEFAULT_2
100
AcDbLine
 62
8
  6
HIDDEN
 10
59.5
 20
212.0
 11
59.5698149423
 21
220.0
  0
LINE
  5
591
100
AcDbEntity
  8
DEFAULT_2
100
AcDbLine
 62
8
  6
HIDDEN
 10
60.456365661
 20
230.0
 11
60.5261806034
 21
238.0
  0
LINE
  5
592
100
AcDbEntity
  8
DEFAULT_2
100
AcDbLine
 62
8
  6
HIDDEN
 10
60.4650925288
 20
224.0
 11
60.5
 21
228.0
  0
LWPOLYLINE
  5
593
100
AcDbEntity
  8
DEFAULT_2
100
AcDbPolyline
 62
8
  6
HIDDEN
 90
7
 70
0
 10
54.5000139357
 20
220.4385635058
 10
54.5591242481
 20
220.5069444444
 10
54.7563641186
 20
220.5833333333
 10
55.0782176866
 20
220.6597222222
 10
55.5016828259
 20
220.7361111111
 10
55.996495457
 20
220.8125
 10
57.0561389408
 20
220.9652777778
  0
LINE
  5
594
100
AcDbEntity
  8
0
100
AcDbLine
 62
7
  6
CONTINUOUS
 10
103.5
 20
202.0
 11
95.5
 21
202.0
  0
LINE
  5
595
100
AcDbEntity
  8
0
100
AcDbLine
 62
7
  6
CONTINUOUS
 10
60.5
 20
202.0
 11
52.5
 21
202.0
  0
LINE
  5
596
100
AcDbEntity
  8
DEFAULT_2
100
AcDbLine
 62
8
  6
HIDDEN
 10
58.4999542435
 20
215.9644271311
 11
58.4826982893
 21
216.0
  0
LWPOLYLINE
  5
597
100
AcDbEntity
  8
DEFAULT_2
100
AcDbPolyline
 62
8
  6
HIDDEN
 90
12
 70
0
 10
58.4999990703
 20
220.0427717775
 10
58.4819102106
 20
220.1338263607
 10
58.4158724245
 20
220.2303520274
 10
58.329964847
 20
220.293154641
 10
58.2243503758
 20
220.3428132223
 10
58.0931198087
 20
220.3879021885
 10
57.9329577273
 20
220.4315299903
 10
57.7404367681
 20
220.4754809739
 10
57.514976477
 20
220.5204198686
 10
57.2580796183
 20
220.5666617757
 10
56.9728736512
 20
220.6144449643
 10
56.4998720227
 20
220.6900208114
  0
LWPOLYLINE
  5
598
100
AcDbEntity
  8
DEFAULT_2
100
AcDbPolyline
 62
8
  6
HIDDEN
 90
4
 70
0
 10
58.4999890168
 20
221.3334444687
 10
58.4973304662
 20
221.3472222222
 10
58.3985901466
 20
221.4236111111
 10
58.1641617181
 20
221.5
  0
LWPOLYLINE
  5
599
100
AcDbEntity
  8
DEFAULT_2
100
AcDbPolyline
 62
8
  6
HIDDEN
 90
6
 70
0
 10
54.5000104698
 20
216.8584206709
 10
54.5429795742
 20
216.9166666667
 10
54.7221702608
 20
216.9930555556
 10
55.0284186313
 20
217.0694444444
 10
55.4398377393
 20
217.1458333333
 10
55.9270243232
 20
217.2222222222
  0
LINE
  5
59A
100
AcDbEntity
  8
EDGEFEAT
100
AcDbLine
 62
7
  6
CONTINUOUS
 10
78.000000002
 20
203.0
 11
51.0
 21
203.0
  0
LINE
  5
59B
100
AcDbEntity
  8
0
100
AcDbLine
 62
7
  6
CONTINUOUS
 10
78.000000002
 20
203.0
 11
105.0
 21
203.0
  0
LINE
  5
59C
100
AcDbEntity
  8
0
100
AcDbLine
 62
7
  6
CONTINUOUS
 10
87.075
 20
203.5
 11
85.125
 21
203.5
  0
LINE
  5
59D
100
AcDbEntity
  8
EDGEFEAT
100
AcDbLine
 62
7
  6
CONTINUOUS
 10
78.000000002
 20
203.5
 11
50.5
 21
203.5
  0
LINE
  5
59E
100
AcDbEntity
  8
0
100
AcDbLine
 62
7
  6
CONTINUOUS
 10
87.375
 20
203.8
 11
84.825
 21
203.8
  0
LWPOLYLINE
  5
59F
100
AcDbEntity
  8
DEFAULT_2
100
AcDbPolyline
 62
8
  6
HIDDEN
 90
11
 70
0
 10
58.4321076919
 20
216.6334269892
 10
58.4043078778
 20
216.6610227118
 10
58.3073535238
 20
216.7254415233
 10
58.1853518714
 20
216.7775325789
 10
58.0313314052
 20
216.8257933619
 10
57.8422084873
 20
216.873095799
 10
57.6150205743
 20
216.9211253424
 10
57.3501404106
 20
216.9705376016
 10
57.0504641917
 20
217.0217022637
 10
56.7212083789
 20
217.0749362367
 10
56.4995991153
 20
217.1100628152
  0
LWPOLYLINE
  5
5A0
100
AcDbEntity
  8
DEFAULT_2
100
AcDbPolyline
 62
8
  6
HIDDEN
 90
6
 70
0
 10
58.4999857153
 20
217.7535752709
 10
58.4200292316
 20
217.8333333333
 10
58.2030818059
 20
217.9097222222
 10
57.8644189759
 20
217.9861111111
 10
57.4282442263
 20
218.0625
 10
56.92572999
 20
218.1388888889
  0
LWPOLYLINE
  5
5A1
100
AcDbEntity
  8
DEFAULT_2
100
AcDbPolyline
 62
8
  6
HIDDEN
 90
7
 70
0
 10
58.4999886674
 20
219.5434583269
 10
58.4719402304
 20
219.5902777778
 10
58.3130282137
 20
219.6666666667
 10
58.0245432841
 20
219.7430555556
 10
57.6271027838
 20
219.8194444444
 10
57.149110857
 20
219.8958333333
 10
56.0914320223
 20
220.0486111111
  0
LINE
  5
5A2
100
AcDbEntity
  8
0
100
AcDbLine
 62
7
  6
CONTINUOUS
 10
82.7720625996
 20
205.0
 11
78.000000002
 21
205.0
  0
LINE
  5
5A3
100
AcDbEntity
  8
0
100
AcDbLine
 62
7
  6
CONTINUOUS
 10
89.3758049221
 20
205.0
 11
102.6861917391
 21
205.0
  0
LWPOLYLINE
  5
5A4
100
AcDbEntity
  8
DEFAULT_2
100
AcDbPolyline
 62
8
  6
HIDDEN
 90
7
 70
0
 10
54.500044953
 20
213.2794101955
 10
54.5802765548
 20
213.358490566
 10
54.7941204223
 20
213.4339622641
 10
55.1269865554
 20
213.5094339623
 10
55.5556503012
 20
213.5849056604
 10
56.0502030327
 20
213.6603773585
 10
57.0967624897
 20
213.8113207547
  0
LINE
  5
5A5
100
AcDbEntity
  8
0
100
AcDbLine
 62
7
  6
CONTINUOUS
 10
84.6
 20
207.5
 11
87.6
 21
207.5
  0
LINE
  5
5A6
100
AcDbEntity
  8
0
100
AcDbLine
 62
7
  6
CONTINUOUS
 10
83.1
 20
208.5
 11
89.1
 21
208.5
  0
LWPOLYLINE
  5
5A7
100
AcDbEntity
  8
DEFAULT_2
100
AcDbPolyline
 62
8
  6
HIDDEN
 90
4
 70
0
 10
55.0716931354
 20
213.0566037736
 10
54.7549651011
 20
213.1320754717
 10
54.5599912326
 20
213.2075471698
 10
54.5000000226
 20
213.2775005876
  0
LWPOLYLINE
  5
5A8
100
AcDbEntity
  8
DEFAULT_2
100
AcDbPolyline
 62
8
  6
HIDDEN
 90
5
 70
0
 10
58.4826982893
 20
216.0
 10
58.3423021323
 20
216.0763888889
 10
58.0702402543
 20
216.1527777778
 10
57.6859564294
 20
216.2291666667
 10
57.2169146982
 20
216.3055555556
  0
LINE
  5
5A9
100
AcDbEntity
  8
0
100
AcDbLine
 62
2
  6
CONTINUOUS
 10
79.5824365209
 20
235.5
 11
82.0824365209
 21
238.0
  0
LINE
  5
5AA
100
AcDbEntity
  8
DEFAULT_2
100
AcDbLine
 62
8
  6
HIDDEN
 10
57.0223819828
 20
212.7547169811
 11
55.9750638476
 21
212.9056603774
  0
LINE
  5
5AB
100
AcDbEntity
  8
DEFAULT_2
100
AcDbLine
 62
8
  6
HIDDEN
 10
57.3777352951
 20
214.4905660377
 11
56.8765794117
 21
214.5660377358
  0
LWPOLYLINE
  5
5AC
100
AcDbEntity
  8
DEFAULT_2
100
AcDbPolyline
 62
8
  6
HIDDEN
 90
3
 70
0
 10
55.9750638476
 20
212.9056603774
 10
55.4880766561
 20
212.9811320755
 10
55.0716931354
 20
213.0566037736
  0
LINE
  5
5AD
100
AcDbEntity
  8
DEFAULT_2
100
AcDbLine
 62
8
  6
HIDDEN
 10
57.5096396986
 20
212.679245283
 11
57.0223819828
 21
212.7547169811
  0
LWPOLYLINE
  5
5AE
100
AcDbEntity
  8
DEFAULT_2
100
AcDbPolyline
 62
8
  6
HIDDEN
 90
5
 70
0
 10
55.361928565
 20
214.7924528302
 10
54.9710191325
 20
214.8679245283
 10
54.6867896204
 20
214.9433962264
 10
54.529071301
 20
215.0188679245
 10
54.5000000162
 20
215.0675010889
  0
LWPOLYLINE
  5
5AF
100
AcDbEntity
  8
DEFAULT_2
100
AcDbPolyline
 62
8
  6
HIDDEN
 90
4
 70
0
 10
54.8456379482
 20
216.6875
 10
54.6070011213
 20
216.7638888889
 10
54.5036529852
 20
216.8402777778
 10
54.5000000022
 20
216.8574989549
  0
LINE
  5
5B0
100
AcDbEntity
  8
EDGEFEAT
100
AcDbLine
 62
8
  6
HIDDEN
 10
55.0
 20
228.5
 11
53.5
 21
230.0
  0
LINE
  5
5B1
100
AcDbEntity
  8
DEFAULT_2
100
AcDbLine
 62
8
  6
HIDDEN
 10
53.499935833
 20
212.0
 11
59.500064167
 21
212.0
  0
LWPOLYLINE
  5
5B2
100
AcDbEntity
  8
DEFAULT_2
100
AcDbPolyline
 62
8
  6
HIDDEN
 90
3
 70
0
 10
56.8765794117
 20
214.5660377358
 10
55.8322433924
 20
214.7169811321
 10
55.361928565
 20
214.7924528302
  0
LWPOLYLINE
  5
5B3
100
AcDbEntity
  8
DEFAULT_2
100
AcDbPolyline
 62
8
  6
HIDDEN
 90
3
 70
0
 10
57.2169146982
 20
216.3055555556
 10
55.6521083812
 20
216.5347222222
 10
55.2025086269
 20
216.6111111111
  0
LINE
  5
5B4
100
AcDbEntity
  8
DEFAULT_2
100
AcDbLine
 62
8
  6
HIDDEN
 10
55.2025086269
 20
216.6111111111
 11
54.8456379482
 21
216.6875
  0
LWPOLYLINE
  5
5B5
100
AcDbEntity
  8
DEFAULT_2
100
AcDbPolyline
 62
8
  6
HIDDEN
 90
4
 70
0
 10
54.9868730133
 20
218.4444444444
 10
54.6944495682
 20
218.5208333333
 10
54.5310646621
 20
218.5972222222
 10
54.5000000147
 20
218.6474993506
  0
LWPOLYLINE
  5
5B6
100
AcDbEntity
  8
DEFAULT_2
100
AcDbPolyline
 62
8
  6
HIDDEN
 90
3
 70
0
 10
54.8061841122
 20
220.2777777778
 10
54.5849573785
 20
220.3541666667
 10
54.5000000233
 20
220.4375008956
  0
LINE
  5
5B7
100
AcDbEntity
  8
EDGEFEAT
100
AcDbLine
 62
7
  6
CONTINUOUS
 10
52.0
 20
236.5
 11
53.5
 21
235.0
  0
LWPOLYLINE
  5
5B8
100
AcDbEntity
  8
DEFAULT_2
100
AcDbPolyline
 62
8
  6
HIDDEN
 90
6
 70
0
 10
56.9523757451
 20
212.0
 10
57.446682126
 20
212.0754716981
 10
57.8749368102
 20
212.1509433962
 10
58.2072597167
 20
212.2264150943
 10
58.4204640956
 20
212.3018867925
 10
58.4999999818
 20
212.382499774
  0
LWPOLYLINE
  5
5B9
100
AcDbEntity
  8
DEFAULT_2
100
AcDbPolyline
 62
8
  6
HIDDEN
 90
3
 70
0
 10
56.92572999
 20
218.1388888889
 10
55.8675117467
 20
218.2916666667
 10
55.387436179
 20
218.3680555556
  0
LINE
  5
5BA
100
AcDbEntity
  8
DEFAULT_2
100
AcDbLine
 62
8
  6
HIDDEN
 10
55.387436179
 20
218.3680555556
 11
54.9868730133
 21
218.4444444444
  0
LINE
  5
5BB
100
AcDbEntity
  8
DEFAULT_2
100
AcDbLine
 62
8
  6
HIDDEN
 10
55.1484639627
 20
220.2013888889
 11
54.8061841122
 21
220.2777777778
  0
LINE
  5
5BC
100
AcDbEntity
  8
0
100
AcDbLine
 62
2
  6
CONTINUOUS
 10
89.5385
 20
235.5
 11
92.0385
 21
238.0
  0
LWPOLYLINE
  5
5BD
100
AcDbEntity
  8
DEFAULT_2
100
AcDbPolyline
 62
8
  6
HIDDEN
 90
9
 70
0
 10
55.9488096787
 20
212.5465820834
 10
55.6089779706
 20
212.4882313195
 10
55.3162697278
 20
212.4323047052
 10
55.0745233297
 20
212.3783758983
 10
54.8833215803
 20
212.3256226035
 10
54.7360410165
 20
212.2712200577
 10
54.6201854931
 20
212.2058172409
 10
54.529094842
 20
212.1025889698
 10
54.5003378857
 20
212.0
  0
LWPOLYLINE
  5
5BE
100
AcDbEntity
  8
DEFAULT_2
100
AcDbPolyline
 62
8
  6
HIDDEN
 90
10
 70
0
 10
56.0611657863
 20
214.3549886519
 10
55.7413980011
 20
214.3015718435
 10
55.4588008571
 20
214.2504480171
 10
55.2159865461
 20
214.2010966868
 10
55.0122705464
 20
214.152559874
 10
54.8459014721
 20
214.1034281204
 10
54.7157568247
 20
214.0519055804
 10
54.6120559963
 20
213.9896120798
 10
54.5272863392
 20
213.889081801
 10
54.5000005413
 20
213.777705768
  0
LINE
  5
5BF
100
AcDbEntity
  8
DEFAULT_2
100
AcDbLine
 62
8
  6
HIDDEN
 10
56.5002083014
 20
212.6350323495
 11
55.9488096787
 21
212.5465820834
  0
LINE
  5
5C0
100
AcDbEntity
  8
DEFAULT_2
100
AcDbLine
 62
8
  6
HIDDEN
 10
56.4996222144
 20
214.4249411274
 11
56.0611657863
 21
214.3549886519
  0
LWPOLYLINE
  5
5C1
100
AcDbEntity
  8
DEFAULT_2
100
AcDbPolyline
 62
8
  6
HIDDEN
 90
6
 70
0
 10
57.0967624897
 20
213.8113207547
 10
57.5757488777
 20
213.8867924528
 10
57.9796783356
 20
213.9622641509
 10
58.2803679593
 20
214.0377358491
 10
58.456838069
 20
214.1132075472
 10
58.4999999773
 20
214.1725011436
  0
LWPOLYLINE
  5
5C2
100
AcDbEntity
  8
DEFAULT_2
100
AcDbPolyline
 62
8
  6
HIDDEN
 90
3
 70
0
 10
56.0914320223
 20
220.0486111111
 10
55.5873349675
 20
220.125
 10
55.1484639627
 20
220.2013888889
  0
LINE
  5
5C3
100
AcDbEntity
  8
0
100
AcDbLine
 62
7
  6
CONTINUOUS
 10
78.000000002
 20
238.0
 11
78.000000002
 21
203.0
  0
LWPOLYLINE
  5
5C4
100
AcDbEntity
  8
DEFAULT_2
100
AcDbPolyline
 62
8
  6
HIDDEN
 90
6
 70
0
 10
57.2378213851
 20
215.6226415094
 10
57.6988056
 20
215.6981132075
 10
58.0761466994
 20
215.7735849057
 10
58.3435167736
 20
215.8490566038
 10
58.4822608082
 20
215.9245283019
 10
58.4999999991
 20
215.9625000699
  0
LWPOLYLINE
  5
5C5
100
AcDbEntity
  8
DEFAULT_2
100
AcDbPolyline
 62
8
  6
HIDDEN
 90
12
 70
0
 10
56.4998462411
 20
216.2149763858
 10
56.1422694957
 20
216.158100402
 10
55.8312886633
 20
216.1069412888
 10
55.5529080359
 20
216.0580455921
 10
55.3108612469
 20
216.0111959541
 10
55.1052710049
 20
215.9658310577
 10
54.9343119127
 20
215.921043284
 10
54.7940153361
 20
215.8749195495
 10
54.6819039994
 20
215.824751932
 10
54.5915211298
 20
215.7622890387
 10
54.5212974735
 20
215.6664257691
 10
54.5000013619
 20
215.5678315759
  0
LINE
  5
5C6
100
AcDbEntity
  8
DEFAULT_2
100
AcDbLine
 62
8
  6
HIDDEN
 10
52.6570836202
 20
220.0
 11
60.3429163798
 21
220.0
  0
LWPOLYLINE
  5
5C7
100
AcDbEntity
  8
DEFAULT_2
100
AcDbPolyline
 62
8
  6
HIDDEN
 90
11
 70
0
 10
56.028616862
 20
217.9296865597
 10
55.7446938791
 20
217.8821394664
 10
55.488931935
 20
217.8361546192
 10
55.2642993665
 20
217.7914831093
 10
55.0721155331
 20
217.747782582
 10
54.9117058924
 20
217.7043577
 10
54.7797412524
 20
217.6594237983
 10
54.6737504094
 20
217.6102553331
 10
54.5873698338
 20
217.5484446719
 10
54.5199218034
 20
217.4532468623
 10
54.5000012754
 20
217.3578204096
  0
LINE
  5
5C8
100
AcDbEntity
  8
DEFAULT_2
100
AcDbLine
 62
8
  6
HIDDEN
 10
56.5000693468
 20
218.0050097674
 11
56.028616862
 21
217.9296865597
  0
LWPOLYLINE
  5
5C9
100
AcDbEntity
  8
DEFAULT_2
100
AcDbPolyline
 62
8
  6
HIDDEN
 90
7
 70
0
 10
55.9270243232
 20
217.2222222222
 10
56.9865006336
 20
217.375
 10
57.4830718963
 20
217.4513888889
 10
57.9093851393
 20
217.5277777778
 10
58.2349727136
 20
217.6041666667
 10
58.4365656199
 20
217.6805555556
 10
58.4999999921
 20
217.7524988325
  0
LINE
  5
5CA
100
AcDbEntity
  8
DEFAULT_2
100
AcDbLine
 62
8
  6
HIDDEN
 10
54.25
 20
221.5
 11
58.75
 21
221.5
  0
LINE
  5
5CB
100
AcDbEntity
  8
0
100
AcDbLine
 62
2
  6
CONTINUOUS
 10
99.4945634791
 20
235.5
 11
101.9945634791
 21
238.0
  0
LWPOLYLINE
  5
5CC
100
AcDbEntity
  8
DEFAULT_2
100
AcDbPolyline
 62
8
  6
HIDDEN
 90
11
 70
0
 10
56.0274175809
 20
219.719491683
 10
55.7424510778
 20
219.6717526979
 10
55.4857828359
 20
219.6255621935
 10
55.260527461
 20
219.5806847371
 10
55.0681528126
 20
219.5368042272
 10
54.9080419098
 20
219.4932531189
 10
54.776734355
 20
219.4482414293
 10
54.6711100786
 20
219.3987656052
 10
54.5850349125
 20
219.3362255924
 10
54.5184364081
 20
219.2396801082
 10
54.5000009172
 20
219.1477699861
  0
LINE
  5
5CD
100
AcDbEntity
  8
DEFAULT_2
100
AcDbLine
 62
8
  6
HIDDEN
 10
56.5000222087
 20
219.7950032548
 11
56.0274175809
 21
219.719491683
  0
LWPOLYLINE
  5
5CE
100
AcDbEntity
  8
DEFAULT_2
100
AcDbPolyline
 62
8
  6
HIDDEN
 90
6
 70
0
 10
57.0561389408
 20
220.9652777778
 10
57.5452394579
 20
221.0416666667
 10
57.9596390707
 20
221.1180555556
 10
58.2697215458
 20
221.1944444444
 10
58.4533259539
 20
221.2708333333
 10
58.4999999793
 20
221.3325012157
  0
LINE
  5
5CF
100
AcDbEntity
  8
DEFAULT_2
100
AcDbLine
 62
8
  6
HIDDEN
 10
52.5349074712
 20
224.0
 11
60.4650925288
 21
224.0
  0
LINE
  5
5D0
100
AcDbEntity
  8
0
100
AcDbLine
 62
7
  6
CONTINUOUS
 10
84.6
 20
208.5
 11
84.6
 21
207.5
  0
LINE
  5
5D1
100
AcDbEntity
  8
0
100
AcDbLine
 62
7
  6
CONTINUOUS
 10
84.825
 20
207.5
 11
84.825
 21
203.8
  0
LINE
  5
5D2
100
AcDbEntity
  8
0
100
AcDbLine
 62
7
  6
CONTINUOUS
 10
83.1
 20
208.5
 11
83.0720511765
 21
205.2973820394
  0
LWPOLYLINE
  5
5D3
100
AcDbEntity
  8
DEFAULT_2
100
AcDbPolyline
 62
8
  6
HIDDEN
 90
11
 70
0
 10
55.9695147256
 20
221.5
 10
55.739405952
 20
221.4612275466
 10
55.4819756528
 20
221.4148454622
 10
55.2561802027
 20
221.3697628309
 10
55.0635540279
 20
221.3256647138
 10
54.9035272928
 20
221.2818840315
 10
54.7726299707
 20
221.2366131307
 10
54.6672754208
 20
221.1865709449
 10
54.5816937308
 20
221.1229733169
 10
54.5166454192
 20
221.025167848
 10
54.5000005827
 20
220.9377139725
  0
LINE
  5
5D4
100
AcDbEntity
  8
EDGEFEAT
100
AcDbLine
 62
7
  6
CONTINUOUS
 10
78.000000002
 20
226.0
 11
50.5
 21
226.0
  0
LINE
  5
5D5
100
AcDbEntity
  8
0
100
AcDbLine
 62
7
  6
CONTINUOUS
 10
78.000000002
 20
227.0
 11
102.0650792305
 21
227.0
  0
LINE
  5
5D6
100
AcDbEntity
  8
EDGEFEAT
100
AcDbLine
 62
7
  6
CONTINUOUS
 10
50.5
 20
228.0
 11
78.000000002
 21
228.0
  0
LINE
  5
5D7
100
AcDbEntity
  8
DEFAULT_2
100
AcDbLine
 62
8
  6
HIDDEN
 10
53.1130903017
 20
228.0
 11
60.5
 21
228.0
  0
LINE
  5
5D8
100
AcDbEntity
  8
0
100
AcDbLine
 62
7
  6
CONTINUOUS
 10
102.1
 20
228.0
 11
105.5
 21
228.0
  0
LINE
  5
5D9
100
AcDbEntity
  8
EDGEFEAT
100
AcDbLine
 62
8
  6
HIDDEN
 10
58.0
 20
228.5
 11
55.0
 21
228.5
  0
LINE
  5
5DA
100
AcDbEntity
  8
0
100
AcDbLine
 62
7
  6
CONTINUOUS
 10
89.1
 20
208.5
 11
89.1279488235
 21
205.2973820394
  0
LINE
  5
5DB
100
AcDbEntity
  8
0
100
AcDbLine
 62
7
  6
CONTINUOUS
 10
87.375
 20
207.5
 11
87.375
 21
203.8
  0
LINE
  5
5DC
100
AcDbEntity
  8
0
100
AcDbLine
 62
7
  6
CONTINUOUS
 10
87.6
 20
208.5
 11
87.6
 21
207.5
  0
LINE
  5
5DD
100
AcDbEntity
  8
DEFAULT_2
100
AcDbLine
 62
8
  6
HIDDEN
 10
52.543634339
 20
230.0
 11
60.456365661
 21
230.0
  0
LINE
  5
5DE
100
AcDbEntity
  8
0
100
AcDbLine
 62
7
  6
CONTINUOUS
 10
90.9258216238
 20
235.5
 11
91.0
 21
227.0
  0
LINE
  5
5DF
100
AcDbEntity
  8
0
100
AcDbLine
 62
2
  6
CONTINUOUS
 10
100.9995728556
 20
227.0489458974
 11
102.1054049672
 21
228.154778009
  0
LINE
  5
5E0
100
AcDbEntity
  8
0
100
AcDbLine
 62
2
  6
CONTINUOUS
 10
104.8004809072
 20
230.849853949
 11
105.5
 21
231.5493730418
  0
LINE
  5
5E1
100
AcDbEntity
  8
0
100
AcDbLine
 62
2
  6
CONTINUOUS
 10
79.6074006225
 20
203.0
 11
81.6074006225
 21
205.0
  0
LINE
  5
5E2
100
AcDbEntity
  8
0
100
AcDbLine
 62
2
  6
CONTINUOUS
 10
83.0823274542
 20
206.4749268317
 11
84.6
 21
207.9925993775
  0
LINE
  5
5E3
100
AcDbEntity
  8
0
100
AcDbLine
 62
2
  6
CONTINUOUS
 10
102.8717630184
 20
226.2643623959
 11
104.6074006225
 21
228.0
  0
LINE
  5
5E4
100
AcDbEntity
  8
0
100
AcDbLine
 62
7
  6
CONTINUOUS
 10
102.2830719966
 20
233.2424960623
 11
104.7169280034
 21
233.2424960623
  0
LINE
  5
5E5
100
AcDbEntity
  8
0
100
AcDbLine
 62
7
  6
CONTINUOUS
 10
92.0
 20
205.0
 11
92.0
 21
227.0
  0
LINE
  5
5E6
100
AcDbEntity
  8
0
100
AcDbLine
 62
7
  6
CONTINUOUS
 10
92.7861917391
 20
205.0
 11
92.9781828305
 21
227.0
  0
LINE
  5
5E7
100
AcDbEntity
  8
DEFAULT_2
100
AcDbLine
 62
8
  6
HIDDEN
 10
50.5
 20
235.0
 11
53.5
 21
235.0
  0
LINE
  5
5E8
100
AcDbEntity
  8
0
100
AcDbLine
 62
7
  6
CONTINUOUS
 10
53.5
 20
235.0
 11
78.000000002
 21
235.0
  0
LINE
  5
5E9
100
AcDbEntity
  8
0
100
AcDbLine
 62
7
  6
CONTINUOUS
 10
78.000000002
 20
235.5
 11
100.9258216238
 21
235.5
  0
LINE
  5
5EA
100
AcDbEntity
  8
0
100
AcDbLine
 62
7
  6
CONTINUOUS
 10
95.5
 20
203.0
 11
95.5
 21
202.0
  0
LINE
  5
5EB
100
AcDbEntity
  8
0
100
AcDbLine
 62
7
  6
CONTINUOUS
 10
53.5
 20
238.0
 11
102.5
 21
238.0
  0
LINE
  5
5EC
100
AcDbEntity
  8
0
100
AcDbLine
 62
7
  6
CONTINUOUS
 10
99.5
 20
205.0
 11
99.5
 21
235.5
  0
LINE
  5
5ED
100
AcDbEntity
  8
0
100
AcDbLine
 62
2
  6
CONTINUOUS
 10
89.5634641016
 20
203.0
 11
91.5634641016
 21
205.0
  0
LINE
  5
5EE
100
AcDbEntity
  8
0
100
AcDbLine
 62
2
  6
CONTINUOUS
 10
102.7841128573
 20
216.2206487557
 11
105.5
 21
218.9365358984
  0
LINE
  5
5EF
100
AcDbEntity
  8
0
100
AcDbLine
 62
7
  6
CONTINUOUS
 10
101.0
 20
227.0
 11
100.9258216238
 21
235.5
  0
LINE
  5
5F0
100
AcDbEntity
  8
0
100
AcDbLine
 62
7
  6
CONTINUOUS
 10
101.9
 20
205.0
 11
101.9
 21
227.0
  0
LINE
  5
5F1
100
AcDbEntity
  8
0
100
AcDbLine
 62
7
  6
CONTINUOUS
 10
102.2830719966
 20
233.2424960623
 11
102.0650792305
 21
227.0
  0
LINE
  5
5F2
100
AcDbEntity
  8
0
100
AcDbLine
 62
7
  6
CONTINUOUS
 10
103.5
 20
203.0
 11
103.5
 21
202.0
  0
LINE
  5
5F3
100
AcDbEntity
  8
0
100
AcDbLine
 62
7
  6
CONTINUOUS
 10
102.8869096983
 20
228.0
 11
102.6861917391
 21
205.0
  0
LINE
  5
5F4
100
AcDbEntity
  8
0
100
AcDbLine
 62
7
  6
CONTINUOUS
 10
104.7169280034
 20
233.2424960623
 11
104.9
 21
228.0
  0
LINE
  5
5F5
100
AcDbEntity
  8
0
100
AcDbLine
 62
7
  6
CONTINUOUS
 10
105.5
 20
203.5
 11
105.5
 21
226.0
  0
LINE
  5
5F6
100
AcDbEntity
  8
0
100
AcDbLine
 62
7
  6
CONTINUOUS
 10
105.5
 20
228.0
 11
105.5
 21
235.0
  0
LINE
  5
5F7
100
AcDbEntity
  8
0
100
AcDbLine
 62
2
  6
CONTINUOUS
 10
99.5195275807
 20
203.0
 11
101.5195275807
 21
205.0
  0
LINE
  5
5F8
100
AcDbEntity
  8
0
100
AcDbLine
 62
2
  6
CONTINUOUS
 10
102.6964626963
 20
206.1769351156
 11
105.5
 21
208.9804724193
  0
LINE
  5
5F9
100
AcDbEntity
  8
0
100
AcDbLine
 62
7
  6
CONTINUOUS
 10
105.5
 20
226.0
 11
104.9641016151
 21
228.0
  0
LINE
  5
5FA
100
AcDbEntity
  8
0
100
AcDbLine
 62
7
  6
CONTINUOUS
 10
105.5
 20
203.5
 11
105.0
 21
203.0
  0
LINE
  5
5FB
100
AcDbEntity
  8
0
100
AcDbLine
 62
7
  6
CONTINUOUS
 10
102.5
 20
238.0
 11
105.5
 21
235.0
  0
LINE
  5
5FC
100
AcDbEntity
  8
0
100
AcDbLine
 62
7
  6
CONTINUOUS
 10
129.1124570195
 20
233.0856659256
 11
129.8026614383
 21
234.2840237888
  0
LINE
  5
5FD
100
AcDbEntity
  8
EDGEFEAT
100
AcDbLine
 62
7
  6
CONTINUOUS
 10
129.274957895
 20
207.7577568022
 11
129.1590609737
 21
225.8218237266
  0
LINE
  5
5FE
100
AcDbEntity
  8
0
100
AcDbLine
 62
7
  6
CONTINUOUS
 10
129.1487166971
 20
227.4341159463
 11
129.1124570195
 21
233.0856659256
  0
LINE
  5
5FF
100
AcDbEntity
  8
EDGEFEAT
100
AcDbLine
 62
7
  6
CONTINUOUS
 10
129.1590609737
 20
225.8218237266
 11
129.5655986888
 21
227.2279838641
  0
LINE
  5
600
100
AcDbEntity
  8
0
100
AcDbLine
 62
7
  6
CONTINUOUS
 10
136.2090872801
 20
237.1544388076
 11
134.7588310808
 21
235.4312519816
  0
LINE
  5
601
100
AcDbEntity
  8
0
100
AcDbLine
 62
7
  6
CONTINUOUS
 10
134.6177428519
 20
234.3541473513
 11
132.483974293
 21
231.433521802
  0
LINE
  5
602
100
AcDbEntity
  8
EDGEFEAT
100
AcDbLine
 62
7
  6
CONTINUOUS
 10
129.7299886988
 20
207.3927369724
 11
129.274957895
 21
207.7577568022
  0
LWPOLYLINE
  5
603
100
AcDbEntity
  8
0
100
AcDbPolyline
 62
7
  6
CONTINUOUS
 90
6
 70
0
 10
155.7744528127
 20
195.5044857709
 10
154.9442961062
 20
195.4666834211
 10
154.1133288092
 20
195.5005250916
 10
153.3301016648
 20
195.6040227312
 10
152.6403329585
 20
195.7711000008
 10
152.4994574973
 20
195.8270470645
  0
LINE
  5
604
100
AcDbEntity
  8
EDGEFEAT
100
AcDbLine
 62
7
  6
CONTINUOUS
 10
155.6681767482
 20
195.6285458856
 11
152.3953274475
 21
195.8335701851
  0
LINE
  5
605
100
AcDbEntity
  8
EDGEFEAT
100
AcDbLine
 62
7
  6
CONTINUOUS
 10
155.7685283385
 20
195.8717086605
 11
152.1404595754
 21
196.0988994731
  0
LINE
  5
606
100
AcDbEntity
  8
EDGEFEAT
100
AcDbLine
 62
7
  6
CONTINUOUS
 10
152.3953274475
 20
195.8335701851
 11
129.7299886988
 21
207.3927369724
  0
LINE
  5
607
100
AcDbEntity
  8
EDGEFEAT
100
AcDbLine
 62
7
  6
CONTINUOUS
 10
152.1404595754
 20
196.0988994731
 11
129.274957895
 21
207.7577568022
  0
LWPOLYLINE
  5
608
100
AcDbEntity
  8
0
100
AcDbPolyline
 62
7
  6
CONTINUOUS
 90
4
 70
0
 10
131.3862454341
 20
233.3449258783
 10
131.4228736363
 20
233.1829426795
 10
131.6196654669
 20
232.9351453257
 10
131.9770681952
 20
232.70890185
  0
LWPOLYLINE
  5
609
100
AcDbEntity
  8
0
100
AcDbPolyline
 62
7
  6
CONTINUOUS
 90
6
 70
0
 10
138.2578309531
 20
235.8052227472
 10
138.2565045361
 20
235.8392814201
 10
138.2076554073
 20
236.0024337183
 10
138.0894634791
 20
236.1614901774
 10
137.9046603137
 20
236.3128014978
 10
137.6567760093
 20
236.4535742041
  0
LINE
  5
60A
100
AcDbEntity
  8
0
100
AcDbLine
 62
7
  6
CONTINUOUS
 10
137.6567760093
 20
236.4535742041
 11
137.6528864178
 21
235.1579387417
  0
LINE
  5
60B
100
AcDbEntity
  8
EDGEFEAT
100
AcDbLine
 62
7
  6
CONTINUOUS
 10
189.8528812644
 20
204.1151308613
 11
155.6681767482
 21
195.6285458856
  0
LINE
  5
60C
100
AcDbEntity
  8
EDGEFEAT
100
AcDbLine
 62
7
  6
CONTINUOUS
 10
190.2508882368
 20
204.4293594212
 11
155.7685283385
 21
195.8717086605
  0
LINE
  5
60D
100
AcDbEntity
  8
EDGEFEAT
100
AcDbLine
 62
7
  6
CONTINUOUS
 10
152.1404595754
 20
196.0988994731
 11
152.3953274475
 21
195.8335701851
  0
LINE
  5
60E
100
AcDbEntity
  8
EDGEFEAT
100
AcDbLine
 62
7
  6
CONTINUOUS
 10
152.1404595754
 20
196.0988994731
 11
152.1102776311
 21
214.4443160592
  0
LINE
  5
60F
100
AcDbEntity
  8
EDGEFEAT
100
AcDbLine
 62
7
  6
CONTINUOUS
 10
152.1075835695
 20
216.0818408956
 11
152.0981398475
 21
221.8219950822
  0
LINE
  5
610
100
AcDbEntity
  8
EDGEFEAT
100
AcDbLine
 62
7
  6
CONTINUOUS
 10
152.1102776311
 20
214.4443160592
 11
129.1590609737
 21
225.8218237266
  0
LINE
  5
611
100
AcDbEntity
  8
EDGEFEAT
100
AcDbLine
 62
7
  6
CONTINUOUS
 10
152.3566118127
 20
216.0667188207
 11
152.1102776311
 21
214.4443160592
  0
LINE
  5
612
100
AcDbEntity
  8
EDGEFEAT
100
AcDbLine
 62
7
  6
CONTINUOUS
 10
154.2460877904
 20
224.7966484258
 11
153.9200631945
 21
222.9442641689
  0
LINE
  5
613
100
AcDbEntity
  8
EDGEFEAT
100
AcDbLine
 62
7
  6
CONTINUOUS
 10
153.9200631945
 20
222.9442641689
 11
152.0981398475
 21
221.8219950822
  0
LINE
  5
614
100
AcDbEntity
  8
EDGEFEAT
100
AcDbLine
 62
7
  6
CONTINUOUS
 10
155.7522731669
 20
214.222592444
 11
152.1102776311
 21
214.4443160592
  0
LINE
  5
615
100
AcDbEntity
  8
EDGEFEAT
100
AcDbLine
 62
7
  6
CONTINUOUS
 10
129.1487166971
 20
227.4341159463
 11
152.1075835695
 21
216.0818408956
  0
LINE
  5
616
100
AcDbEntity
  8
EDGEFEAT
100
AcDbLine
 62
7
  6
CONTINUOUS
 10
155.7522731669
 20
214.222592444
 11
155.6531189373
 21
215.8546718473
  0
LINE
  5
617
100
AcDbEntity
  8
EDGEFEAT
100
AcDbLine
 62
7
  6
CONTINUOUS
 10
155.7685283385
 20
195.8717086605
 11
155.7522731669
 21
214.222592444
  0
LINE
  5
618
100
AcDbEntity
  8
EDGEFEAT
100
AcDbLine
 62
7
  6
CONTINUOUS
 10
155.7508222167
 20
215.8606076451
 11
155.7457360757
 21
221.6024838013
  0
LINE
  5
619
100
AcDbEntity
  8
EDGEFEAT
100
AcDbLine
 62
7
  6
CONTINUOUS
 10
190.3655847024
 20
222.5739041376
 11
155.7522731669
 21
214.222592444
  0
LINE
  5
61A
100
AcDbEntity
  8
EDGEFEAT
100
AcDbLine
 62
7
  6
CONTINUOUS
 10
155.7508222167
 20
215.8606076451
 11
190.3758220493
 21
224.1934134952
  0
LINE
  5
61B
100
AcDbEntity
  8
EDGEFEAT
100
AcDbLine
 62
7
  6
CONTINUOUS
 10
155.7508222167
 20
215.8606076451
 11
152.1075835695
 21
216.0818408956
  0
LINE
  5
61C
100
AcDbEntity
  8
0
100
AcDbLine
 62
7
  6
CONTINUOUS
 10
129.1124570195
 20
233.0856659256
 11
152.0981398475
 21
221.8219950822
  0
LINE
  5
61D
100
AcDbEntity
  8
EDGEFEAT
100
AcDbLine
 62
7
  6
CONTINUOUS
 10
153.9200631945
 20
222.9442641689
 11
155.7457360757
 21
221.6024838013
  0
LINE
  5
61E
100
AcDbEntity
  8
0
100
AcDbLine
 62
7
  6
CONTINUOUS
 10
155.7457360757
 20
221.6024838013
 11
190.4117071871
 21
229.8703058385
  0
LWPOLYLINE
  5
61F
100
AcDbEntity
  8
0
100
AcDbPolyline
 62
7
  6
CONTINUOUS
 90
5
 70
0
 10
131.9770681952
 20
232.70890185
 10
132.2804122896
 20
232.5813894117
 10
132.6353805777
 20
232.4699427811
 10
133.0353976264
 20
232.3766709077
 10
133.1580305121
 20
232.3561456765
  0
LINE
  5
620
100
AcDbEntity
  8
0
100
AcDbLine
 62
7
  6
CONTINUOUS
 10
136.2136373785
 20
234.7241783302
 11
134.7588310808
 21
235.4312519816
  0
LINE
  5
621
100
AcDbEntity
  8
0
100
AcDbLine
 62
7
  6
CONTINUOUS
 10
134.6177428519
 20
234.3541473513
 11
154.2460877904
 21
224.7966484258
  0
LINE
  5
622
100
AcDbEntity
  8
EDGEFEAT
100
AcDbLine
 62
7
  6
CONTINUOUS
 10
155.6681767482
 20
195.6285458856
 11
155.7685283385
 21
195.8717086605
  0
LINE
  5
623
100
AcDbEntity
  8
0
100
AcDbLine
 62
7
  6
CONTINUOUS
 10
136.2090872801
 20
237.1544388076
 11
137.6567760093
 21
236.4535742041
  0
LWPOLYLINE
  5
624
100
AcDbEntity
  8
0
100
AcDbPolyline
 62
7
  6
CONTINUOUS
 90
8
 70
0
 10
183.2756360768
 20
234.1802973851
 10
182.8959406281
 20
234.0760852494
 10
182.5651976325
 20
233.9547119105
 10
182.2896067379
 20
233.8184028913
 10
182.075493409
 20
233.6702799466
 10
181.9265782168
 20
233.512850391
 10
181.846481855
 20
233.3498919173
 10
181.8320424646
 20
233.2420057332
  0
LINE
  5
625
100
AcDbEntity
  8
0
100
AcDbLine
 62
7
  6
CONTINUOUS
 10
154.2460877904
 20
224.7966484258
 11
183.9947505628
 21
231.8519949547
  0
LINE
  5
626
100
AcDbEntity
  8
0
100
AcDbLine
 62
7
  6
CONTINUOUS
 10
187.4586874528
 20
232.7350612432
 11
183.9076915877
 21
231.8929718653
  0
LINE
  5
627
100
AcDbEntity
  8
0
100
AcDbLine
 62
7
  6
CONTINUOUS
 10
185.3691643629
 20
234.6748221564
 11
183.2756360768
 21
234.1802973851
  0
LINE
  5
628
100
AcDbEntity
  8
0
100
AcDbLine
 62
7
  6
CONTINUOUS
 10
184.1443878383
 20
231.891576379
 11
183.9646463934
 21
231.8661643825
  0
LINE
  5
629
100
AcDbEntity
  8
0
100
AcDbLine
 62
7
  6
CONTINUOUS
 10
135.2546605053
 20
234.5018258218
 11
135.0758199368
 21
234.5123901789
  0
LWPOLYLINE
  5
62A
100
AcDbEntity
  8
0
100
AcDbPolyline
 62
7
  6
CONTINUOUS
 90
10
 70
0
 10
185.0613841654
 20
229.6419661723
 10
185.1196332826
 20
229.6385147505
 10
185.8907828955
 20
229.6514868752
 10
186.6315349966
 20
229.7219633326
 10
187.3045732676
 20
229.846373588
 10
187.8760343383
 20
230.0184194594
 10
188.3172384652
 20
230.2294027548
 10
188.6061354137
 20
230.4686787345
 10
188.7283849208
 20
230.724195362
 10
188.7320468753
 20
230.7723065169
  0
LWPOLYLINE
  5
62B
100
AcDbEntity
  8
0
100
AcDbPolyline
 62
7
  6
CONTINUOUS
 90
9
 70
0
 10
135.0758199368
 20
234.5123901789
 10
134.3096106355
 20
234.4996186115
 10
133.5686671294
 20
234.4302133437
 10
132.8899585575
 20
234.3076180398
 10
132.3074057935
 20
234.1379220051
 10
131.8501928961
 20
233.9295663715
 10
131.5413059333
 20
233.6929311401
 10
131.3963798345
 20
233.4398354588
 10
131.3862454341
 20
233.3449258783
  0
LWPOLYLINE
  5
62C
100
AcDbEntity
  8
0
100
AcDbPolyline
 62
7
  6
CONTINUOUS
 90
5
 70
0
 10
158.1359015901
 20
196.2411753309
 10
157.7923618069
 20
196.0055595051
 10
157.2412516414
 20
195.7820655893
 10
156.5552966579
 20
195.6117114562
 10
155.7744528127
 20
195.5044857709
  0
LWPOLYLINE
  5
62D
100
AcDbEntity
  8
0
100
AcDbPolyline
 62
7
  6
CONTINUOUS
 90
8
 70
0
 10
136.7493706877
 20
234.8483957628
 10
137.1363172818
 20
234.9523492696
 10
137.475379412
 20
235.073333659
 10
137.76021235
 20
235.2090934515
 10
137.984317481
 20
235.356484905
 10
138.1438715235
 20
235.5129834761
 10
138.2350872096
 20
235.6748118774
 10
138.2578309531
 20
235.8052227472
  0
LINE
  5
62E
100
AcDbEntity
  8
0
100
AcDbLine
 62
7
  6
CONTINUOUS
 10
134.6177428519
 20
234.3541473513
 11
136.7493706877
 21
234.8483957628
  0
LINE
  5
62F
100
AcDbEntity
  8
0
100
AcDbLine
 62
7
  6
CONTINUOUS
 10
134.7588310808
 20
235.4312519816
 11
129.8026614383
 21
234.2840237888
  0
LWPOLYLINE
  5
630
100
AcDbEntity
  8
0
100
AcDbPolyline
 62
7
  6
CONTINUOUS
 90
10
 70
0
 10
188.0790888958
 20
231.4597883524
 10
187.763766267
 20
231.5877599541
 10
187.3984290201
 20
231.6995221189
 10
186.9898384763
 20
231.7929966325
 10
186.5473953826
 20
231.8660602789
 10
186.0786317424
 20
231.9174686395
 10
185.5948249942
 20
231.9460016432
 10
185.1039551612
 20
231.9512025137
 10
184.6177377349
 20
231.932953246
 10
184.1443878383
 20
231.891576379
  0
LINE
  5
631
100
AcDbEntity
  8
0
100
AcDbLine
 62
7
  6
CONTINUOUS
 10
183.9947505628
 20
231.8519949547
 11
182.4835156369
 21
232.5633028743
  0
LWPOLYLINE
  5
632
100
AcDbEntity
  8
0
100
AcDbPolyline
 62
7
  6
CONTINUOUS
 90
6
 70
0
 10
181.8320424646
 20
233.2420057332
 10
181.8365846841
 20
233.1840992135
 10
181.8971885323
 20
233.0194601269
 10
182.027277669
 20
232.858786897
 10
182.2239442406
 20
232.7057839868
 10
182.4835156369
 20
232.5633028743
  0
LINE
  5
633
100
AcDbEntity
  8
0
100
AcDbLine
 62
7
  6
CONTINUOUS
 10
183.2756360768
 20
234.1802973851
 11
183.2767724043
 21
232.1899328501
  0
LINE
  5
634
100
AcDbEntity
  8
0
100
AcDbLine
 62
7
  6
CONTINUOUS
 10
190.9869381556
 20
231.0810544082
 11
190.4117071871
 21
229.8703058385
  0
LINE
  5
635
100
AcDbEntity
  8
0
100
AcDbLine
 62
7
  6
CONTINUOUS
 10
165.5794342381
 20
243.9377250715
 11
136.2090872801
 21
237.1544388076
  0
LINE
  5
636
100
AcDbEntity
  8
0
100
AcDbLine
 62
7
  6
CONTINUOUS
 10
185.3691643629
 20
234.6748221564
 11
165.5794342381
 21
243.9377250715
  0
LINE
  5
637
100
AcDbEntity
  8
0
100
AcDbLine
 62
7
  6
CONTINUOUS
 10
190.9869381556
 20
231.0810544082
 11
187.4586874528
 21
232.7350612432
  0
LINE
  5
638
100
AcDbEntity
  8
EDGEFEAT
100
AcDbLine
 62
7
  6
CONTINUOUS
 10
190.9400340063
 20
223.7969070975
 11
190.3655847024
 21
222.5739041376
  0
LINE
  5
639
100
AcDbEntity
  8
EDGEFEAT
100
AcDbLine
 62
7
  6
CONTINUOUS
 10
190.9504448753
 20
225.4137001595
 11
190.3758220493
 21
224.1934134952
  0
LINE
  5
63A
100
AcDbEntity
  8
0
100
AcDbLine
 62
7
  6
CONTINUOUS
 10
183.9947505628
 20
231.8519949547
 11
185.5148470487
 21
228.7024064009
  0
LINE
  5
63B
100
AcDbEntity
  8
0
100
AcDbLine
 62
7
  6
CONTINUOUS
 10
185.3691643629
 20
234.6748221564
 11
187.4586874528
 21
232.7350612432
  0
LINE
  5
63C
100
AcDbEntity
  8
EDGEFEAT
100
AcDbLine
 62
7
  6
CONTINUOUS
 10
190.2508882368
 20
204.4293594212
 11
190.3655847024
 21
222.5739041376
  0
LINE
  5
63D
100
AcDbEntity
  8
0
100
AcDbLine
 62
7
  6
CONTINUOUS
 10
190.3758220493
 20
224.1934134952
 11
190.4117071871
 21
229.8703058385
  0
LINE
  5
63E
100
AcDbEntity
  8
EDGEFEAT
100
AcDbLine
 62
7
  6
CONTINUOUS
 10
190.8233925205
 20
205.6826511321
 11
190.9400340063
 21
223.7969070975
  0
LINE
  5
63F
100
AcDbEntity
  8
0
100
AcDbLine
 62
7
  6
CONTINUOUS
 10
190.9504448753
 20
225.4137001595
 11
190.9869381556
 21
231.0810544082
  0
LINE
  5
640
100
AcDbEntity
  8
EDGEFEAT
100
AcDbLine
 62
7
  6
CONTINUOUS
 10
190.2508882368
 20
204.4293594212
 11
189.8528812644
 21
204.1151308613
  0
LINE
  5
641
100
AcDbEntity
  8
EDGEFEAT
100
AcDbLine
 62
7
  6
CONTINUOUS
 10
190.9400340063
 20
223.7969070975
 11
190.6475957978
 21
224.7705605662
  0
LWPOLYLINE
  5
642
100
AcDbEntity
  8
0
100
AcDbPolyline
 62
7
  6
CONTINUOUS
 90
4
 70
0
 10
188.7320468753
 20
230.7723065169
 10
188.6780576444
 20
230.9831199442
 10
188.4578870028
 20
231.232472017
 10
188.0790888958
 20
231.4597883524
  0
LINE
  5
643
100
AcDbEntity
  8
EDGEFEAT
100
AcDbLine
 62
7
  6
CONTINUOUS
 10
189.9945843595
 20
224.101665346
 11
190.3655847024
 21
222.5739041376
  0
LINE
  5
644
100
AcDbEntity
  8
EDGEFEAT
100
AcDbLine
 62
7
  6
CONTINUOUS
 10
190.8233925205
 20
205.6826511321
 11
190.2508882368
 21
204.4293594212
  0
CIRCLE
  5
645
100
AcDbEntity
  8
0
100
AcDbCircle
 62
7
  6
CONTINUOUS
 10
86.1783377761
 20
34.8664854626
 40
2.5696458958
  0
CIRCLE
  5
646
100
AcDbEntity
  8
0
100
AcDbCircle
 62
7
  6
CONTINUOUS
 10
86.1783377761
 20
34.8664854626
 40
1.2848229479
  0
ARC
  5
647
100
AcDbEntity
  8
EDGEFEAT
100
AcDbCircle
 62
7
  6
CONTINUOUS
 10
62.5112912551
 20
113.8977171502
 40
11.3701195228
100
AcDbArc
 50
54.276569234
 51
54.4498605255
  0
ARC
  5
648
100
AcDbEntity
  8
EDGEFEAT
100
AcDbCircle
 62
7
  6
CONTINUOUS
 10
77.2887087418
 20
113.8977171574
 40
11.3701195152
100
AcDbArc
 50
125.5501394829
 51
125.7234307745
  0
ARC
  5
649
100
AcDbEntity
  8
EDGEFEAT
100
AcDbCircle
 62
7
  6
CONTINUOUS
 10
63.0645199706
 20
115.3894078649
 40
9.4951452286
100
AcDbArc
 50
51.7303675774
 51
51.9316978376
  0
ARC
  5
64A
100
AcDbEntity
  8
EDGEFEAT
100
AcDbCircle
 62
7
  6
CONTINUOUS
 10
76.7354800305
 20
115.3894078658
 40
9.4951452286
100
AcDbArc
 50
128.0683021713
 51
128.2696324316
  0
ARC
  5
64B
100
AcDbEntity
  8
0
100
AcDbCircle
 62
7
  6
CONTINUOUS
 10
56.5
 20
99.5
 40
6.7138082609
100
AcDbArc
 50
0.0
 51
90.0
  0
ARC
  5
64C
100
AcDbEntity
  8
0
100
AcDbCircle
 62
7
  6
CONTINUOUS
 10
56.5
 20
99.5
 40
6.5130903017
100
AcDbArc
 50
0.0
 51
90.0
  0
CIRCLE
  5
64D
100
AcDbEntity
  8
0
100
AcDbCircle
 62
7
  6
CONTINUOUS
 10
56.5
 20
99.5
 40
4.2007179592
  0
CIRCLE
  5
64E
100
AcDbEntity
  8
0
100
AcDbCircle
 62
7
  6
CONTINUOUS
 10
56.5
 20
99.5
 40
4.0
  0
CIRCLE
  5
64F
100
AcDbEntity
  8
0
100
AcDbCircle
 62
7
  6
CONTINUOUS
 10
56.5
 20
99.5
 40
2.1
  0
ARC
  5
650
100
AcDbEntity
  8
EDGEFEAT
100
AcDbCircle
 62
7
  6
CONTINUOUS
 10
69.9
 20
113.0
 40
1.0779212484
100
AcDbArc
 50
180.0
 51
360.0
  0
ARC
  5
651
100
AcDbEntity
  8
0
100
AcDbCircle
 62
7
  6
CONTINUOUS
 10
64.0
 20
97.1
 40
0.9869096983
100
AcDbArc
 50
180.0
 51
270.0
  0
ARC
  5
652
100
AcDbEntity
  8
0
100
AcDbCircle
 62
7
  6
CONTINUOUS
 10
54.1
 20
107.0
 40
0.9869096983
100
AcDbArc
 50
180.0
 51
270.0
  0
ARC
  5
653
100
AcDbEntity
  8
0
100
AcDbCircle
 62
7
  6
CONTINUOUS
 10
64.0
 20
97.1
 40
0.7861917391
100
AcDbArc
 50
180.0
 51
270.0
  0
ARC
  5
654
100
AcDbEntity
  8
0
100
AcDbCircle
 62
7
  6
CONTINUOUS
 10
54.1
 20
107.0
 40
0.7861917391
100
AcDbArc
 50
180.0
 51
270.0
  0
ARC
  5
655
100
AcDbEntity
  8
EDGEFEAT
100
AcDbCircle
 62
7
  6
CONTINUOUS
 10
69.9
 20
113.0
 40
0.7779488223
100
AcDbArc
 50
180.0
 51
360.0
  0
ARC
  5
656
100
AcDbEntity
  8
0
100
AcDbCircle
 62
7
  6
CONTINUOUS
 10
69.9
 20
113.0
 40
0.75
100
AcDbArc
 50
180.0
 51
360.0
  0
ARC
  5
657
100
AcDbEntity
  8
EDGEFEAT
100
AcDbCircle
 62
7
  6
CONTINUOUS
 10
70.9779623452
 20
116.8514558041
 40
0.3000135222
100
AcDbArc
 50
108.9026857293
 51
179.9965956398
  0
ARC
  5
658
100
AcDbEntity
  8
EDGEFEAT
100
AcDbCircle
 62
7
  6
CONTINUOUS
 10
68.8220376548
 20
116.8514558041
 40
0.3000135222
100
AcDbArc
 50
0.0034043602
 51
71.0973142707
  0
ARC
  5
659
100
AcDbEntity
  8
EDGEFEAT
100
AcDbCircle
 62
7
  6
CONTINUOUS
 10
68.8500137676
 20
116.8715118594
 40
0.2999862324
100
AcDbArc
 50
359.9996779564
 51
71.447460148
  0
ARC
  5
65A
100
AcDbEntity
  8
EDGEFEAT
100
AcDbCircle
 62
7
  6
CONTINUOUS
 10
70.9499862324
 20
116.8715118594
 40
0.2999862324
100
AcDbArc
 50
108.5525398518
 51
180.0003220439
  0
ARC
  5
65B
100
AcDbEntity
  8
EDGEFEAT
100
AcDbCircle
 62
7
  6
CONTINUOUS
 10
62.5112912551
 20
126.1022828498
 40
11.3701195228
100
AcDbArc
 50
305.5501394745
 51
305.723430766
  0
ARC
  5
65C
100
AcDbEntity
  8
EDGEFEAT
100
AcDbCircle
 62
7
  6
CONTINUOUS
 10
63.0645199706
 20
124.6105921351
 40
9.4951452286
100
AcDbArc
 50
308.0683021624
 51
308.2696324226
  0
ARC
  5
65D
100
AcDbEntity
  8
0
100
AcDbCircle
 62
7
  6
CONTINUOUS
 10
54.1
 20
133.0
 40
0.9869096983
100
AcDbArc
 50
90.0
 51
180.0
  0
ARC
  5
65E
100
AcDbEntity
  8
0
100
AcDbCircle
 62
7
  6
CONTINUOUS
 10
54.1
 20
133.0
 40
0.7861917391
100
AcDbArc
 50
90.0
 51
180.0
  0
ARC
  5
65F
100
AcDbEntity
  8
0
100
AcDbCircle
 62
7
  6
CONTINUOUS
 10
55.9105884982
 20
140.4637220522
 40
2.0905268715
100
AcDbArc
 50
1.277744731
 51
3.5098802831
  0
ARC
  5
660
100
AcDbEntity
  8
0
100
AcDbCircle
 62
7
  6
CONTINUOUS
 10
56.7410868148
 20
139.9615953401
 40
2.089925155
100
AcDbArc
 50
108.1968601823
 51
114.1289834573
  0
ARC
  5
661
100
AcDbEntity
  8
0
100
AcDbCircle
 62
7
  6
CONTINUOUS
 10
56.5
 20
140.5
 40
6.7138082609
100
AcDbArc
 50
270.0
 51
360.0
  0
ARC
  5
662
100
AcDbEntity
  8
0
100
AcDbCircle
 62
7
  6
CONTINUOUS
 10
56.5
 20
140.5
 40
6.5130903017
100
AcDbArc
 50
270.0
 51
360.0
  0
CIRCLE
  5
663
100
AcDbEntity
  8
0
100
AcDbCircle
 62
7
  6
CONTINUOUS
 10
56.5
 20
140.5
 40
4.0
  0
CIRCLE
  5
664
100
AcDbEntity
  8
0
100
AcDbCircle
 62
7
  6
CONTINUOUS
 10
56.5
 20
140.5
 40
3.9650925288
  0
CIRCLE
  5
665
100
AcDbEntity
  8
0
100
AcDbCircle
 62
7
  6
CONTINUOUS
 10
56.5
 20
140.5
 40
2.25
  0
ARC
  5
666
100
AcDbEntity
  8
0
100
AcDbCircle
 62
7
  6
CONTINUOUS
 10
56.4999999999
 20
140.5000000021
 40
1.9999999796
100
AcDbArc
 50
293.1282567058
 51
33.6869094392
  0
ARC
  5
667
100
AcDbEntity
  8
0
100
AcDbCircle
 62
7
  6
CONTINUOUS
 10
56.5000399618
 20
140.4998118757
 40
1.7998112564
100
AcDbArc
 50
252.921119232
 51
25.661430749
  0
ARC
  5
668
100
AcDbEntity
  8
0
100
AcDbCircle
 62
7
  6
CONTINUOUS
 10
56.5006926103
 20
140.5008358839
 40
1.7989246203
100
AcDbArc
 50
33.5598721376
 51
58.2114213264
  0
ARC
  5
669
100
AcDbEntity
  8
0
100
AcDbCircle
 62
7
  6
CONTINUOUS
 10
56.5043074572
 20
140.5021528364
 40
1.7951845414
100
AcDbArc
 50
25.6590037546
 51
33.5886252384
  0
ARC
  5
66A
100
AcDbEntity
  8
0
100
AcDbCircle
 62
7
  6
CONTINUOUS
 10
56.5000315338
 20
140.4998104977
 40
1.6998113202
100
AcDbArc
 50
252.9208125186
 51
73.910384596
  0
ARC
  5
66B
100
AcDbEntity
  8
0
100
AcDbCircle
 62
7
  6
CONTINUOUS
 10
56.5
 20
140.5
 40
1.5
100
AcDbArc
 50
114.1317776478
 51
103.4405499733
  0
ARC
  5
66C
100
AcDbEntity
  8
0
100
AcDbCircle
 62
7
  6
CONTINUOUS
 10
64.0
 20
142.9
 40
0.9869096983
100
AcDbArc
 50
90.0
 51
180.0
  0
ARC
  5
66D
100
AcDbEntity
  8
0
100
AcDbCircle
 62
7
  6
CONTINUOUS
 10
64.0
 20
142.9
 40
0.7861917391
100
AcDbArc
 50
90.0
 51
180.0
  0
ARC
  5
66E
100
AcDbEntity
  8
EDGEFEAT
100
AcDbCircle
 62
7
  6
CONTINUOUS
 10
77.2887087418
 20
126.1022828426
 40
11.3701195152
100
AcDbArc
 50
234.2765692255
 51
234.4498605171
  0
ARC
  5
66F
100
AcDbEntity
  8
EDGEFEAT
100
AcDbCircle
 62
7
  6
CONTINUOUS
 10
76.7354800305
 20
124.6105921342
 40
9.4951452286
100
AcDbArc
 50
231.7303675684
 51
231.9316978287
  0
ARC
  5
670
100
AcDbEntity
  8
EDGEFEAT
100
AcDbCircle
 62
7
  6
CONTINUOUS
 10
69.9
 20
120.0
 40
3.3279374004
100
AcDbArc
 50
288.8992813253
 51
71.1007186764
  0
ARC
  5
671
100
AcDbEntity
  8
EDGEFEAT
100
AcDbCircle
 62
7
  6
CONTINUOUS
 10
69.9
 20
120.0
 40
3.3279374004
100
AcDbArc
 50
108.8992813191
 51
251.10071867
  0
ARC
  5
672
100
AcDbEntity
  8
EDGEFEAT
100
AcDbCircle
 62
7
  6
CONTINUOUS
 10
69.9
 20
120.0
 40
3.0279488235
100
AcDbArc
 50
108.899281834
 51
251.100718166
  0
ARC
  5
673
100
AcDbEntity
  8
EDGEFEAT
100
AcDbCircle
 62
7
  6
CONTINUOUS
 10
69.9
 20
120.0
 40
3.0279488235
100
AcDbArc
 50
288.899281834
 51
71.100718166
  0
ARC
  5
674
100
AcDbEntity
  8
EDGEFEAT
100
AcDbCircle
 62
7
  6
CONTINUOUS
 10
69.9
 20
120.0
 40
3.0
100
AcDbArc
 50
108.5528618955
 51
251.4471381045
  0
ARC
  5
675
100
AcDbEntity
  8
EDGEFEAT
100
AcDbCircle
 62
7
  6
CONTINUOUS
 10
69.9
 20
120.0
 40
3.0
100
AcDbArc
 50
288.5528618955
 51
71.4471381045
  0
CIRCLE
  5
676
100
AcDbEntity
  8
0
100
AcDbCircle
 62
7
  6
CONTINUOUS
 10
69.9
 20
120.0
 40
1.5
  0
CIRCLE
  5
677
100
AcDbEntity
  8
0
100
AcDbCircle
 62
7
  6
CONTINUOUS
 10
69.9
 20
120.0
 40
1.275
  0
ARC
  5
678
100
AcDbEntity
  8
EDGEFEAT
100
AcDbCircle
 62
7
  6
CONTINUOUS
 10
69.9
 20
127.0
 40
1.0779212484
100
AcDbArc
 50
0.0
 51
180.0
  0
CIRCLE
  5
679
100
AcDbEntity
  8
EDGEFEAT
100
AcDbCircle
 62
7
  6
CONTINUOUS
 10
69.9
 20
120.0
 40
0.9749946338
  0
ARC
  5
67A
100
AcDbEntity
  8
EDGEFEAT
100
AcDbCircle
 62
7
  6
CONTINUOUS
 10
69.9
 20
127.0
 40
0.7779488223
100
AcDbArc
 50
0.0
 51
180.0
  0
ARC
  5
67B
100
AcDbEntity
  8
0
100
AcDbCircle
 62
7
  6
CONTINUOUS
 10
69.9
 20
127.0
 40
0.75
100
AcDbArc
 50
0.0
 51
180.0
  0
ARC
  5
67C
100
AcDbEntity
  8
EDGEFEAT
100
AcDbCircle
 62
7
  6
CONTINUOUS
 10
68.8220373073
 20
123.1485444443
 40
0.3000138697
100
AcDbArc
 50
288.9027331602
 51
359.9965482089
  0
ARC
  5
67D
100
AcDbEntity
  8
EDGEFEAT
100
AcDbCircle
 62
7
  6
CONTINUOUS
 10
70.9779623452
 20
123.1485441959
 40
0.3000135222
100
AcDbArc
 50
180.0034043602
 51
251.0973142707
  0
ARC
  5
67E
100
AcDbEntity
  8
EDGEFEAT
100
AcDbCircle
 62
7
  6
CONTINUOUS
 10
70.9499862324
 20
123.1284881406
 40
0.2999862324
100
AcDbArc
 50
179.9996779564
 51
251.447460148
  0
ARC
  5
67F
100
AcDbEntity
  8
EDGEFEAT
100
AcDbCircle
 62
7
  6
CONTINUOUS
 10
68.8500137676
 20
123.1284881406
 40
0.2999862324
100
AcDbArc
 50
288.5525398518
 51
0.0003220439
  0
ARC
  5
680
100
AcDbEntity
  8
EDGEFEAT
100
AcDbCircle
 62
7
  6
CONTINUOUS
 10
78.7112912595
 20
113.8977171564
 40
11.3701195152
100
AcDbArc
 50
54.2765692339
 51
54.4498605255
  0
ARC
  5
681
100
AcDbEntity
  8
EDGEFEAT
100
AcDbCircle
 62
7
  6
CONTINUOUS
 10
79.2645199706
 20
115.3894078649
 40
9.4951452286
100
AcDbArc
 50
51.7303675774
 51
51.9316978376
  0
ARC
  5
682
100
AcDbEntity
  8
EDGEFEAT
100
AcDbCircle
 62
7
  6
CONTINUOUS
 10
86.1
 20
113.0
 40
1.0779212484
100
AcDbArc
 50
180.0
 51
360.0
  0
ARC
  5
683
100
AcDbEntity
  8
EDGEFEAT
100
AcDbCircle
 62
7
  6
CONTINUOUS
 10
86.1
 20
113.0
 40
0.7779488223
100
AcDbArc
 50
180.0
 51
360.0
  0
ARC
  5
684
100
AcDbEntity
  8
0
100
AcDbCircle
 62
7
  6
CONTINUOUS
 10
86.1
 20
113.0
 40
0.75
100
AcDbArc
 50
180.0
 51
360.0
  0
ARC
  5
685
100
AcDbEntity
  8
EDGEFEAT
100
AcDbCircle
 62
7
  6
CONTINUOUS
 10
87.1779626927
 20
116.8514555557
 40
0.3000138697
100
AcDbArc
 50
108.9027331602
 51
179.9965482089
  0
ARC
  5
686
100
AcDbEntity
  8
EDGEFEAT
100
AcDbCircle
 62
7
  6
CONTINUOUS
 10
85.0220376548
 20
116.8514558041
 40
0.3000135222
100
AcDbArc
 50
0.0034043602
 51
71.0973142707
  0
ARC
  5
687
100
AcDbEntity
  8
EDGEFEAT
100
AcDbCircle
 62
7
  6
CONTINUOUS
 10
85.0500137676
 20
116.8715118594
 40
0.2999862324
100
AcDbArc
 50
359.9996779564
 51
71.447460148
  0
ARC
  5
688
100
AcDbEntity
  8
EDGEFEAT
100
AcDbCircle
 62
7
  6
CONTINUOUS
 10
87.1499862324
 20
116.8715118594
 40
0.2999862324
100
AcDbArc
 50
108.5525398518
 51
180.0003220439
  0
ARC
  5
689
100
AcDbEntity
  8
0
100
AcDbCircle
 62
7
  6
CONTINUOUS
 10
92.0
 20
97.1
 40
0.9869096983
100
AcDbArc
 50
270.0
 51
360.0
  0
ARC
  5
68A
100
AcDbEntity
  8
0
100
AcDbCircle
 62
7
  6
CONTINUOUS
 10
92.0
 20
97.1
 40
0.7861917391
100
AcDbArc
 50
270.0
 51
360.0
  0
ARC
  5
68B
100
AcDbEntity
  8
0
100
AcDbCircle
 62
7
  6
CONTINUOUS
 10
99.5
 20
99.5
 40
6.7138082609
100
AcDbArc
 50
90.0
 51
180.0
  0
ARC
  5
68C
100
AcDbEntity
  8
0
100
AcDbCircle
 62
7
  6
CONTINUOUS
 10
99.5
 20
99.5
 40
6.5130903017
100
AcDbArc
 50
90.0
 51
180.0
  0
CIRCLE
  5
68D
100
AcDbEntity
  8
0
100
AcDbCircle
 62
7
  6
CONTINUOUS
 10
99.5
 20
99.5
 40
4.0
  0
CIRCLE
  5
68E
100
AcDbEntity
  8
0
100
AcDbCircle
 62
7
  6
CONTINUOUS
 10
99.5
 20
99.5
 40
3.9650925288
  0
CIRCLE
  5
68F
100
AcDbEntity
  8
0
100
AcDbCircle
 62
7
  6
CONTINUOUS
 10
99.5
 20
99.5
 40
2.25
  0
ARC
  5
690
100
AcDbEntity
  8
0
100
AcDbCircle
 62
7
  6
CONTINUOUS
 10
99.5000000001
 20
99.4999999979
 40
1.9999999796
100
AcDbArc
 50
113.1282567058
 51
213.6869094392
  0
ARC
  5
691
100
AcDbEntity
  8
0
100
AcDbCircle
 62
7
  6
CONTINUOUS
 10
99.4999606387
 20
99.5001880761
 40
1.7998112564
100
AcDbArc
 50
72.9211379555
 51
205.661430749
  0
ARC
  5
692
100
AcDbEntity
  8
0
100
AcDbCircle
 62
7
  6
CONTINUOUS
 10
99.4993073897
 20
99.4991641161
 40
1.7989246203
100
AcDbArc
 50
213.5598721376
 51
238.2114213264
  0
ARC
  5
693
100
AcDbEntity
  8
0
100
AcDbCircle
 62
7
  6
CONTINUOUS
 10
99.4956925428
 20
99.4978471636
 40
1.7951845414
100
AcDbArc
 50
205.6590037546
 51
213.5886252383
  0
ARC
  5
694
100
AcDbEntity
  8
0
100
AcDbCircle
 62
7
  6
CONTINUOUS
 10
99.499968999
 20
99.5001894812
 40
1.6998113202
100
AcDbArc
 50
72.9208298929
 51
253.910384596
  0
ARC
  5
695
100
AcDbEntity
  8
0
100
AcDbCircle
 62
7
  6
CONTINUOUS
 10
99.5
 20
99.5
 40
1.5
100
AcDbArc
 50
294.1317776473
 51
283.4405499733
  0
ARC
  5
696
100
AcDbEntity
  8
0
100
AcDbCircle
 62
7
  6
CONTINUOUS
 10
99.2589131852
 20
100.0384046601
 40
2.0899251552
100
AcDbArc
 50
288.1968601821
 51
294.1289834566
  0
ARC
  5
697
100
AcDbEntity
  8
0
100
AcDbCircle
 62
7
  6
CONTINUOUS
 10
100.0894115022
 20
99.5362779478
 40
2.0905268719
100
AcDbArc
 50
181.2777447312
 51
183.5098802832
  0
ARC
  5
698
100
AcDbEntity
  8
EDGEFEAT
100
AcDbCircle
 62
7
  6
CONTINUOUS
 10
93.4887087463
 20
113.8977171512
 40
11.3701195228
100
AcDbArc
 50
125.5501394829
 51
125.7234307745
  0
ARC
  5
699
100
AcDbEntity
  8
EDGEFEAT
100
AcDbCircle
 62
7
  6
CONTINUOUS
 10
92.9354800305
 20
115.3894078658
 40
9.4951452286
100
AcDbArc
 50
128.0683021713
 51
128.2696324316
  0
ARC
  5
69A
100
AcDbEntity
  8
0
100
AcDbCircle
 62
7
  6
CONTINUOUS
 10
101.9
 20
107.0
 40
0.9869096983
100
AcDbArc
 50
270.0
 51
360.0
  0
ARC
  5
69B
100
AcDbEntity
  8
0
100
AcDbCircle
 62
7
  6
CONTINUOUS
 10
101.9
 20
107.0
 40
0.7861917391
100
AcDbArc
 50
270.0
 51
360.0
  0
ARC
  5
69C
100
AcDbEntity
  8
EDGEFEAT
100
AcDbCircle
 62
7
  6
CONTINUOUS
 10
93.4887087463
 20
126.1022828488
 40
11.3701195228
100
AcDbArc
 50
234.2765692255
 51
234.4498605171
  0
ARC
  5
69D
100
AcDbEntity
  8
EDGEFEAT
100
AcDbCircle
 62
7
  6
CONTINUOUS
 10
78.7112912595
 20
126.1022828436
 40
11.3701195152
100
AcDbArc
 50
305.5501394745
 51
305.7234307661
  0
ARC
  5
69E
100
AcDbEntity
  8
EDGEFEAT
100
AcDbCircle
 62
7
  6
CONTINUOUS
 10
92.9354800305
 20
124.6105921342
 40
9.4951452286
100
AcDbArc
 50
231.7303675684
 51
231.9316978287
  0
ARC
  5
69F
100
AcDbEntity
  8
EDGEFEAT
100
AcDbCircle
 62
7
  6
CONTINUOUS
 10
79.2645199706
 20
124.6105921351
 40
9.4951452286
100
AcDbArc
 50
308.0683021624
 51
308.2696324226
  0
ARC
  5
6A0
100
AcDbEntity
  8
0
100
AcDbCircle
 62
7
  6
CONTINUOUS
 10
99.5
 20
140.5
 40
6.7138082609
100
AcDbArc
 50
180.0
 51
270.0
  0
ARC
  5
6A1
100
AcDbEntity
  8
0
100
AcDbCircle
 62
7
  6
CONTINUOUS
 10
99.5
 20
140.5
 40
6.5130903017
100
AcDbArc
 50
180.0
 51
270.0
  0
CIRCLE
  5
6A2
100
AcDbEntity
  8
0
100
AcDbCircle
 62
7
  6
CONTINUOUS
 10
99.5
 20
140.5
 40
4.2007179592
  0
CIRCLE
  5
6A3
100
AcDbEntity
  8
0
100
AcDbCircle
 62
7
  6
CONTINUOUS
 10
99.5
 20
140.5
 40
4.0
  0
ARC
  5
6A4
100
AcDbEntity
  8
EDGEFEAT
100
AcDbCircle
 62
7
  6
CONTINUOUS
 10
86.1
 20
120.0
 40
3.3279374004
100
AcDbArc
 50
288.8992813191
 51
71.10071867
  0
ARC
  5
6A5
100
AcDbEntity
  8
EDGEFEAT
100
AcDbCircle
 62
7
  6
CONTINUOUS
 10
86.1
 20
120.0
 40
3.3279374004
100
AcDbArc
 50
108.8992813253
 51
251.1007186764
  0
ARC
  5
6A6
100
AcDbEntity
  8
EDGEFEAT
100
AcDbCircle
 62
7
  6
CONTINUOUS
 10
86.1
 20
120.0
 40
3.0279488235
100
AcDbArc
 50
288.899281834
 51
71.100718166
  0
ARC
  5
6A7
100
AcDbEntity
  8
EDGEFEAT
100
AcDbCircle
 62
7
  6
CONTINUOUS
 10
86.1
 20
120.0
 40
3.0279488235
100
AcDbArc
 50
108.899281834
 51
251.100718166
  0
ARC
  5
6A8
100
AcDbEntity
  8
EDGEFEAT
100
AcDbCircle
 62
7
  6
CONTINUOUS
 10
86.1
 20
120.0
 40
3.0
100
AcDbArc
 50
108.5528618955
 51
251.4471381045
  0
ARC
  5
6A9
100
AcDbEntity
  8
EDGEFEAT
100
AcDbCircle
 62
7
  6
CONTINUOUS
 10
86.1
 20
120.0
 40
3.0
100
AcDbArc
 50
288.5528618955
 51
71.4471381045
  0
CIRCLE
  5
6AA
100
AcDbEntity
  8
0
100
AcDbCircle
 62
7
  6
CONTINUOUS
 10
99.5
 20
140.5
 40
2.1
  0
CIRCLE
  5
6AB
100
AcDbEntity
  8
0
100
AcDbCircle
 62
7
  6
CONTINUOUS
 10
86.1
 20
120.0
 40
1.5
  0
CIRCLE
  5
6AC
100
AcDbEntity
  8
0
100
AcDbCircle
 62
7
  6
CONTINUOUS
 10
86.1
 20
120.0
 40
1.275
  0
ARC
  5
6AD
100
AcDbEntity
  8
EDGEFEAT
100
AcDbCircle
 62
7
  6
CONTINUOUS
 10
86.1
 20
127.0
 40
1.0779212484
100
AcDbArc
 50
0.0
 51
180.0
  0
ARC
  5
6AE
100
AcDbEntity
  8
0
100
AcDbCircle
 62
7
  6
CONTINUOUS
 10
92.0
 20
142.9
 40
0.9869096983
100
AcDbArc
 50
0.0
 51
90.0
  0
ARC
  5
6AF
100
AcDbEntity
  8
0
100
AcDbCircle
 62
7
  6
CONTINUOUS
 10
101.9
 20
133.0
 40
0.9869096983
100
AcDbArc
 50
0.0
 51
90.0
  0
CIRCLE
  5
6B0
100
AcDbEntity
  8
EDGEFEAT
100
AcDbCircle
 62
7
  6
CONTINUOUS
 10
86.1
 20
120.0
 40
0.9749946338
  0
ARC
  5
6B1
100
AcDbEntity
  8
0
100
AcDbCircle
 62
7
  6
CONTINUOUS
 10
92.0
 20
142.9
 40
0.7861917391
100
AcDbArc
 50
0.0
 51
90.0
  0
ARC
  5
6B2
100
AcDbEntity
  8
0
100
AcDbCircle
 62
7
  6
CONTINUOUS
 10
101.9
 20
133.0
 40
0.7861917391
100
AcDbArc
 50
0.0
 51
90.0
  0
ARC
  5
6B3
100
AcDbEntity
  8
EDGEFEAT
100
AcDbCircle
 62
7
  6
CONTINUOUS
 10
86.1
 20
127.0
 40
0.7779488223
100
AcDbArc
 50
0.0
 51
180.0
  0
ARC
  5
6B4
100
AcDbEntity
  8
0
100
AcDbCircle
 62
7
  6
CONTINUOUS
 10
86.1
 20
127.0
 40
0.75
100
AcDbArc
 50
0.0
 51
180.0
  0
ARC
  5
6B5
100
AcDbEntity
  8
EDGEFEAT
100
AcDbCircle
 62
7
  6
CONTINUOUS
 10
85.0220376548
 20
123.1485441959
 40
0.3000135222
100
AcDbArc
 50
288.9026857293
 51
359.9965956398
  0
ARC
  5
6B6
100
AcDbEntity
  8
EDGEFEAT
100
AcDbCircle
 62
7
  6
CONTINUOUS
 10
87.1779623452
 20
123.1485441959
 40
0.3000135222
100
AcDbArc
 50
180.0034043602
 51
251.0973142707
  0
ARC
  5
6B7
100
AcDbEntity
  8
EDGEFEAT
100
AcDbCircle
 62
7
  6
CONTINUOUS
 10
87.1499862324
 20
123.1284881406
 40
0.2999862324
100
AcDbArc
 50
179.9996779564
 51
251.447460148
  0
ARC
  5
6B8
100
AcDbEntity
  8
EDGEFEAT
100
AcDbCircle
 62
7
  6
CONTINUOUS
 10
85.0500137676
 20
123.1284881406
 40
0.2999862324
100
AcDbArc
 50
288.5525398518
 51
0.0003220439
  0
ARC
  5
6B9
100
AcDbEntity
  8
0
100
AcDbCircle
 62
7
  6
CONTINUOUS
 10
173.2
 20
95.5
 40
1.217669775
100
AcDbArc
 50
272.0
 51
88.0
  0
ARC
  5
6BA
100
AcDbEntity
  8
DEFAULT_2
100
AcDbCircle
 62
8
  6
HIDDEN
 10
143.8
 20
119.025
 40
0.3
100
AcDbArc
 50
179.9997627619
 51
270.0
  0
ARC
  5
6BB
100
AcDbEntity
  8
0
100
AcDbCircle
 62
7
  6
CONTINUOUS
 10
145.3
 20
111.9220625996
 40
0.3
100
AcDbArc
 50
90.4999682327
 51
179.9963536936
  0
ARC
  5
6BC
100
AcDbEntity
  8
EDGEFEAT
100
AcDbCircle
 62
8
  6
HIDDEN
 10
143.8
 20
120.975
 40
0.3
100
AcDbArc
 50
90.0
 51
180.0002372381
  0
ARC
  5
6BD
100
AcDbEntity
  8
0
100
AcDbCircle
 62
7
  6
CONTINUOUS
 10
103.5
 20
233.2
 40
1.217669775
100
AcDbArc
 50
2.0
 51
178.0
  0
ARC
  5
6BE
100
AcDbEntity
  8
0
100
AcDbCircle
 62
7
  6
CONTINUOUS
 10
85.125
 20
203.8
 40
0.3
100
AcDbArc
 50
180.0
 51
269.9999999636
  0
ARC
  5
6BF
100
AcDbEntity
  8
0
100
AcDbCircle
 62
7
  6
CONTINUOUS
 10
87.075
 20
203.8
 40
0.3
100
AcDbArc
 50
270.0000000364
 51
360.0
  0
ARC
  5
6C0
100
AcDbEntity
  8
0
100
AcDbCircle
 62
7
  6
CONTINUOUS
 10
89.4279374004
 20
205.3
 40
0.3
100
AcDbArc
 50
180.5
 51
270.0
  0
ARC
  5
6C1
100
AcDbEntity
  8
0
100
AcDbCircle
 62
7
  6
CONTINUOUS
 10
82.7720625996
 20
205.3
 40
0.3
100
AcDbArc
 50
270.0
 51
359.5
  0
SPLINE
  5
6C2
100
AcDbEntity
  8
0
100
AcDbSpline
 62
7
  6
CONTINUOUS
 70
0
 71
3
 72
13
 73
9
 74
7
 42
0.0000001
 43
0.0000001
 44
0.0000000001
 12
-0.0513500715
 22
-0.1669658645
 32
0.0
 13
0.1332447703
 23
-0.112968216
 33
0.0
 40
0.0
 40
0.0
 40
0.0
 40
0.0
 40
0.1402021551
 40
0.2875450987
 40
0.4431780571
 40
0.6113272311
 40
0.7960751027
 40
1.0
 40
1.0
 40
1.0
 40
1.0
 10
99.9997322072
 20
101.1248900438
 30
0.0
 10
99.9973324103
 20
101.1170870525
 30
0.0
 10
99.9993067172
 20
101.0991985196
 30
0.0
 10
100.0120832843
 20
101.0766702046
 30
0.0
 10
100.0291538068
 20
101.0550924728
 30
0.0
 10
100.0496915583
 20
101.0337340319
 30
0.0
 10
100.0734274862
 20
101.0116312239
 30
0.0
 10
100.0905381235
 20
100.9968142287
 30
0.0
 10
100.0995954322
 20
100.9891352181
 30
0.0
 11
99.9997322072
 21
101.1248900438
 31
0.0
 11
100.0007591069
 21
101.1004205369
 31
0.0
 11
100.012374834
 21
101.0774522672
 31
0.0
 11
100.0290109782
 21
101.0559499984
 31
0.0
 11
100.0492007434
 21
101.0346159228
 31
0.0
 11
100.0727325867
 21
101.0125305423
 31
0.0
 11
100.0995954322
 21
100.9891352181
 31
0.0
  0
SPLINE
  5
6C3
100
AcDbEntity
  8
0
100
AcDbSpline
 62
7
  6
CONTINUOUS
 70
0
 71
3
 72
12
 73
8
 74
6
 42
0.0000001
 43
0.0000001
 44
0.0000000001
 12
0.1699749736
 22
-0.144108992
 32
0.0
 13
0.1718724437
 23
-0.1418338026
 33
0.0
 40
0.0
 40
0.0
 40
0.0
 40
0.0
 40
0.1744582034
 40
0.3602901856
 40
0.5572373486
 40
0.7694614893
 40
1.0
 40
1.0
 40
1.0
 40
1.0
 10
100.0995954322
 20
100.9891352181
 30
0.0
 10
100.1094799417
 20
100.9807548861
 30
0.0
 10
100.1300898384
 20
100.9636815848
 30
0.0
 10
100.1622750121
 20
100.9376554237
 30
0.0
 10
100.1967579011
 20
100.9100105847
 30
0.0
 10
100.2337805273
 20
100.8802246375
 30
0.0
 10
100.259266401
 20
100.859437176
 30
0.0
 10
100.27247414
 20
100.8485377915
 30
0.0
 11
100.0995954322
 21
100.9891352181
 31
0.0
 11
100.1294860895
 21
100.9642781683
 31
0.0
 11
100.1616506675
 21
100.9381965831
 31
0.0
 11
100.1958649516
 21
100.910710899
 31
0.0
 11
100.2326887538
 21
100.8810379375
 31
0.0
 11
100.27247414
 21
100.8485377915
 31
0.0
  0
SPLINE
  5
6C4
100
AcDbEntity
  8
0
100
AcDbSpline
 62
7
  6
CONTINUOUS
 70
0
 71
3
 72
16
 73
12
 74
10
 42
0.0000001
 43
0.0000001
 44
0.0000000001
 12
0.5639574098
 22
-0.4653929519
 32
0.0
 13
0.394690285
 23
-0.6155092425
 33
0.0
 40
0.0
 40
0.0
 40
0.0
 40
0.0
 40
0.0764768569
 40
0.1598260693
 40
0.2506912007
 40
0.3497763074
 40
0.4579501603
 40
0.5760005346
 40
0.7046844498
 40
0.8451895902
 40
1.0
 40
1.0
 40
1.0
 40
1.0
 10
100.27247414
 20
100.8485377915
 30
0.0
 10
100.2868507034
 20
100.8366738614
 30
0.0
 10
100.3167414865
 20
100.8116923722
 30
0.0
 10
100.3629383758
 20
100.7716971438
 30
0.0
 10
100.4123135027
 20
100.7269756502
 30
0.0
 10
100.4648226015
 20
100.6767361045
 30
0.0
 10
100.5203277926
 20
100.6200956468
 30
0.0
 10
100.5785517003
 20
100.5560933694
 30
0.0
 10
100.6390988902
 20
100.4836511954
 30
0.0
 10
100.701598504
 20
100.4013040053
 30
0.0
 10
100.7421337733
 20
100.3417748099
 30
0.0
 10
100.7625011615
 20
100.3100123972
 30
0.0
 11
100.27247414
 21
100.8485377915
 31
0.0
 11
100.3153558492
 21
100.8126481463
 31
0.0
 11
100.3614092041
 21
100.7727329097
 31
0.0
 11
100.4106314916
 21
100.7281084656
 31
0.0
 11
100.4629608296
 21
100.6780027562
 31
0.0
 11
100.5183028294
 21
100.621493429
 31
0.0
 11
100.5763724656
 21
100.5576303626
 31
0.0
 11
100.6366999366
 21
100.4854232827
 31
0.0
 11
100.6988117111
 21
100.4035900985
 31
0.0
 11
100.7625011615
 21
100.3100123972
 31
0.0
  0
SPLINE
  5
6C5
100
AcDbEntity
  8
0
100
AcDbSpline
 62
7
  6
CONTINUOUS
 70
0
 71
3
 72
30
 73
26
 74
24
 42
0.0000001
 43
0.0000001
 44
0.0000000001
 12
1.301410641
 22
0.555857427
 32
0.0
 13
-0.4159974234
 23
-1.3526245892
 33
0.0
 40
0.0
 40
0.0
 40
0.0
 40
0.0
 40
0.0920149596
 40
0.1763992088
 40
0.2538680783
 40
0.3247769977
 40
0.3895776955
 40
0.4488006363
 40
0.5030245644
 40
0.5528471163
 40
0.5989760441
 40
0.6421247046
 40
0.6825831531
 40
0.7203510436
 40
0.7555267238
 40
0.7882592406
 40
0.8187294918
 40
0.8471353053
 40
0.8736784544
 40
0.8986272355
 40
0.9223516837
 40
0.9444252827
 40
0.9646880142
 40
0.9834056427
 40
1.0
 40
1.0
 40
1.0
 40
1.0
 10
98.714418609
 20
101.3392557703
 30
0.0
 10
98.7543350248
 20
101.3563048365
 30
0.0
 10
98.8321854457
 20
101.3859789725
 30
0.0
 10
98.947080503
 20
101.4200900931
 30
0.0
 10
99.0543364572
 20
101.4439646896
 30
0.0
 10
99.1537591834
 20
101.4594645107
 30
0.0
 10
99.2453482206
 20
101.468188829
 30
0.0
 10
99.3294055114
 20
101.471503147
 30
0.0
 10
99.4064488613
 20
101.4705318564
 30
0.0
 10
99.4771811964
 20
101.4661627177
 30
0.0
 10
99.5424337795
 20
101.4590517259
 30
0.0
 10
99.6029283713
 20
101.4496600687
 30
0.0
 10
99.6590737368
 20
101.4383474744
 30
0.0
 10
99.7110055452
 20
101.4254416176
 30
0.0
 10
99.7588134781
 20
101.4112644146
 30
0.0
 10
99.8026835512
 20
101.3960832603
 30
0.0
 10
99.8428451247
 20
101.3800900398
 30
0.0
 10
99.8795396639
 20
101.3634045184
 30
0.0
 10
99.913017888
 20
101.3460545
 30
0.0
 10
99.9435522302
 20
101.3279387408
 30
0.0
 10
99.9710437116
 20
101.308966763
 30
0.0
 10
99.9951244466
 20
101.2891006162
 30
0.0
 10
100.0149131674
 20
101.268033665
 30
0.0
 10
100.0292384939
 20
101.2458251144
 30
0.0
 10
100.0314292893
 20
101.2279537897
 30
0.0
 10
100.0291282194
 20
101.2204718111
 30
0.0
 11
98.714418609
 21
101.3392557703
 31
0.0
 11
98.8360929394
 21
101.3856376151
 31
0.0
 11
98.9505718347
 21
101.4196204791
 31
0.0
 11
99.0575851947
 21
101.4434296968
 31
0.0
 11
99.1567364164
 21
101.4588729772
 31
0.0
 11
99.2480273744
 21
101.467552696
 31
0.0
 11
99.3317722795
 21
101.4708373224
 31
0.0
 11
99.4085008946
 21
101.4698516337
 31
0.0
 11
99.478871913
 21
101.4654853924
 31
0.0
 11
99.5437647377
 21
101.4583924337
 31
0.0
 11
99.6041001261
 21
101.4490018447
 31
0.0
 11
99.6602213755
 21
101.4376655957
 31
0.0
 11
99.7120842272
 21
101.4247486451
 31
0.0
 11
99.7598008992
 21
101.41056938
 31
0.0
 11
99.8035647573
 21
101.3953905718
 31
0.0
 11
99.8436110614
 21
101.3794023374
 31
0.0
 11
99.8801846403
 21
101.3627203184
 31
0.0
 11
99.9135072557
 21
101.3453840605
 31
0.0
 11
99.9438272013
 21
101.3272945071
 31
0.0
 11
99.9713894519
 21
101.3081239264
 31
0.0
 11
99.9953195304
 21
101.2880458615
 31
0.0
 11
100.0147150858
 21
101.2669258269
 31
0.0
 11
100.0278438994
 21
101.2439201556
 31
0.0
 11
100.0291282194
 21
101.2204718111
 31
0.0
  0
SPLINE
  5
6C6
100
AcDbEntity
  8
0
100
AcDbSpline
 62
7
  6
CONTINUOUS
 70
0
 71
3
 72
13
 73
9
 74
7
 42
0.0000001
 43
0.0000001
 44
0.0000000001
 12
0.0513500715
 22
0.1669658645
 32
0.0
 13
-0.1332447703
 23
0.112968216
 33
0.0
 40
0.0
 40
0.0
 40
0.0
 40
0.0
 40
0.1402021551
 40
0.2875450987
 40
0.4431780571
 40
0.6113272311
 40
0.7960751027
 40
1.0
 40
1.0
 40
1.0
 40
1.0
 10
56.0002677928
 20
138.8751099562
 30
0.0
 10
56.0026675897
 20
138.8829129475
 30
0.0
 10
56.0006932828
 20
138.9008014804
 30
0.0
 10
55.9879167157
 20
138.9233297954
 30
0.0
 10
55.9708461932
 20
138.9449075272
 30
0.0
 10
55.9503084417
 20
138.9662659681
 30
0.0
 10
55.9265725138
 20
138.9883687761
 30
0.0
 10
55.9094618765
 20
139.0031857713
 30
0.0
 10
55.9004045678
 20
139.0108647819
 30
0.0
 11
56.0002677928
 21
138.8751099562
 31
0.0
 11
55.9992408931
 21
138.8995794631
 31
0.0
 11
55.987625166
 21
138.9225477328
 31
0.0
 11
55.9709890218
 21
138.9440500016
 31
0.0
 11
55.9507992566
 21
138.9653840772
 31
0.0
 11
55.9272674133
 21
138.9874694577
 31
0.0
 11
55.9004045678
 21
139.0108647819
 31
0.0
  0
SPLINE
  5
6C7
100
AcDbEntity
  8
0
100
AcDbSpline
 62
7
  6
CONTINUOUS
 70
0
 71
3
 72
12
 73
8
 74
6
 42
0.0000001
 43
0.0000001
 44
0.0000000001
 12
-0.1699749736
 22
0.144108992
 32
0.0
 13
-0.1718724437
 23
0.1418338026
 33
0.0
 40
0.0
 40
0.0
 40
0.0
 40
0.0
 40
0.1744582034
 40
0.3602901856
 40
0.5572373486
 40
0.7694614893
 40
1.0
 40
1.0
 40
1.0
 40
1.0
 10
55.9004045678
 20
139.0108647819
 30
0.0
 10
55.8905200583
 20
139.0192451139
 30
0.0
 10
55.8699101616
 20
139.0363184152
 30
0.0
 10
55.8377249879
 20
139.0623445763
 30
0.0
 10
55.8032420989
 20
139.0899894153
 30
0.0
 10
55.7662194727
 20
139.1197753625
 30
0.0
 10
55.740733599
 20
139.140562824
 30
0.0
 10
55.72752586
 20
139.1514622085
 30
0.0
 11
55.9004045678
 21
139.0108647819
 31
0.0
 11
55.8705139105
 21
139.0357218317
 31
0.0
 11
55.8383493325
 21
139.0618034169
 31
0.0
 11
55.8041350484
 21
139.089289101
 31
0.0
 11
55.7673112462
 21
139.1189620625
 31
0.0
 11
55.72752586
 21
139.1514622085
 31
0.0
  0
SPLINE
  5
6C8
100
AcDbEntity
  8
0
100
AcDbSpline
 62
7
  6
CONTINUOUS
 70
0
 71
3
 72
16
 73
12
 74
10
 42
0.0000001
 43
0.0000001
 44
0.0000000001
 12
-0.5639574098
 22
0.4653929519
 32
0.0
 13
-0.394690285
 23
0.6155092425
 33
0.0
 40
0.0
 40
0.0
 40
0.0
 40
0.0
 40
0.0764768569
 40
0.1598260693
 40
0.2506912007
 40
0.3497763074
 40
0.4579501603
 40
0.5760005346
 40
0.7046844498
 40
0.8451895902
 40
1.0
 40
1.0
 40
1.0
 40
1.0
 10
55.72752586
 20
139.1514622085
 30
0.0
 10
55.7131492966
 20
139.1633261386
 30
0.0
 10
55.6832585135
 20
139.1883076278
 30
0.0
 10
55.6370616242
 20
139.2283028562
 30
0.0
 10
55.5876864973
 20
139.2730243498
 30
0.0
 10
55.5351773985
 20
139.3232638955
 30
0.0
 10
55.4796722074
 20
139.3799043532
 30
0.0
 10
55.4214482997
 20
139.4439066306
 30
0.0
 10
55.3609011098
 20
139.5163488046
 30
0.0
 10
55.298401496
 20
139.5986959947
 30
0.0
 10
55.2578662267
 20
139.6582251901
 30
0.0
 10
55.2374988385
 20
139.6899876028
 30
0.0
 11
55.72752586
 21
139.1514622085
 31
0.0
 11
55.6846441508
 21
139.1873518537
 31
0.0
 11
55.6385907959
 21
139.2272670903
 31
0.0
 11
55.5893685084
 21
139.2718915344
 31
0.0
 11
55.5370391704
 21
139.3219972438
 31
0.0
 11
55.4816971706
 21
139.378506571
 31
0.0
 11
55.4236275344
 21
139.4423696374
 31
0.0
 11
55.3633000634
 21
139.5145767173
 31
0.0
 11
55.3011882889
 21
139.5964099015
 31
0.0
 11
55.2374988385
 21
139.6899876028
 31
0.0
  0
SPLINE
  5
6C9
100
AcDbEntity
  8
0
100
AcDbSpline
 62
7
  6
CONTINUOUS
 70
0
 71
3
 72
30
 73
26
 74
24
 42
0.0000001
 43
0.0000001
 44
0.0000000001
 12
-1.301410641
 22
-0.555857427
 32
0.0
 13
0.4159974234
 23
1.3526245892
 33
0.0
 40
0.0
 40
0.0
 40
0.0
 40
0.0
 40
0.0920149596
 40
0.1763992088
 40
0.2538680783
 40
0.3247769977
 40
0.3895776955
 40
0.4488006363
 40
0.5030245644
 40
0.5528471163
 40
0.5989760441
 40
0.6421247046
 40
0.6825831531
 40
0.7203510436
 40
0.7555267238
 40
0.7882592406
 40
0.8187294918
 40
0.8471353053
 40
0.8736784544
 40
0.8986272355
 40
0.9223516837
 40
0.9444252827
 40
0.9646880142
 40
0.9834056427
 40
1.0
 40
1.0
 40
1.0
 40
1.0
 10
57.285581391
 20
138.6607442297
 30
0.0
 10
57.2456649752
 20
138.6436951635
 30
0.0
 10
57.1678145543
 20
138.6140210275
 30
0.0
 10
57.052919497
 20
138.5799099069
 30
0.0
 10
56.9456635428
 20
138.5560353104
 30
0.0
 10
56.8462408166
 20
138.5405354893
 30
0.0
 10
56.7546517794
 20
138.531811171
 30
0.0
 10
56.6705944886
 20
138.528496853
 30
0.0
 10
56.5935511387
 20
138.5294681436
 30
0.0
 10
56.5228188036
 20
138.5338372823
 30
0.0
 10
56.4575662205
 20
138.5409482741
 30
0.0
 10
56.3970716287
 20
138.5503399313
 30
0.0
 10
56.3409262632
 20
138.5616525256
 30
0.0
 10
56.2889944548
 20
138.5745583824
 30
0.0
 10
56.2411865219
 20
138.5887355854
 30
0.0
 10
56.1973164488
 20
138.6039167397
 30
0.0
 10
56.1571548753
 20
138.6199099602
 30
0.0
 10
56.1204603361
 20
138.6365954816
 30
0.0
 10
56.086982112
 20
138.6539455
 30
0.0
 10
56.0564477698
 20
138.6720612592
 30
0.0
 10
56.0289562884
 20
138.691033237
 30
0.0
 10
56.0048755534
 20
138.7108993838
 30
0.0
 10
55.9850868326
 20
138.731966335
 30
0.0
 10
55.9707615061
 20
138.7541748856
 30
0.0
 10
55.9685707107
 20
138.7720462103
 30
0.0
 10
55.9708717806
 20
138.7795281889
 30
0.0
 11
57.285581391
 21
138.6607442297
 31
0.0
 11
57.1639070606
 21
138.6143623849
 31
0.0
 11
57.0494281653
 21
138.5803795209
 31
0.0
 11
56.9424148053
 21
138.5565703032
 31
0.0
 11
56.8432635836
 21
138.5411270228
 31
0.0
 11
56.7519726256
 21
138.532447304
 31
0.0
 11
56.6682277205
 21
138.5291626776
 31
0.0
 11
56.5914991054
 21
138.5301483663
 31
0.0
 11
56.521128087
 21
138.5345146076
 31
0.0
 11
56.4562352623
 21
138.5416075663
 31
0.0
 11
56.3958998739
 21
138.5509981553
 31
0.0
 11
56.3397786245
 21
138.5623344043
 31
0.0
 11
56.2879157728
 21
138.5752513549
 31
0.0
 11
56.2401991008
 21
138.58943062
 31
0.0
 11
56.1964352427
 21
138.6046094282
 31
0.0
 11
56.1563889386
 21
138.6205976626
 31
0.0
 11
56.1198153597
 21
138.6372796816
 31
0.0
 11
56.0864927443
 21
138.6546159395
 31
0.0
 11
56.0561727987
 21
138.6727054929
 31
0.0
 11
56.0286105481
 21
138.6918760736
 31
0.0
 11
56.0046804696
 21
138.7119541385
 31
0.0
 11
55.9852849142
 21
138.7330741731
 31
0.0
 11
55.9721561006
 21
138.7560798444
 31
0.0
 11
55.9708717806
 21
138.7795281889
 31
0.0
  0
SPLINE
  5
6CA
100
AcDbEntity
  8
0
100
AcDbSpline
 62
7
  6
CONTINUOUS
 70
0
 71
3
 72
24
 73
20
 74
18
 42
0.0000001
 43
0.0000001
 44
0.0000000001
 12
0.8666519478
 22
0.2849621914
 32
0.0
 13
0.2528145624
 23
0.8764928067
 33
0.0
 40
0.0
 40
0.0
 40
0.0
 40
0.0
 40
0.1037634686
 40
0.1986338058
 40
0.2853982881
 40
0.364878594
 40
0.4379248431
 40
0.5054440218
 40
0.5681200012
 40
0.6262685887
 40
0.6802099201
 40
0.7303261022
 40
0.7770396126
 40
0.8207958543
 40
0.8620707116
 40
0.900771293
 40
0.9366270086
 40
0.9696110521
 40
1.0
 40
1.0
 40
1.0
 40
1.0
 10
56.0884390114
 20
141.9470015953
 30
0.0
 10
56.1184146154
 20
141.9568578171
 30
0.0
 10
56.1762230638
 20
141.9744298748
 30
0.0
 10
56.2602656733
 20
141.9961540993
 30
0.0
 10
56.3378381952
 20
142.0131588992
 30
0.0
 10
56.4093881652
 20
142.0264452178
 30
0.0
 10
56.4754900549
 20
142.03685978
 30
0.0
 10
56.5367425721
 20
142.045103372
 30
0.0
 10
56.5936288838
 20
142.0517448262
 30
0.0
 10
56.6464830721
 20
142.0572744141
 30
0.0
 10
56.6955705893
 20
142.062087551
 30
0.0
 10
56.7412016814
 20
142.0665177334
 30
0.0
 10
56.7837258881
 20
142.0709002256
 30
0.0
 10
56.8235129177
 20
142.075587433
 30
0.0
 10
56.8607515864
 20
142.0810257445
 30
0.0
 10
56.8953439999
 20
142.0877100286
 30
0.0
 10
56.926877679
 20
142.0967669109
 30
0.0
 10
56.9544350719
 20
142.1090681973
 30
0.0
 10
56.9685779419
 20
142.1245314021
 30
0.0
 10
56.9711388647
 20
142.1334099668
 30
0.0
 11
56.0884390114
 21
141.9470015953
 31
0.0
 11
56.1789979449
 21
141.9745474134
 31
0.0
 11
56.2627818191
 21
141.9962262733
 31
0.0
 11
56.3400894267
 21
142.0131985507
 31
0.0
 11
56.4113696748
 21
142.0264630686
 31
0.0
 11
56.477187494
 21
142.0368644447
 31
0.0
 11
56.5382251897
 21
142.0451142969
 31
0.0
 11
56.5950091217
 21
142.0517866993
 31
0.0
 11
56.6477613745
 21
142.0573481958
 31
0.0
 11
56.6967289345
 21
142.0621929607
 31
0.0
 11
56.7422270125
 21
142.066664134
 31
0.0
 11
56.784608888
 21
142.0710986607
 31
0.0
 11
56.8242389241
 21
142.0758642801
 31
0.0
 11
56.8614769725
 21
142.0814318884
 31
0.0
 11
56.896084752
 21
142.0884067743
 31
0.0
 11
56.9274300581
 21
142.0977511293
 31
0.0
 11
56.9542193397
 21
142.1114505768
 31
0.0
 11
56.9711388647
 21
142.1334099668
 31
0.0
  0
SPLINE
  5
6CB
100
AcDbEntity
  8
0
100
AcDbSpline
 62
7
  6
CONTINUOUS
 70
0
 71
3
 72
30
 73
26
 74
24
 42
0.0000001
 43
0.0000001
 44
0.0000000001
 12
-0.3921802211
 22
-1.3596651218
 32
0.0
 13
-0.784888713
 23
1.1774736844
 33
0.0
 40
0.0
 40
0.0
 40
0.0
 40
0.0
 40
0.0173453699
 40
0.0372881675
 40
0.0588366383
 40
0.0820857088
 40
0.1071304244
 40
0.1339503584
 40
0.1623062037
 40
0.1916855399
 40
0.2216020325
 40
0.2524498787
 40
0.2849944841
 40
0.3197671974
 40
0.357320999
 40
0.3982119509
 40
0.4429947062
 40
0.4922148376
 40
0.5463964576
 40
0.6060234496
 40
0.67151256
 40
0.7431710718
 40
0.8211710445
 40
0.9061424797
 40
1.0
 40
1.0
 40
1.0
 40
1.0
 10
99.0011470844
 20
97.770507094
 30
0.0
 10
98.9988795807
 20
97.7626457958
 30
0.0
 10
98.9862882649
 20
97.748290885
 30
0.0
 10
98.9604834483
 20
97.7375389623
 30
0.0
 10
98.9305628396
 20
97.7309062885
 30
0.0
 10
98.8977048721
 20
97.7278413232
 30
0.0
 10
98.8622439844
 20
97.727531934
 30
0.0
 10
98.8244469755
 20
97.7298048751
 30
0.0
 10
98.7848207963
 20
97.7345040454
 30
0.0
 10
98.7440505848
 20
97.7414726905
 30
0.0
 10
98.7024994093
 20
97.7505649303
 30
0.0
 10
98.6599320986
 20
97.76180508
 30
0.0
 10
98.6156735277
 20
97.7754601022
 30
0.0
 10
98.5690267267
 20
97.7919670096
 30
0.0
 10
98.519443913
 20
97.8118471688
 30
0.0
 10
98.4664343491
 20
97.8357365427
 30
0.0
 10
98.4096041846
 20
97.8644021122
 30
0.0
 10
98.3486883316
 20
97.8987342875
 30
0.0
 10
98.2835942089
 20
97.9397398326
 30
0.0
 10
98.214454973
 20
97.9885208199
 30
0.0
 10
98.1416937033
 20
98.0462336189
 30
0.0
 10
98.0660841423
 20
98.114025531
 30
0.0
 10
97.988591083
 20
98.1931618836
 30
0.0
 10
97.9100344383
 20
98.2855168193
 30
0.0
 10
97.8603941847
 20
98.3538530886
 30
0.0
 10
97.8358382819
 20
98.3906913421
 30
0.0
 11
99.0011470844
 21
97.770507094
 31
0.0
 11
98.9863511694
 21
97.7509225303
 31
0.0
 11
98.9609616527
 21
97.7386020221
 31
0.0
 11
98.9312628003
 21
97.7316875684
 31
0.0
 11
98.8985313367
 21
97.7283651878
 31
0.0
 11
98.8630933294
 21
97.7279317197
 31
0.0
 11
98.8252035045
 21
97.7301164966
 31
0.0
 11
98.7853492498
 21
97.7347804085
 31
0.0
 11
98.7443615037
 21
97.7417409138
 31
0.0
 11
98.7029986198
 21
97.7507596457
 31
0.0
 11
98.6607863051
 21
97.7618805053
 31
0.0
 11
98.6167733876
 21
97.775438083
 31
0.0
 11
98.5703784099
 21
97.7918333724
 31
0.0
 11
98.5210450269
 21
97.8115896726
 31
0.0
 11
98.4682818371
 21
97.8353458675
 31
0.0
 11
98.4116915484
 21
97.863868357
 31
0.0
 11
98.3510043959
 21
97.8980495741
 31
0.0
 11
98.2861210157
 21
97.938900107
 31
0.0
 11
98.2171656415
 21
97.9875291298
 31
0.0
 11
98.1445484335
 21
98.0451059223
 31
0.0
 11
98.0690385213
 21
98.1127886176
 31
0.0
 11
97.9918047322
 21
98.1916436127
 31
0.0
 11
97.9138944892
 21
98.2832312472
 31
0.0
 11
97.8358382819
 21
98.3906913421
 31
0.0
  0
SPLINE
  5
6CC
100
AcDbEntity
  8
0
100
AcDbSpline
 62
7
  6
CONTINUOUS
 70
0
 71
3
 72
24
 73
20
 74
18
 42
0.0000001
 43
0.0000001
 44
0.0000000001
 12
-0.8666519478
 22
-0.2849621914
 32
0.0
 13
-0.2528145624
 23
-0.8764928067
 33
0.0
 40
0.0
 40
0.0
 40
0.0
 40
0.0
 40
0.1037634686
 40
0.1986338058
 40
0.2853982881
 40
0.364878594
 40
0.4379248431
 40
0.5054440217
 40
0.5681200012
 40
0.6262685887
 40
0.6802099201
 40
0.7303261022
 40
0.7770396126
 40
0.8207958543
 40
0.8620707116
 40
0.900771293
 40
0.9366270086
 40
0.9696110521
 40
1.0
 40
1.0
 40
1.0
 40
1.0
 10
99.9115609886
 20
98.0529984047
 30
0.0
 10
99.8815853846
 20
98.0431421829
 30
0.0
 10
99.8237769362
 20
98.0255701252
 30
0.0
 10
99.7397343267
 20
98.0038459007
 30
0.0
 10
99.6621618048
 20
97.9868411008
 30
0.0
 10
99.5906118348
 20
97.9735547822
 30
0.0
 10
99.524509945
 20
97.96314022
 30
0.0
 10
99.4632574279
 20
97.954896628
 30
0.0
 10
99.4063711162
 20
97.9482551738
 30
0.0
 10
99.3535169279
 20
97.9427255859
 30
0.0
 10
99.3044294107
 20
97.937912449
 30
0.0
 10
99.2587983186
 20
97.9334822666
 30
0.0
 10
99.2162741119
 20
97.9290997744
 30
0.0
 10
99.1764870823
 20
97.924412567
 30
0.0
 10
99.1392484136
 20
97.9189742555
 30
0.0
 10
99.1046560001
 20
97.9122899714
 30
0.0
 10
99.073122321
 20
97.9032330891
 30
0.0
 10
99.0455649281
 20
97.8909318027
 30
0.0
 10
99.0314220581
 20
97.8754685979
 30
0.0
 10
99.0288611353
 20
97.8665900332
 30
0.0
 11
99.9115609886
 21
98.0529984047
 31
0.0
 11
99.8210020551
 21
98.0254525866
 31
0.0
 11
99.7372181808
 21
98.0037737267
 31
0.0
 11
99.6599105733
 21
97.9868014493
 31
0.0
 11
99.5886303252
 21
97.9735369314
 31
0.0
 11
99.522812506
 21
97.9631355553
 31
0.0
 11
99.4617748103
 21
97.9548857031
 31
0.0
 11
99.4049908783
 21
97.9482133007
 31
0.0
 11
99.3522386255
 21
97.9426518042
 31
0.0
 11
99.3032710655
 21
97.9378070393
 31
0.0
 11
99.2577729875
 21
97.933335866
 31
0.0
 11
99.215391112
 21
97.9289013393
 31
0.0
 11
99.1757610759
 21
97.9241357199
 31
0.0
 11
99.1385230275
 21
97.9185681116
 31
0.0
 11
99.103915248
 21
97.9115932257
 31
0.0
 11
99.0725699419
 21
97.9022488707
 31
0.0
 11
99.0457806603
 21
97.8885494232
 31
0.0
 11
99.0288611353
 21
97.8665900332
 31
0.0
  0
SPLINE
  5
6CD
100
AcDbEntity
  8
0
100
AcDbSpline
 62
7
  6
CONTINUOUS
 70
0
 71
3
 72
30
 73
26
 74
24
 42
0.0000001
 43
0.0000001
 44
0.0000000001
 12
0.3921802211
 22
1.3596651218
 32
0.0
 13
0.784888713
 23
-1.1774736844
 33
0.0
 40
0.0
 40
0.0
 40
0.0
 40
0.0
 40
0.0173453699
 40
0.0372881675
 40
0.0588366383
 40
0.0820857088
 40
0.1071304244
 40
0.1339503584
 40
0.1623062037
 40
0.1916855399
 40
0.2216020325
 40
0.2524498787
 40
0.2849944841
 40
0.3197671974
 40
0.357320999
 40
0.3982119509
 40
0.4429947062
 40
0.4922148376
 40
0.5463964576
 40
0.6060234496
 40
0.67151256
 40
0.7431710718
 40
0.8211710445
 40
0.9061424797
 40
1.0
 40
1.0
 40
1.0
 40
1.0
 10
56.9988529156
 20
142.229492906
 30
0.0
 10
57.0011204193
 20
142.2373542042
 30
0.0
 10
57.0137117351
 20
142.251709115
 30
0.0
 10
57.0395165517
 20
142.2624610377
 30
0.0
 10
57.0694371604
 20
142.2690937115
 30
0.0
 10
57.1022951279
 20
142.2721586768
 30
0.0
 10
57.1377560156
 20
142.272468066
 30
0.0
 10
57.1755530245
 20
142.2701951249
 30
0.0
 10
57.2151792037
 20
142.2654959546
 30
0.0
 10
57.2559494152
 20
142.2585273095
 30
0.0
 10
57.2975005907
 20
142.2494350697
 30
0.0
 10
57.3400679014
 20
142.23819492
 30
0.0
 10
57.3843264723
 20
142.2245398978
 30
0.0
 10
57.4309732733
 20
142.2080329904
 30
0.0
 10
57.480556087
 20
142.1881528312
 30
0.0
 10
57.5335656509
 20
142.1642634573
 30
0.0
 10
57.5903958154
 20
142.1355978878
 30
0.0
 10
57.6513116684
 20
142.1012657125
 30
0.0
 10
57.7164057911
 20
142.0602601674
 30
0.0
 10
57.785545027
 20
142.0114791801
 30
0.0
 10
57.8583062967
 20
141.9537663811
 30
0.0
 10
57.9339158577
 20
141.885974469
 30
0.0
 10
58.011408917
 20
141.8068381164
 30
0.0
 10
58.0899655617
 20
141.7144831807
 30
0.0
 10
58.1396058153
 20
141.6461469114
 30
0.0
 10
58.1641617181
 20
141.6093086579
 30
0.0
 11
56.9988529156
 21
142.229492906
 31
0.0
 11
57.0136488306
 21
142.2490774697
 31
0.0
 11
57.0390383473
 21
142.2613979779
 31
0.0
 11
57.0687371997
 21
142.2683124316
 31
0.0
 11
57.1014686633
 21
142.2716348122
 31
0.0
 11
57.1369066706
 21
142.2720682803
 31
0.0
 11
57.1747964955
 21
142.2698835034
 31
0.0
 11
57.2146507502
 21
142.2652195915
 31
0.0
 11
57.2556384963
 21
142.2582590862
 31
0.0
 11
57.2970013802
 21
142.2492403543
 31
0.0
 11
57.3392136949
 21
142.2381194947
 31
0.0
 11
57.3832266124
 21
142.224561917
 31
0.0
 11
57.4296215901
 21
142.2081666276
 31
0.0
 11
57.4789549731
 21
142.1884103274
 31
0.0
 11
57.5317181629
 21
142.1646541325
 31
0.0
 11
57.5883084516
 21
142.136131643
 31
0.0
 11
57.6489956041
 21
142.1019504259
 31
0.0
 11
57.7138789843
 21
142.061099893
 31
0.0
 11
57.7828343585
 21
142.0124708702
 31
0.0
 11
57.8554515665
 21
141.9548940777
 31
0.0
 11
57.9309614787
 21
141.8872113824
 31
0.0
 11
58.0081952678
 21
141.8083563873
 31
0.0
 11
58.0861055108
 21
141.7167687528
 31
0.0
 11
58.1641617181
 21
141.6093086579
 31
0.0
  0
ENDSEC
  0
SECTION
  2
OBJECTS
  0
DICTIONARY
  5
C
100
AcDbDictionary
280
0
281
1
  3
ACAD_GROUP
350
D
  3
ACAD_MLINESTYLE
350
17
  3
ACAD_LAYOUT
350
1A
  3
ACAD_PLOTSETTINGS
350
19
  3
ACAD_PLOTSTYLENAME
350
E
  0
DICTIONARY
  5
D
102
{ACAD_REACTORS
330
C
102
}
100
AcDbDictionary
280
0
281
1
  0
ACDBDICTIONARYWDFLT
  5
E
102
{ACAD_REACTORS
330
C
102
}
100
AcDbDictionary
281
1
  3
Normal
350
F
100
AcDbDictionaryWithDefault
340
F
  0
DICTIONARY
  5
17
102
{ACAD_REACTORS
330
C
102
}
100
AcDbDictionary
280
0
281
1
  3
Standard
350
18
  0
DICTIONARY
  5
19
102
{ACAD_REACTORS
330
C
102
}
100
AcDbDictionary
281
1
  0
DICTIONARY
  5
1A
102
{ACAD_REACTORS
330
C
102
}
100
AcDbDictionary
281
1
  3
Layout1
350
1E
  3
Model
350
22
  0
ACDBPLACEHOLDER
  5
F
102
{ACAD_REACTORS
330
E
102
}
  0
MLINESTYLE
  5
18
102
{ACAD_REACTORS
330
17
102
}
100
AcDbMlineStyle
  2
STANDARD
 70
0
  3

 62
256
 51
90.0
 52
90.0
 71
2
 49
0.5
 62
256
  6
BYLAYER
 49
-0.5
 62
256
  6
BYLAYER
  0
LAYOUT
  5
1E
102
{ACAD_REACTORS
330
1A
102
}
100
AcDbPlotSettings
  1

  2

  4

  6

 40
0.0
 41
0.0
 42
0.0
 43
0.0
 44
0.0
 45
0.0
 46
0.0
 47
0.0
 48
0.0
 49
0.0
140
0.0
141
0.0
142
1.0
143
1.0
 70
0
 72
0
 73
0
 74
0
  7

 75
0
147
1.0
148
0.0
149
0.0
100
AcDbLayout
  1
Layout1
 70
0
 71
0
 10
0.0
 20
0.0
 11
0.0
 21
0.0
 12
0.0
 22
0.0
 32
0.0
 14
0.0
 24
0.0
 34
0.0
 15
0.0
 25
0.0
 35
0.0
146
0.0
 13
0.0
 23
0.0
 33
0.0
 16
0.0
 26
0.0
 36
0.0
 17
0.0
 27
0.0
 37
0.0
 76
0
330
1B
331
0
345
0
346
0
  0
LAYOUT
  5
22
102
{ACAD_REACTORS
330
1A
102
}
100
AcDbPlotSettings
  1

  2

  4

  6

 40
0.0
 41
0.0
 42
0.0
 43
0.0
 44
0.0
 45
0.0
 46
0.0
 47
0.0
 48
0.0
 49
0.0
140
0.0
141
0.0
142
1.0
143
1.0
 70
1024
 72
0
 73
0
 74
0
  7

 75
0
147
1.0
148
0.0
149
0.0
100
AcDbLayout
  1
Model
 70
0
 71
0
 10
0.0
 20
0.0
 11
0.0
 21
0.0
 12
0.0
 22
0.0
 32
0.0
 14
0.0
 24
0.0
 34
0.0
 15
0.0
 25
0.0
 35
0.0
146
0.0
 13
0.0
 23
0.0
 33
0.0
 16
0.0
 26
0.0
 36
0.0
 17
0.0
 27
0.0
 37
0.0
 76
0
330
1F
331
0
345
0
346
0
  0
ENDSEC
  0
EOF
