999
DXF file: T:\Proworks\Kotelot\cubo_D\PROCUS\dpcp050704g_pk1.dxf
999
Pro/ENGINEER 2020342 by Parametric Technology Corporation
  0
SECTION
  2
HEADER
  9
$ACADVER
  1
AC1021
  9
$DWGCODEPAGE
  3
ANSI_1252
  9
$EXTMAX
 10
210.0
 20
297.0
 30
0.0
  9
$EXTMIN
 10
0.0
 20
0.0
 30
0.0
  9
$LIMMIN
 10
0.0
 20
0.0
  9
$LIMMAX
 10
210.0
 20
297.0
  9
$VIEWCTR
 10
105.0
 20
148.5
  9
$VIEWSIZE
 40
297.0
  9
$CLAYER
  8
0
  9
$LTSCALE
 40
19.36
  9
$CELTYPE
  6
BYLAYER
  9
$DIMSCALE
 40
1.0
  9
$DIMASZ
 40
2.0
  9
$DIMEXO
 40
1.5
  9
$DIMDLI
 40
13.376
  9
$DIMEXE
 40
1.0
  9
$DIMCEN
 40
3.168
  9
$DIMLFAC
 40
1.0
  9
$DIMBLK
  1
_FILLED
  9
$DIMALT
 70
1
  9
$DIMALTD
 70
1
  9
$DIMALTTD
 70
2
  9
$DIMALTF
 40
0.0393700787
  9
$DIMTXT
 40
2.0
  9
$DIMTOL
 70
1
  9
$DIMLIM
 70
0
  9
$DIMTFAC
 40
1.0
  9
$DIMTP
 40
0.01
  9
$DIMTM
 40
0.01
  9
$DIMGAP
 40
0.625
  9
$DIMDSEP
 70
46
  9
$AUNITS
 70
0
  9
$PDMODE
 70
3
  9
$PDSIZE
 40
0.1
  9
$HANDSEED
  5
766
  9
$TILEMODE
 70
1
  9
$MEASUREMENT
 70
1
  9
$INSUNITS
 70
4
  0
ENDSEC
  0
SECTION
  2
CLASSES
  0
CLASS
  1
ACDBDICTIONARYWDFLT
  2
AcDbDictionaryWithDefault
  3
AutoCAD 2000
 90
0
 91
1
280
0
281
0
  0
CLASS
  1
ACDBPLACEHOLDER
  2
AcDbPlaceHolder
  3
AutoCAD 2000
 90
0
 91
1
280
0
281
0
  0
CLASS
  1
LAYOUT
  2
AcDbLayout
  3
AutoCAD 2000
 90
0
 91
0
280
0
281
0
  0
CLASS
  1
TABLESTYLE
  2
AcDbTableStyle
  3
ObjectDBX Classes
 90
2047
 91
1
280
0
281
0
  0
CLASS
  1
ACAD_TABLE
  2
AcDbTable
  3
ObjectDBX Classes
 90
1025
 91
6
280
0
281
1
  0
ENDSEC
  0
SECTION
  2
TABLES
  0
TABLE
  2
VPORT
  5
8
100
AcDbSymbolTable
 70
2
  0
VPORT
  5
1F4
100
AcDbSymbolTableRecord
100
AcDbViewportTableRecord
  2
*ACTIVE
 70
0
 10
0.0
 20
0.0
 11
1.0
 21
1.0
 12
105.0
 22
148.5
 13
0.0
 23
0.0
 14
1.0
 24
1.0
 15
0.0
 25
0.0
 16
0.0
 26
0.0
 36
1.0
 17
0.0
 27
0.0
 37
0.0
 40
297.0
 41
0.7070707071
 42
50.0
 43
0.0
 44
0.0
 50
0.0
 51
0.0
 71
0
 72
100
 73
1
 74
1
 75
0
 76
0
 77
0
 78
0
  0
ENDTAB
  0
TABLE
  2
LTYPE
  5
5
100
AcDbSymbolTable
 70
6
  0
LTYPE
  5
14
100
AcDbSymbolTableRecord
100
AcDbLinetypeTableRecord
  2
BYBLOCK
 70
0
  3

 72
65
 73
0
 40
0.0
  0
LTYPE
  5
15
100
AcDbSymbolTableRecord
100
AcDbLinetypeTableRecord
  2
BYLAYER
 70
0
  3

 72
65
 73
0
 40
0.0
  0
LTYPE
  5
16
100
AcDbSymbolTableRecord
100
AcDbLinetypeTableRecord
  2
CONTINUOUS
 70
64
  3
Solid line
 72
65
 73
0
 40
0.0
  0
LTYPE
  5
1F5
100
AcDbSymbolTableRecord
100
AcDbLinetypeTableRecord
  2
CENTER
 70
64
  3
____ _ ____ _ ____ _ ____ _ ____ _ ____ _ ____
 72
65
 73
4
 40
0.6
 49
0.375
 74
0
 49
-0.075
 74
0
 49
0.075
 74
0
 49
-0.075
 74
0
  0
LTYPE
  5
1F6
100
AcDbSymbolTableRecord
100
AcDbLinetypeTableRecord
  2
HIDDEN
 70
64
  3
- - - - - - - - - - - - - - - - - - - -
 72
65
 73
2
 40
0.2
 49
0.1
 74
0
 49
-0.1
 74
0
  0
LTYPE
  5
1F7
100
AcDbSymbolTableRecord
100
AcDbLinetypeTableRecord
  2
PHANTOM
 70
64
  3
_____ _ _ _____ _ _ _____ _ _ _____
 72
65
 73
6
 40
0.8
 49
0.45
 74
0
 49
-0.05
 74
0
 49
0.1
 74
0
 49
-0.05
 74
0
 49
0.1
 74
0
 49
-0.05
 74
0
  0
LTYPE
  5
1F8
100
AcDbSymbolTableRecord
100
AcDbLinetypeTableRecord
  2
DOT
 70
64
  3
. . . . . . . . . . . . . . . . . . . .
 72
65
 73
2
 40
0.2
 49
0.1
 74
0
 49
-0.1
 74
0
  0
LTYPE
  5
1F9
100
AcDbSymbolTableRecord
100
AcDbLinetypeTableRecord
  2
DASHED
 70
64
  3
- - - - - - - - - - - - - - - - - - - -
 72
65
 73
2
 40
0.2
 49
0.1
 74
0
 49
-0.1
 74
0
  0
ENDTAB
  0
TABLE
  2
LAYER
  5
2
100
AcDbSymbolTable
 70
36
  0
LAYER
  5
10
100
AcDbSymbolTableRecord
100
AcDbLayerTableRecord
  2
0
 70
0
 62
7
  6
CONTINUOUS
370
-3
390
F
  0
LAYER
  5
1FA
100
AcDbSymbolTableRecord
100
AcDbLayerTableRecord
  2
DEFAULT_1
 70
0
 62
7
  6
CENTER
370
-3
390
F
  0
LAYER
  5
1FB
100
AcDbSymbolTableRecord
100
AcDbLayerTableRecord
  2
DEFAULT_2
 70
0
 62
8
  6
HIDDEN
370
-3
390
F
  0
LAYER
  5
1FC
100
AcDbSymbolTableRecord
100
AcDbLayerTableRecord
  2
DEFAULT_3
 70
0
 62
7
  6
PHANTOM
370
-3
390
F
  0
LAYER
  5
1FD
100
AcDbSymbolTableRecord
100
AcDbLayerTableRecord
  2
CSYS
 70
0
 62
7
  6
CONTINUOUS
370
-3
390
F
  0
LAYER
  5
1FE
100
AcDbSymbolTableRecord
100
AcDbLayerTableRecord
  2
CURVE
 70
0
 62
7
  6
CONTINUOUS
370
-3
390
F
  0
LAYER
  5
1FF
100
AcDbSymbolTableRecord
100
AcDbLayerTableRecord
  2
CURVE_2
 70
0
 62
7
  6
CONTINUOUS
370
-3
390
F
  0
LAYER
  5
200
100
AcDbSymbolTableRecord
100
AcDbLayerTableRecord
  2
EDGEFEAT
 70
0
 62
7
  6
CONTINUOUS
370
-3
390
F
  0
LAYER
  5
201
100
AcDbSymbolTableRecord
100
AcDbLayerTableRecord
  2
NOGEOM
 70
0
 62
7
  6
CONTINUOUS
370
-3
390
F
  0
LAYER
  5
202
100
AcDbSymbolTableRecord
100
AcDbLayerTableRecord
  2
XSEC_DATUMS
 70
0
 62
7
  6
CONTINUOUS
370
-3
390
F
  0
ENDTAB
  0
TABLE
  2
STYLE
  5
3
100
AcDbSymbolTable
 70
1
  0
STYLE
  5
11
100
AcDbSymbolTableRecord
100
AcDbTextStyleTableRecord
  2
STANDARD
 70
0
 40
0.0
 41
1.0
 50
0.0
 71
0
 42
0.2
  3
arial.ttf
  4

  0
STYLE
  5
203
100
AcDbSymbolTableRecord
100
AcDbTextStyleTableRecord
  2
TEXTSTYLE_1
 70
0
 40
0.0
 41
0.8
 50
0.0
 71
0
 42
0.2
  3
gdt
  4

  0
STYLE
  5
204
100
AcDbSymbolTableRecord
100
AcDbTextStyleTableRecord
  2
TEXTSTYLE_2
 70
0
 40
0.0
 41
1.0
 50
0.0
 71
0
 42
0.2
  3
arial.ttf
  4

  0
STYLE
  5
205
100
AcDbSymbolTableRecord
100
AcDbTextStyleTableRecord
  2
TEXTSTYLE_3
 70
0
 40
0.0
 41
1.0
 50
0.0
 71
0
 42
0.2
  3
arial.ttf
  4

  0
ENDTAB
  0
TABLE
  2
VIEW
  5
6
100
AcDbSymbolTable
 70
0
  0
ENDTAB
  0
TABLE
  2
UCS
  5
7
100
AcDbSymbolTable
 70
0
  0
ENDTAB
  0
TABLE
  2
APPID
  5
9
100
AcDbSymbolTable
 70
1
  0
APPID
  5
206
100
AcDbSymbolTableRecord
100
AcDbRegAppTableRecord
  2
ACAD
 70
0
  0
ENDTAB
  0
TABLE
  2
BLOCK_RECORD
  5
1
100
AcDbSymbolTable
 70
0
  0
BLOCK_RECORD
  5
207
100
AcDbSymbolTableRecord
100
AcDbBlockTableRecord
  2
*Model_Space
  0
BLOCK_RECORD
  5
208
100
AcDbSymbolTableRecord
100
AcDbBlockTableRecord
  2
*Paper_Space
  0
BLOCK_RECORD
  5
209
100
AcDbSymbolTableRecord
100
AcDbBlockTableRecord
  2
_FILLED
  0
BLOCK_RECORD
  5
20A
100
AcDbSymbolTableRecord
100
AcDbBlockTableRecord
  2
*D0
  0
BLOCK_RECORD
  5
20B
100
AcDbSymbolTableRecord
100
AcDbBlockTableRecord
  2
*D1
  0
BLOCK_RECORD
  5
20C
100
AcDbSymbolTableRecord
100
AcDbBlockTableRecord
  2
*D2
  0
BLOCK_RECORD
  5
20D
100
AcDbSymbolTableRecord
100
AcDbBlockTableRecord
  2
*D3
  0
BLOCK_RECORD
  5
20E
100
AcDbSymbolTableRecord
100
AcDbBlockTableRecord
  2
*D4
  0
BLOCK_RECORD
  5
20F
100
AcDbSymbolTableRecord
100
AcDbBlockTableRecord
  2
*D5
  0
BLOCK_RECORD
  5
210
100
AcDbSymbolTableRecord
100
AcDbBlockTableRecord
  2
*D6
  0
BLOCK_RECORD
  5
211
100
AcDbSymbolTableRecord
100
AcDbBlockTableRecord
  2
*D7
  0
BLOCK_RECORD
  5
212
100
AcDbSymbolTableRecord
100
AcDbBlockTableRecord
  2
*D8
  0
BLOCK_RECORD
  5
213
100
AcDbSymbolTableRecord
100
AcDbBlockTableRecord
  2
*D9
  0
BLOCK_RECORD
  5
214
100
AcDbSymbolTableRecord
100
AcDbBlockTableRecord
  2
*D10
  0
BLOCK_RECORD
  5
215
100
AcDbSymbolTableRecord
100
AcDbBlockTableRecord
  2
*D11
  0
BLOCK_RECORD
  5
216
100
AcDbSymbolTableRecord
100
AcDbBlockTableRecord
  2
*D12
  0
BLOCK_RECORD
  5
217
100
AcDbSymbolTableRecord
100
AcDbBlockTableRecord
  2
*D13
  0
BLOCK_RECORD
  5
218
100
AcDbSymbolTableRecord
100
AcDbBlockTableRecord
  2
*D14
  0
BLOCK_RECORD
  5
219
100
AcDbSymbolTableRecord
100
AcDbBlockTableRecord
  2
ENSTO_BL0
  0
BLOCK_RECORD
  5
21A
100
AcDbSymbolTableRecord
100
AcDbBlockTableRecord
  2
*T1
  0
BLOCK_RECORD
  5
21B
100
AcDbSymbolTableRecord
100
AcDbBlockTableRecord
  2
*T2
  0
BLOCK_RECORD
  5
21C
100
AcDbSymbolTableRecord
100
AcDbBlockTableRecord
  2
*T3
  0
BLOCK_RECORD
  5
21D
100
AcDbSymbolTableRecord
100
AcDbBlockTableRecord
  2
*T4
  0
BLOCK_RECORD
  5
21E
100
AcDbSymbolTableRecord
100
AcDbBlockTableRecord
  2
*T5
  0
BLOCK_RECORD
  5
21F
100
AcDbSymbolTableRecord
100
AcDbBlockTableRecord
  2
*T6
  0
ENDTAB
  0
TABLE
  2
DIMSTYLE
  5
A
100
AcDbSymbolTable
 70
1
100
AcDbDimStyleTable
 71
0
  0
DIMSTYLE
105
220
100
AcDbSymbolTableRecord
100
AcDbDimStyleTableRecord
  2
STANDARD
 70
0
  3

  4

 40
1.0
 41
2.0
 42
1.5
 43
0.38
 44
1.0
 45
0.0
 46
0.0
 47
0.01
 48
0.01
140
2.0
141
0.09
142
0.0
143
0.0393700787
144
1.0
145
0.0
146
1.0
147
0.625
 71
1
 72
0
 73
0
 74
0
 75
0
 76
0
 77
1
 78
8
 79
2
170
1
171
1
172
0
173
0
174
0
175
0
176
0
177
0
178
0
270
2
179
2
271
2
272
2
273
2
274
2
275
0
280
0
281
0
282
0
283
1
284
8
285
0
286
0
287
3
288
0
340
11
278
46
341
209
342
209
343
209
344
209
  0
DIMSTYLE
105
221
100
AcDbSymbolTableRecord
100
AcDbDimStyleTableRecord
  2
DIMSTYLE_1
 70
0
  3

  4

 40
1.0
 41
2.0
 42
1.5
 43
0.38
 44
1.0
 45
0.0
 46
0.0
 47
0.01
 48
0.01
140
2.0
141
0.09
142
0.0
143
0.0393700787
144
1.0
145
0.0
146
1.0
147
0.5
 71
0
 72
0
 73
0
 74
0
 75
0
 76
0
 77
1
 78
8
 79
2
170
1
171
2
172
0
173
0
174
0
175
0
176
0
177
0
178
0
270
2
179
2
271
2
272
2
273
2
274
2
275
0
280
0
281
0
282
0
283
1
284
8
285
0
286
0
287
3
288
0
340
11
278
46
341
209
342
209
343
209
344
209
  0
DIMSTYLE
105
222
100
AcDbSymbolTableRecord
100
AcDbDimStyleTableRecord
  2
DIMSTYLE_2
 70
0
  3

  4

 40
1.0
 41
2.0
 42
1.5
 43
0.38
 44
1.0
 45
0.0
 46
0.0
 47
0.01
 48
0.01
140
2.0
141
0.09
142
0.0
143
0.0393700787
144
1.0
145
0.0
146
1.0
147
0.5
 71
0
 72
0
 73
0
 74
0
 75
0
 76
0
 77
1
 78
8
 79
2
170
1
171
2
172
0
173
0
174
0
175
0
176
0
177
0
178
0
270
2
179
2
271
1
272
1
273
2
274
2
275
0
280
0
281
0
282
0
283
1
284
8
285
0
286
0
287
3
288
0
340
11
278
46
341
209
342
209
343
209
344
209
  0
ENDTAB
  0
ENDSEC
  0
SECTION
  2
BLOCKS
  0
BLOCK
  5
20
100
AcDbEntity
  8
0
100
AcDbBlockBegin
  2
*Model_Space
 70
0
 10
0.0
 20
0.0
 30
0.0
  3
*Model_Space
  1

  0
ENDBLK
  5
21
100
AcDbEntity
  8
0
100
AcDbBlockEnd
  0
BLOCK
  5
1C
100
AcDbEntity
  8
0
100
AcDbBlockBegin
  2
*Paper_Space
 70
0
 10
0.0
 20
0.0
 30
0.0
  3
*Paper_Space
  1

  0
ENDBLK
  5
1D
100
AcDbEntity
  8
0
100
AcDbBlockEnd
  0
BLOCK
  5
223
100
AcDbEntity
  8
0
100
AcDbBlockBegin
 62
2
  6
CONTINUOUS
  2
ENSTO_BL0
 70
64
 10
49.3918275707
 20
37.5779233823
  3
ENSTO_BL0
  1

  0
LINE
  5
224
100
AcDbEntity
  8
0
100
AcDbLine
 62
7
  6
CONTINUOUS
 10
50.6818276453
 20
34.1219231823
 11
50.0338276078
 21
34.1459231837
  0
LINE
  5
225
100
AcDbEntity
  8
0
100
AcDbLine
 62
7
  6
CONTINUOUS
 10
50.0338276078
 20
34.1459231837
 11
49.397827571
 21
34.2179231879
  0
LINE
  5
226
100
AcDbEntity
  8
0
100
AcDbLine
 62
7
  6
CONTINUOUS
 10
49.397827571
 20
34.2179231879
 11
48.8218275377
 21
34.3139231934
  0
LINE
  5
227
100
AcDbEntity
  8
0
100
AcDbLine
 62
7
  6
CONTINUOUS
 10
48.8218275377
 20
34.3139231934
 11
48.3058275078
 21
34.4339232004
  0
LINE
  5
228
100
AcDbEntity
  8
0
100
AcDbLine
 62
7
  6
CONTINUOUS
 10
48.3058275078
 20
34.4339232004
 11
47.8618274821
 21
34.5539232073
  0
LINE
  5
229
100
AcDbEntity
  8
0
100
AcDbLine
 62
7
  6
CONTINUOUS
 10
47.8618274821
 20
34.5539232073
 11
47.5018274613
 21
34.6739232142
  0
LINE
  5
22A
100
AcDbEntity
  8
0
100
AcDbLine
 62
7
  6
CONTINUOUS
 10
47.5018274613
 20
34.6739232142
 11
47.1178274391
 21
34.8059232219
  0
LINE
  5
22B
100
AcDbEntity
  8
0
100
AcDbLine
 62
7
  6
CONTINUOUS
 10
47.1178274391
 20
34.8059232219
 11
47.7058274731
 21
36.1499232997
  0
LINE
  5
22C
100
AcDbEntity
  8
0
100
AcDbLine
 62
7
  6
CONTINUOUS
 10
47.7058274731
 20
36.1499232997
 11
48.1978275016
 21
35.9819232899
  0
LINE
  5
22D
100
AcDbEntity
  8
0
100
AcDbLine
 62
7
  6
CONTINUOUS
 10
48.1978275016
 20
35.9819232899
 11
48.9298275439
 21
35.7659232774
  0
LINE
  5
22E
100
AcDbEntity
  8
0
100
AcDbLine
 62
7
  6
CONTINUOUS
 10
48.9298275439
 20
35.7659232774
 11
49.3498275682
 21
35.6699232719
  0
LINE
  5
22F
100
AcDbEntity
  8
0
100
AcDbLine
 62
7
  6
CONTINUOUS
 10
49.3498275682
 20
35.6699232719
 11
49.7938275939
 21
35.585923267
  0
LINE
  5
230
100
AcDbEntity
  8
0
100
AcDbLine
 62
7
  6
CONTINUOUS
 10
49.7938275939
 20
35.585923267
 11
50.2378276196
 21
35.5259232635
  0
LINE
  5
231
100
AcDbEntity
  8
0
100
AcDbLine
 62
7
  6
CONTINUOUS
 10
50.2378276196
 20
35.5259232635
 11
50.6698276446
 21
35.5019232622
  0
LINE
  5
232
100
AcDbEntity
  8
0
100
AcDbLine
 62
7
  6
CONTINUOUS
 10
50.6698276446
 20
35.5019232622
 11
51.0298276654
 21
35.5139232629
  0
LINE
  5
233
100
AcDbEntity
  8
0
100
AcDbLine
 62
7
  6
CONTINUOUS
 10
51.0298276654
 20
35.5139232629
 11
51.2458276779
 21
35.5499232649
  0
LINE
  5
234
100
AcDbEntity
  8
0
100
AcDbLine
 62
7
  6
CONTINUOUS
 10
51.2458276779
 20
35.5499232649
 11
51.4738276911
 21
35.5979232677
  0
LINE
  5
235
100
AcDbEntity
  8
0
100
AcDbLine
 62
7
  6
CONTINUOUS
 10
51.4738276911
 20
35.5979232677
 11
51.6778277029
 21
35.6819232726
  0
LINE
  5
236
100
AcDbEntity
  8
0
100
AcDbLine
 62
7
  6
CONTINUOUS
 10
51.6778277029
 20
35.6819232726
 11
51.8458277127
 21
35.8019232795
  0
LINE
  5
237
100
AcDbEntity
  8
0
100
AcDbLine
 62
7
  6
CONTINUOUS
 10
51.8458277127
 20
35.8019232795
 11
51.9058277161
 21
35.8739232837
  0
LINE
  5
238
100
AcDbEntity
  8
0
100
AcDbLine
 62
7
  6
CONTINUOUS
 10
51.9058277161
 20
35.8739232837
 11
51.9538277189
 21
35.9579232885
  0
LINE
  5
239
100
AcDbEntity
  8
0
100
AcDbLine
 62
7
  6
CONTINUOUS
 10
51.9538277189
 20
35.9579232885
 11
51.989827721
 21
36.0539232941
  0
LINE
  5
23A
100
AcDbEntity
  8
0
100
AcDbLine
 62
7
  6
CONTINUOUS
 10
51.989827721
 20
36.0539232941
 11
52.0018277217
 21
36.1499232997
  0
LINE
  5
23B
100
AcDbEntity
  8
0
100
AcDbLine
 62
7
  6
CONTINUOUS
 10
52.0018277217
 20
36.1499232997
 11
51.9778277203
 21
36.2579233059
  0
LINE
  5
23C
100
AcDbEntity
  8
0
100
AcDbLine
 62
7
  6
CONTINUOUS
 10
51.9778277203
 20
36.2579233059
 11
51.9418277182
 21
36.3539233115
  0
LINE
  5
23D
100
AcDbEntity
  8
0
100
AcDbLine
 62
7
  6
CONTINUOUS
 10
51.9418277182
 20
36.3539233115
 11
51.8818277148
 21
36.4379233163
  0
LINE
  5
23E
100
AcDbEntity
  8
0
100
AcDbLine
 62
7
  6
CONTINUOUS
 10
51.8818277148
 20
36.4379233163
 11
51.7858277092
 21
36.4979233198
  0
LINE
  5
23F
100
AcDbEntity
  8
0
100
AcDbLine
 62
7
  6
CONTINUOUS
 10
51.7858277092
 20
36.4979233198
 11
51.6778277029
 21
36.569923324
  0
LINE
  5
240
100
AcDbEntity
  8
0
100
AcDbLine
 62
7
  6
CONTINUOUS
 10
51.6778277029
 20
36.569923324
 11
51.557827696
 21
36.6179233267
  0
LINE
  5
241
100
AcDbEntity
  8
0
100
AcDbLine
 62
7
  6
CONTINUOUS
 10
51.557827696
 20
36.6179233267
 11
51.2458276779
 21
36.7019233316
  0
LINE
  5
242
100
AcDbEntity
  8
0
100
AcDbLine
 62
7
  6
CONTINUOUS
 10
51.2458276779
 20
36.7019233316
 11
50.8858276571
 21
36.7739233358
  0
LINE
  5
243
100
AcDbEntity
  8
0
100
AcDbLine
 62
7
  6
CONTINUOUS
 10
50.8858276571
 20
36.7739233358
 11
50.4898276342
 21
36.8219233385
  0
LINE
  5
244
100
AcDbEntity
  8
0
100
AcDbLine
 62
7
  6
CONTINUOUS
 10
50.4898276342
 20
36.8219233385
 11
49.6138275835
 21
36.9419233455
  0
LINE
  5
245
100
AcDbEntity
  8
0
100
AcDbLine
 62
7
  6
CONTINUOUS
 10
49.6138275835
 20
36.9419233455
 11
49.1698275578
 21
37.0139233497
  0
LINE
  5
246
100
AcDbEntity
  8
0
100
AcDbLine
 62
7
  6
CONTINUOUS
 10
49.1698275578
 20
37.0139233497
 11
48.7378275328
 21
37.1219233559
  0
LINE
  5
247
100
AcDbEntity
  8
0
100
AcDbLine
 62
7
  6
CONTINUOUS
 10
48.7378275328
 20
37.1219233559
 11
48.3298275092
 21
37.2539233635
  0
LINE
  5
248
100
AcDbEntity
  8
0
100
AcDbLine
 62
7
  6
CONTINUOUS
 10
48.3298275092
 20
37.2539233635
 11
48.1498274988
 21
37.3379233684
  0
LINE
  5
249
100
AcDbEntity
  8
0
100
AcDbLine
 62
7
  6
CONTINUOUS
 10
48.1498274988
 20
37.3379233684
 11
47.9698274884
 21
37.433923374
  0
LINE
  5
24A
100
AcDbEntity
  8
0
100
AcDbLine
 62
7
  6
CONTINUOUS
 10
47.9698274884
 20
37.433923374
 11
47.8138274793
 21
37.5419233802
  0
LINE
  5
24B
100
AcDbEntity
  8
0
100
AcDbLine
 62
7
  6
CONTINUOUS
 10
47.8138274793
 20
37.5419233802
 11
47.669827471
 21
37.6619233872
  0
LINE
  5
24C
100
AcDbEntity
  8
0
100
AcDbLine
 62
7
  6
CONTINUOUS
 10
47.669827471
 20
37.6619233872
 11
47.5378274634
 21
37.8059233955
  0
LINE
  5
24D
100
AcDbEntity
  8
0
100
AcDbLine
 62
7
  6
CONTINUOUS
 10
47.5378274634
 20
37.8059233955
 11
47.4298274571
 21
37.9499234038
  0
LINE
  5
24E
100
AcDbEntity
  8
0
100
AcDbLine
 62
7
  6
CONTINUOUS
 10
47.4298274571
 20
37.9499234038
 11
47.3458274523
 21
38.1299234142
  0
LINE
  5
24F
100
AcDbEntity
  8
0
100
AcDbLine
 62
7
  6
CONTINUOUS
 10
47.3458274523
 20
38.1299234142
 11
47.2858274488
 21
38.3099234247
  0
LINE
  5
250
100
AcDbEntity
  8
0
100
AcDbLine
 62
7
  6
CONTINUOUS
 10
47.2858274488
 20
38.3099234247
 11
47.2498274467
 21
38.5259234372
  0
LINE
  5
251
100
AcDbEntity
  8
0
100
AcDbLine
 62
7
  6
CONTINUOUS
 10
47.2498274467
 20
38.5259234372
 11
47.2258274453
 21
38.7539234504
  0
LINE
  5
252
100
AcDbEntity
  8
0
100
AcDbLine
 62
7
  6
CONTINUOUS
 10
47.2258274453
 20
38.7539234504
 11
47.237827446
 21
38.9339234608
  0
LINE
  5
253
100
AcDbEntity
  8
0
100
AcDbLine
 62
7
  6
CONTINUOUS
 10
47.237827446
 20
38.9339234608
 11
47.2738274481
 21
39.1259234719
  0
LINE
  5
254
100
AcDbEntity
  8
0
100
AcDbLine
 62
7
  6
CONTINUOUS
 10
47.2738274481
 20
39.1259234719
 11
47.3218274509
 21
39.317923483
  0
LINE
  5
255
100
AcDbEntity
  8
0
100
AcDbLine
 62
7
  6
CONTINUOUS
 10
47.3218274509
 20
39.317923483
 11
47.4058274557
 21
39.5099234941
  0
LINE
  5
256
100
AcDbEntity
  8
0
100
AcDbLine
 62
7
  6
CONTINUOUS
 10
47.4058274557
 20
39.5099234941
 11
47.5018274613
 21
39.7019235052
  0
LINE
  5
257
100
AcDbEntity
  8
0
100
AcDbLine
 62
7
  6
CONTINUOUS
 10
47.5018274613
 20
39.7019235052
 11
47.6218274682
 21
39.8939235163
  0
LINE
  5
258
100
AcDbEntity
  8
0
100
AcDbLine
 62
7
  6
CONTINUOUS
 10
47.6218274682
 20
39.8939235163
 11
47.7778274773
 21
40.0739235267
  0
LINE
  5
259
100
AcDbEntity
  8
0
100
AcDbLine
 62
7
  6
CONTINUOUS
 10
47.7778274773
 20
40.0739235267
 11
47.9578274877
 21
40.2539235372
  0
LINE
  5
25A
100
AcDbEntity
  8
0
100
AcDbLine
 62
7
  6
CONTINUOUS
 10
47.9578274877
 20
40.2539235372
 11
48.1618274995
 21
40.4219235469
  0
LINE
  5
25B
100
AcDbEntity
  8
0
100
AcDbLine
 62
7
  6
CONTINUOUS
 10
48.1618274995
 20
40.4219235469
 11
48.4018275134
 21
40.5659235552
  0
LINE
  5
25C
100
AcDbEntity
  8
0
100
AcDbLine
 62
7
  6
CONTINUOUS
 10
48.4018275134
 20
40.5659235552
 11
48.6658275286
 21
40.6979235629
  0
LINE
  5
25D
100
AcDbEntity
  8
0
100
AcDbLine
 62
7
  6
CONTINUOUS
 10
48.6658275286
 20
40.6979235629
 11
48.9538275453
 21
40.8179235698
  0
LINE
  5
25E
100
AcDbEntity
  8
0
100
AcDbLine
 62
7
  6
CONTINUOUS
 10
48.9538275453
 20
40.8179235698
 11
49.2898275648
 21
40.9019235747
  0
LINE
  5
25F
100
AcDbEntity
  8
0
100
AcDbLine
 62
7
  6
CONTINUOUS
 10
49.2898275648
 20
40.9019235747
 11
49.6498275856
 21
40.9739235788
  0
LINE
  5
260
100
AcDbEntity
  8
0
100
AcDbLine
 62
7
  6
CONTINUOUS
 10
49.6498275856
 20
40.9739235788
 11
50.0338276078
 21
41.0219235816
  0
LINE
  5
261
100
AcDbEntity
  8
0
100
AcDbLine
 62
7
  6
CONTINUOUS
 10
50.0338276078
 20
41.0219235816
 11
50.4658276328
 21
41.0339235823
  0
LINE
  5
262
100
AcDbEntity
  8
0
100
AcDbLine
 62
7
  6
CONTINUOUS
 10
50.4658276328
 20
41.0339235823
 11
51.0538276668
 21
41.0099235809
  0
LINE
  5
263
100
AcDbEntity
  8
0
100
AcDbLine
 62
7
  6
CONTINUOUS
 10
51.0538276668
 20
41.0099235809
 11
51.6178276995
 21
40.9379235767
  0
LINE
  5
264
100
AcDbEntity
  8
0
100
AcDbLine
 62
7
  6
CONTINUOUS
 10
51.6178276995
 20
40.9379235767
 11
52.14582773
 21
40.8539235719
  0
LINE
  5
265
100
AcDbEntity
  8
0
100
AcDbLine
 62
7
  6
CONTINUOUS
 10
52.14582773
 20
40.8539235719
 11
52.6138277571
 21
40.7459235656
  0
LINE
  5
266
100
AcDbEntity
  8
0
100
AcDbLine
 62
7
  6
CONTINUOUS
 10
52.6138277571
 20
40.7459235656
 11
53.3338277988
 21
40.5299235531
  0
LINE
  5
267
100
AcDbEntity
  8
0
100
AcDbLine
 62
7
  6
CONTINUOUS
 10
53.3338277988
 20
40.5299235531
 11
53.6458278168
 21
40.4219235469
  0
LINE
  5
268
100
AcDbEntity
  8
0
100
AcDbLine
 62
7
  6
CONTINUOUS
 10
53.6458278168
 20
40.4219235469
 11
53.0818277842
 21
39.1259234719
  0
LINE
  5
269
100
AcDbEntity
  8
0
100
AcDbLine
 62
7
  6
CONTINUOUS
 10
53.0818277842
 20
39.1259234719
 11
52.8658277717
 21
39.2099234767
  0
LINE
  5
26A
100
AcDbEntity
  8
0
100
AcDbLine
 62
7
  6
CONTINUOUS
 10
52.8658277717
 20
39.2099234767
 11
52.3018277391
 21
39.3899234872
  0
LINE
  5
26B
100
AcDbEntity
  8
0
100
AcDbLine
 62
7
  6
CONTINUOUS
 10
52.3018277391
 20
39.3899234872
 11
51.9418277182
 21
39.4859234927
  0
LINE
  5
26C
100
AcDbEntity
  8
0
100
AcDbLine
 62
7
  6
CONTINUOUS
 10
51.9418277182
 20
39.4859234927
 11
51.557827696
 21
39.5699234976
  0
LINE
  5
26D
100
AcDbEntity
  8
0
100
AcDbLine
 62
7
  6
CONTINUOUS
 10
51.557827696
 20
39.5699234976
 11
51.1618276731
 21
39.629923501
  0
LINE
  5
26E
100
AcDbEntity
  8
0
100
AcDbLine
 62
7
  6
CONTINUOUS
 10
51.1618276731
 20
39.629923501
 11
50.7898276516
 21
39.6539235024
  0
LINE
  5
26F
100
AcDbEntity
  8
0
100
AcDbLine
 62
7
  6
CONTINUOUS
 10
50.7898276516
 20
39.6539235024
 11
50.3698276273
 21
39.6419235017
  0
LINE
  5
270
100
AcDbEntity
  8
0
100
AcDbLine
 62
7
  6
CONTINUOUS
 10
50.3698276273
 20
39.6419235017
 11
50.105827612
 21
39.6179235004
  0
LINE
  5
271
100
AcDbEntity
  8
0
100
AcDbLine
 62
7
  6
CONTINUOUS
 10
50.105827612
 20
39.6179235004
 11
49.8178275953
 21
39.5699234976
  0
LINE
  5
272
100
AcDbEntity
  8
0
100
AcDbLine
 62
7
  6
CONTINUOUS
 10
49.8178275953
 20
39.5699234976
 11
49.55382758
 21
39.4979234934
  0
LINE
  5
273
100
AcDbEntity
  8
0
100
AcDbLine
 62
7
  6
CONTINUOUS
 10
49.55382758
 20
39.4979234934
 11
49.4338275731
 21
39.4379234899
  0
LINE
  5
274
100
AcDbEntity
  8
0
100
AcDbLine
 62
7
  6
CONTINUOUS
 10
49.4338275731
 20
39.4379234899
 11
49.3378275675
 21
39.3779234865
  0
LINE
  5
275
100
AcDbEntity
  8
0
100
AcDbLine
 62
7
  6
CONTINUOUS
 10
49.3378275675
 20
39.3779234865
 11
49.241827562
 21
39.2939234816
  0
LINE
  5
276
100
AcDbEntity
  8
0
100
AcDbLine
 62
7
  6
CONTINUOUS
 10
49.241827562
 20
39.2939234816
 11
49.1818275585
 21
39.2099234767
  0
LINE
  5
277
100
AcDbEntity
  8
0
100
AcDbLine
 62
7
  6
CONTINUOUS
 10
49.1818275585
 20
39.2099234767
 11
49.1338275557
 21
39.1019234705
  0
LINE
  5
278
100
AcDbEntity
  8
0
100
AcDbLine
 62
7
  6
CONTINUOUS
 10
49.1338275557
 20
39.1019234705
 11
49.121827555
 21
38.9819234635
  0
LINE
  5
279
100
AcDbEntity
  8
0
100
AcDbLine
 62
7
  6
CONTINUOUS
 10
49.121827555
 20
38.9819234635
 11
49.1338275557
 21
38.885923458
  0
LINE
  5
27A
100
AcDbEntity
  8
0
100
AcDbLine
 62
7
  6
CONTINUOUS
 10
49.1338275557
 20
38.885923458
 11
49.1818275585
 21
38.8019234531
  0
LINE
  5
27B
100
AcDbEntity
  8
0
100
AcDbLine
 62
7
  6
CONTINUOUS
 10
49.1818275585
 20
38.8019234531
 11
49.241827562
 21
38.729923449
  0
LINE
  5
27C
100
AcDbEntity
  8
0
100
AcDbLine
 62
7
  6
CONTINUOUS
 10
49.241827562
 20
38.729923449
 11
49.3258275668
 21
38.6699234455
  0
LINE
  5
27D
100
AcDbEntity
  8
0
100
AcDbLine
 62
7
  6
CONTINUOUS
 10
49.3258275668
 20
38.6699234455
 11
49.5658275807
 21
38.5619234392
  0
LINE
  5
27E
100
AcDbEntity
  8
0
100
AcDbLine
 62
7
  6
CONTINUOUS
 10
49.5658275807
 20
38.5619234392
 11
49.8658275981
 21
38.4899234351
  0
LINE
  5
27F
100
AcDbEntity
  8
0
100
AcDbLine
 62
7
  6
CONTINUOUS
 10
49.8658275981
 20
38.4899234351
 11
50.2258276189
 21
38.4299234316
  0
LINE
  5
280
100
AcDbEntity
  8
0
100
AcDbLine
 62
7
  6
CONTINUOUS
 10
50.2258276189
 20
38.4299234316
 11
50.6338276425
 21
38.3819234288
  0
LINE
  5
281
100
AcDbEntity
  8
0
100
AcDbLine
 62
7
  6
CONTINUOUS
 10
50.6338276425
 20
38.3819234288
 11
51.5098276932
 21
38.2619234219
  0
LINE
  5
282
100
AcDbEntity
  8
0
100
AcDbLine
 62
7
  6
CONTINUOUS
 10
51.5098276932
 20
38.2619234219
 11
51.9538277189
 21
38.177923417
  0
LINE
  5
283
100
AcDbEntity
  8
0
100
AcDbLine
 62
7
  6
CONTINUOUS
 10
51.9538277189
 20
38.177923417
 11
52.3858277439
 21
38.0699234108
  0
LINE
  5
284
100
AcDbEntity
  8
0
100
AcDbLine
 62
7
  6
CONTINUOUS
 10
52.3858277439
 20
38.0699234108
 11
52.7818277668
 21
37.9259234024
  0
LINE
  5
285
100
AcDbEntity
  8
0
100
AcDbLine
 62
7
  6
CONTINUOUS
 10
52.7818277668
 20
37.9259234024
 11
52.9738277779
 21
37.8299233969
  0
LINE
  5
286
100
AcDbEntity
  8
0
100
AcDbLine
 62
7
  6
CONTINUOUS
 10
52.9738277779
 20
37.8299233969
 11
53.1418277877
 21
37.7339233913
  0
LINE
  5
287
100
AcDbEntity
  8
0
100
AcDbLine
 62
7
  6
CONTINUOUS
 10
53.1418277877
 20
37.7339233913
 11
53.3098277974
 21
37.6259233851
  0
LINE
  5
288
100
AcDbEntity
  8
0
100
AcDbLine
 62
7
  6
CONTINUOUS
 10
53.3098277974
 20
37.6259233851
 11
53.4538278057
 21
37.4939233774
  0
LINE
  5
289
100
AcDbEntity
  8
0
100
AcDbLine
 62
7
  6
CONTINUOUS
 10
53.4538278057
 20
37.4939233774
 11
53.5738278127
 21
37.3499233691
  0
LINE
  5
28A
100
AcDbEntity
  8
0
100
AcDbLine
 62
7
  6
CONTINUOUS
 10
53.5738278127
 20
37.3499233691
 11
53.6818278189
 21
37.1819233594
  0
LINE
  5
28B
100
AcDbEntity
  8
0
100
AcDbLine
 62
7
  6
CONTINUOUS
 10
53.6818278189
 20
37.1819233594
 11
53.7778278245
 21
37.001923349
  0
LINE
  5
28C
100
AcDbEntity
  8
0
100
AcDbLine
 62
7
  6
CONTINUOUS
 10
53.7778278245
 20
37.001923349
 11
53.8378278279
 21
36.8099233379
  0
LINE
  5
28D
100
AcDbEntity
  8
0
100
AcDbLine
 62
7
  6
CONTINUOUS
 10
53.8378278279
 20
36.8099233379
 11
53.87382783
 21
36.5939233254
  0
LINE
  5
28E
100
AcDbEntity
  8
0
100
AcDbLine
 62
7
  6
CONTINUOUS
 10
53.87382783
 20
36.5939233254
 11
53.8858278307
 21
36.3539233115
  0
LINE
  5
28F
100
AcDbEntity
  8
0
100
AcDbLine
 62
7
  6
CONTINUOUS
 10
53.8858278307
 20
36.3539233115
 11
53.87382783
 21
36.1259232983
  0
LINE
  5
290
100
AcDbEntity
  8
0
100
AcDbLine
 62
7
  6
CONTINUOUS
 10
53.87382783
 20
36.1259232983
 11
53.8498278286
 21
35.9099232858
  0
LINE
  5
291
100
AcDbEntity
  8
0
100
AcDbLine
 62
7
  6
CONTINUOUS
 10
53.8498278286
 20
35.9099232858
 11
53.7898278252
 21
35.705923274
  0
LINE
  5
292
100
AcDbEntity
  8
0
100
AcDbLine
 62
7
  6
CONTINUOUS
 10
53.7898278252
 20
35.705923274
 11
53.7058278203
 21
35.5019232622
  0
LINE
  5
293
100
AcDbEntity
  8
0
100
AcDbLine
 62
7
  6
CONTINUOUS
 10
53.7058278203
 20
35.5019232622
 11
53.5978278141
 21
35.309923251
  0
LINE
  5
294
100
AcDbEntity
  8
0
100
AcDbLine
 62
7
  6
CONTINUOUS
 10
53.5978278141
 20
35.309923251
 11
53.4658278064
 21
35.1179232399
  0
LINE
  5
295
100
AcDbEntity
  8
0
100
AcDbLine
 62
7
  6
CONTINUOUS
 10
53.4658278064
 20
35.1179232399
 11
53.3098277974
 21
34.9499232302
  0
LINE
  5
296
100
AcDbEntity
  8
0
100
AcDbLine
 62
7
  6
CONTINUOUS
 10
53.3098277974
 20
34.9499232302
 11
53.1178277863
 21
34.7939232212
  0
LINE
  5
297
100
AcDbEntity
  8
0
100
AcDbLine
 62
7
  6
CONTINUOUS
 10
53.1178277863
 20
34.7939232212
 11
52.9138277745
 21
34.6499232129
  0
LINE
  5
298
100
AcDbEntity
  8
0
100
AcDbLine
 62
7
  6
CONTINUOUS
 10
52.9138277745
 20
34.6499232129
 11
52.6738277606
 21
34.5179232052
  0
LINE
  5
299
100
AcDbEntity
  8
0
100
AcDbLine
 62
7
  6
CONTINUOUS
 10
52.6738277606
 20
34.5179232052
 11
52.4098277453
 21
34.3979231983
  0
LINE
  5
29A
100
AcDbEntity
  8
0
100
AcDbLine
 62
7
  6
CONTINUOUS
 10
52.4098277453
 20
34.3979231983
 11
52.1218277286
 21
34.3019231927
  0
LINE
  5
29B
100
AcDbEntity
  8
0
100
AcDbLine
 62
7
  6
CONTINUOUS
 10
52.1218277286
 20
34.3019231927
 11
51.8098277106
 21
34.2299231885
  0
LINE
  5
29C
100
AcDbEntity
  8
0
100
AcDbLine
 62
7
  6
CONTINUOUS
 10
51.8098277106
 20
34.2299231885
 11
51.4618276904
 21
34.1699231851
  0
LINE
  5
29D
100
AcDbEntity
  8
0
100
AcDbLine
 62
7
  6
CONTINUOUS
 10
51.4618276904
 20
34.1699231851
 11
51.0898276689
 21
34.133923183
  0
LINE
  5
29E
100
AcDbEntity
  8
0
100
AcDbLine
 62
7
  6
CONTINUOUS
 10
51.0898276689
 20
34.133923183
 11
50.6818276453
 21
34.1219231823
  0
LINE
  5
29F
100
AcDbEntity
  8
0
100
AcDbLine
 62
7
  6
CONTINUOUS
 10
45.6538273543
 20
40.5659235552
 11
45.6538273543
 21
41.0219235816
  0
LINE
  5
2A0
100
AcDbEntity
  8
0
100
AcDbLine
 62
7
  6
CONTINUOUS
 10
45.6538273543
 20
41.0219235816
 11
43.8778272516
 21
41.0219235816
  0
LINE
  5
2A1
100
AcDbEntity
  8
0
100
AcDbLine
 62
7
  6
CONTINUOUS
 10
43.8778272516
 20
41.0219235816
 11
43.8778272516
 21
40.5659235552
  0
LINE
  5
2A2
100
AcDbEntity
  8
0
100
AcDbLine
 62
7
  6
CONTINUOUS
 10
43.8778272516
 20
40.5659235552
 11
43.8778272516
 21
37.5059233781
  0
LINE
  5
2A3
100
AcDbEntity
  8
0
100
AcDbLine
 62
7
  6
CONTINUOUS
 10
43.8778272516
 20
37.5059233781
 11
40.7698270717
 21
41.0219235816
  0
LINE
  5
2A4
100
AcDbEntity
  8
0
100
AcDbLine
 62
7
  6
CONTINUOUS
 10
40.7698270717
 20
41.0219235816
 11
38.3938269342
 21
41.0219235816
  0
LINE
  5
2A5
100
AcDbEntity
  8
0
100
AcDbLine
 62
7
  6
CONTINUOUS
 10
38.3938269342
 20
41.0219235816
 11
38.3938269342
 21
40.5659235552
  0
LINE
  5
2A6
100
AcDbEntity
  8
0
100
AcDbLine
 62
7
  6
CONTINUOUS
 10
38.3938269342
 20
40.5659235552
 11
38.3938269342
 21
34.6619232135
  0
LINE
  5
2A7
100
AcDbEntity
  8
0
100
AcDbLine
 62
7
  6
CONTINUOUS
 10
38.3938269342
 20
34.6619232135
 11
38.3938269342
 21
34.1939231865
  0
LINE
  5
2A8
100
AcDbEntity
  8
0
100
AcDbLine
 62
7
  6
CONTINUOUS
 10
38.3938269342
 20
34.1939231865
 11
40.169827037
 21
34.1939231865
  0
LINE
  5
2A9
100
AcDbEntity
  8
0
100
AcDbLine
 62
7
  6
CONTINUOUS
 10
40.169827037
 20
34.1939231865
 11
40.169827037
 21
34.6619232135
  0
LINE
  5
2AA
100
AcDbEntity
  8
0
100
AcDbLine
 62
7
  6
CONTINUOUS
 10
40.169827037
 20
34.6619232135
 11
40.169827037
 21
38.729923449
  0
LINE
  5
2AB
100
AcDbEntity
  8
0
100
AcDbLine
 62
7
  6
CONTINUOUS
 10
40.169827037
 20
38.729923449
 11
40.1938270384
 21
38.7539234504
  0
LINE
  5
2AC
100
AcDbEntity
  8
0
100
AcDbLine
 62
7
  6
CONTINUOUS
 10
40.1938270384
 20
38.7539234504
 11
44.2618272738
 21
34.1939231865
  0
LINE
  5
2AD
100
AcDbEntity
  8
0
100
AcDbLine
 62
7
  6
CONTINUOUS
 10
44.2618272738
 20
34.1939231865
 11
45.6538273543
 21
34.1939231865
  0
LINE
  5
2AE
100
AcDbEntity
  8
0
100
AcDbLine
 62
7
  6
CONTINUOUS
 10
45.6538273543
 20
34.1939231865
 11
45.6538273543
 21
34.6619232135
  0
LINE
  5
2AF
100
AcDbEntity
  8
0
100
AcDbLine
 62
7
  6
CONTINUOUS
 10
45.6538273543
 20
34.6619232135
 11
45.6538273543
 21
40.5659235552
  0
LINE
  5
2B0
100
AcDbEntity
  8
0
100
AcDbLine
 62
7
  6
CONTINUOUS
 10
65.381828496
 20
41.0339235823
 11
65.0338284759
 21
41.0219235816
  0
LINE
  5
2B1
100
AcDbEntity
  8
0
100
AcDbLine
 62
7
  6
CONTINUOUS
 10
65.0338284759
 20
41.0219235816
 11
64.6978284564
 21
40.9859235795
  0
LINE
  5
2B2
100
AcDbEntity
  8
0
100
AcDbLine
 62
7
  6
CONTINUOUS
 10
64.6978284564
 20
40.9859235795
 11
64.3498284363
 21
40.925923576
  0
LINE
  5
2B3
100
AcDbEntity
  8
0
100
AcDbLine
 62
7
  6
CONTINUOUS
 10
64.3498284363
 20
40.925923576
 11
64.0018284161
 21
40.8299235705
  0
LINE
  5
2B4
100
AcDbEntity
  8
0
100
AcDbLine
 62
7
  6
CONTINUOUS
 10
64.0018284161
 20
40.8299235705
 11
63.6778283974
 21
40.7219235642
  0
LINE
  5
2B5
100
AcDbEntity
  8
0
100
AcDbLine
 62
7
  6
CONTINUOUS
 10
63.6778283974
 20
40.7219235642
 11
63.3538283786
 21
40.5779235559
  0
LINE
  5
2B6
100
AcDbEntity
  8
0
100
AcDbLine
 62
7
  6
CONTINUOUS
 10
63.3538283786
 20
40.5779235559
 11
63.0418283606
 21
40.4099235462
  0
LINE
  5
2B7
100
AcDbEntity
  8
0
100
AcDbLine
 62
7
  6
CONTINUOUS
 10
63.0418283606
 20
40.4099235462
 11
62.7538283439
 21
40.2179235351
  0
LINE
  5
2B8
100
AcDbEntity
  8
0
100
AcDbLine
 62
7
  6
CONTINUOUS
 10
62.7538283439
 20
40.2179235351
 11
62.4898283286
 21
39.9899235219
  0
LINE
  5
2B9
100
AcDbEntity
  8
0
100
AcDbLine
 62
7
  6
CONTINUOUS
 10
62.4898283286
 20
39.9899235219
 11
62.2378283141
 21
39.7379235073
  0
LINE
  5
2BA
100
AcDbEntity
  8
0
100
AcDbLine
 62
7
  6
CONTINUOUS
 10
62.2378283141
 20
39.7379235073
 11
62.0218283016
 21
39.4499234906
  0
LINE
  5
2BB
100
AcDbEntity
  8
0
100
AcDbLine
 62
7
  6
CONTINUOUS
 10
62.0218283016
 20
39.4499234906
 11
61.8418282911
 21
39.1379234726
  0
LINE
  5
2BC
100
AcDbEntity
  8
0
100
AcDbLine
 62
7
  6
CONTINUOUS
 10
61.8418282911
 20
39.1379234726
 11
61.6978282828
 21
38.7899234524
  0
LINE
  5
2BD
100
AcDbEntity
  8
0
100
AcDbLine
 62
7
  6
CONTINUOUS
 10
61.6978282828
 20
38.7899234524
 11
61.5898282766
 21
38.4179234309
  0
LINE
  5
2BE
100
AcDbEntity
  8
0
100
AcDbLine
 62
7
  6
CONTINUOUS
 10
61.5898282766
 20
38.4179234309
 11
61.5178282724
 21
38.0099234073
  0
LINE
  5
2BF
100
AcDbEntity
  8
0
100
AcDbLine
 62
7
  6
CONTINUOUS
 10
61.5178282724
 20
38.0099234073
 11
61.493828271
 21
37.5779233823
  0
LINE
  5
2C0
100
AcDbEntity
  8
0
100
AcDbLine
 62
7
  6
CONTINUOUS
 10
61.493828271
 20
37.5779233823
 11
61.5178282724
 21
37.1339233566
  0
LINE
  5
2C1
100
AcDbEntity
  8
0
100
AcDbLine
 62
7
  6
CONTINUOUS
 10
61.5178282724
 20
37.1339233566
 11
61.5898282766
 21
36.7379233337
  0
LINE
  5
2C2
100
AcDbEntity
  8
0
100
AcDbLine
 62
7
  6
CONTINUOUS
 10
61.5898282766
 20
36.7379233337
 11
61.6978282828
 21
36.3659233122
  0
LINE
  5
2C3
100
AcDbEntity
  8
0
100
AcDbLine
 62
7
  6
CONTINUOUS
 10
61.6978282828
 20
36.3659233122
 11
61.8418282911
 21
36.017923292
  0
LINE
  5
2C4
100
AcDbEntity
  8
0
100
AcDbLine
 62
7
  6
CONTINUOUS
 10
61.8418282911
 20
36.017923292
 11
62.0218283016
 21
35.705923274
  0
LINE
  5
2C5
100
AcDbEntity
  8
0
100
AcDbLine
 62
7
  6
CONTINUOUS
 10
62.0218283016
 20
35.705923274
 11
62.2378283141
 21
35.4179232573
  0
LINE
  5
2C6
100
AcDbEntity
  8
0
100
AcDbLine
 62
7
  6
CONTINUOUS
 10
62.2378283141
 20
35.4179232573
 11
62.4898283286
 21
35.1659232427
  0
LINE
  5
2C7
100
AcDbEntity
  8
0
100
AcDbLine
 62
7
  6
CONTINUOUS
 10
62.4898283286
 20
35.1659232427
 11
62.7538283439
 21
34.9379232295
  0
LINE
  5
2C8
100
AcDbEntity
  8
0
100
AcDbLine
 62
7
  6
CONTINUOUS
 10
62.7538283439
 20
34.9379232295
 11
63.0418283606
 21
34.7459232184
  0
LINE
  5
2C9
100
AcDbEntity
  8
0
100
AcDbLine
 62
7
  6
CONTINUOUS
 10
63.0418283606
 20
34.7459232184
 11
63.3538283786
 21
34.5779232087
  0
LINE
  5
2CA
100
AcDbEntity
  8
0
100
AcDbLine
 62
7
  6
CONTINUOUS
 10
63.3538283786
 20
34.5779232087
 11
63.6778283974
 21
34.4339232004
  0
LINE
  5
2CB
100
AcDbEntity
  8
0
100
AcDbLine
 62
7
  6
CONTINUOUS
 10
63.6778283974
 20
34.4339232004
 11
64.0018284161
 21
34.3139231934
  0
LINE
  5
2CC
100
AcDbEntity
  8
0
100
AcDbLine
 62
7
  6
CONTINUOUS
 10
64.0018284161
 20
34.3139231934
 11
64.3498284363
 21
34.2299231885
  0
LINE
  5
2CD
100
AcDbEntity
  8
0
100
AcDbLine
 62
7
  6
CONTINUOUS
 10
64.3498284363
 20
34.2299231885
 11
64.6978284564
 21
34.1699231851
  0
LINE
  5
2CE
100
AcDbEntity
  8
0
100
AcDbLine
 62
7
  6
CONTINUOUS
 10
64.6978284564
 20
34.1699231851
 11
65.0338284759
 21
34.133923183
  0
LINE
  5
2CF
100
AcDbEntity
  8
0
100
AcDbLine
 62
7
  6
CONTINUOUS
 10
65.0338284759
 20
34.133923183
 11
65.381828496
 21
34.1219231823
  0
LINE
  5
2D0
100
AcDbEntity
  8
0
100
AcDbLine
 62
7
  6
CONTINUOUS
 10
65.381828496
 20
34.1219231823
 11
65.7298285161
 21
34.133923183
  0
LINE
  5
2D1
100
AcDbEntity
  8
0
100
AcDbLine
 62
7
  6
CONTINUOUS
 10
65.7298285161
 20
34.133923183
 11
66.0778285363
 21
34.1699231851
  0
LINE
  5
2D2
100
AcDbEntity
  8
0
100
AcDbLine
 62
7
  6
CONTINUOUS
 10
66.0778285363
 20
34.1699231851
 11
66.4138285557
 21
34.2299231885
  0
LINE
  5
2D3
100
AcDbEntity
  8
0
100
AcDbLine
 62
7
  6
CONTINUOUS
 10
66.4138285557
 20
34.2299231885
 11
66.7618285759
 21
34.3139231934
  0
LINE
  5
2D4
100
AcDbEntity
  8
0
100
AcDbLine
 62
7
  6
CONTINUOUS
 10
66.7618285759
 20
34.3139231934
 11
67.0978285953
 21
34.4339232004
  0
LINE
  5
2D5
100
AcDbEntity
  8
0
100
AcDbLine
 62
7
  6
CONTINUOUS
 10
67.0978285953
 20
34.4339232004
 11
67.4098286134
 21
34.5779232087
  0
LINE
  5
2D6
100
AcDbEntity
  8
0
100
AcDbLine
 62
7
  6
CONTINUOUS
 10
67.4098286134
 20
34.5779232087
 11
67.7218286314
 21
34.7459232184
  0
LINE
  5
2D7
100
AcDbEntity
  8
0
100
AcDbLine
 62
7
  6
CONTINUOUS
 10
67.7218286314
 20
34.7459232184
 11
68.0098286481
 21
34.9379232295
  0
LINE
  5
2D8
100
AcDbEntity
  8
0
100
AcDbLine
 62
7
  6
CONTINUOUS
 10
68.0098286481
 20
34.9379232295
 11
68.2858286641
 21
35.1659232427
  0
LINE
  5
2D9
100
AcDbEntity
  8
0
100
AcDbLine
 62
7
  6
CONTINUOUS
 10
68.2858286641
 20
35.1659232427
 11
68.5258286779
 21
35.4179232573
  0
LINE
  5
2DA
100
AcDbEntity
  8
0
100
AcDbLine
 62
7
  6
CONTINUOUS
 10
68.5258286779
 20
35.4179232573
 11
68.7418286904
 21
35.705923274
  0
LINE
  5
2DB
100
AcDbEntity
  8
0
100
AcDbLine
 62
7
  6
CONTINUOUS
 10
68.7418286904
 20
35.705923274
 11
68.9218287009
 21
36.017923292
  0
LINE
  5
2DC
100
AcDbEntity
  8
0
100
AcDbLine
 62
7
  6
CONTINUOUS
 10
68.9218287009
 20
36.017923292
 11
69.0658287092
 21
36.3659233122
  0
LINE
  5
2DD
100
AcDbEntity
  8
0
100
AcDbLine
 62
7
  6
CONTINUOUS
 10
69.0658287092
 20
36.3659233122
 11
69.1858287161
 21
36.7379233337
  0
LINE
  5
2DE
100
AcDbEntity
  8
0
100
AcDbLine
 62
7
  6
CONTINUOUS
 10
69.1858287161
 20
36.7379233337
 11
69.2458287196
 21
37.1339233566
  0
LINE
  5
2DF
100
AcDbEntity
  8
0
100
AcDbLine
 62
7
  6
CONTINUOUS
 10
69.2458287196
 20
37.1339233566
 11
69.269828721
 21
37.5779233823
  0
LINE
  5
2E0
100
AcDbEntity
  8
0
100
AcDbLine
 62
7
  6
CONTINUOUS
 10
69.269828721
 20
37.5779233823
 11
69.2458287196
 21
38.0099234073
  0
LINE
  5
2E1
100
AcDbEntity
  8
0
100
AcDbLine
 62
7
  6
CONTINUOUS
 10
69.2458287196
 20
38.0099234073
 11
69.1858287161
 21
38.4179234309
  0
LINE
  5
2E2
100
AcDbEntity
  8
0
100
AcDbLine
 62
7
  6
CONTINUOUS
 10
69.1858287161
 20
38.4179234309
 11
69.0658287092
 21
38.7899234524
  0
LINE
  5
2E3
100
AcDbEntity
  8
0
100
AcDbLine
 62
7
  6
CONTINUOUS
 10
69.0658287092
 20
38.7899234524
 11
68.9218287009
 21
39.1379234726
  0
LINE
  5
2E4
100
AcDbEntity
  8
0
100
AcDbLine
 62
7
  6
CONTINUOUS
 10
68.9218287009
 20
39.1379234726
 11
68.7418286904
 21
39.4499234906
  0
LINE
  5
2E5
100
AcDbEntity
  8
0
100
AcDbLine
 62
7
  6
CONTINUOUS
 10
68.7418286904
 20
39.4499234906
 11
68.5258286779
 21
39.7379235073
  0
LINE
  5
2E6
100
AcDbEntity
  8
0
100
AcDbLine
 62
7
  6
CONTINUOUS
 10
68.5258286779
 20
39.7379235073
 11
68.2858286641
 21
39.9899235219
  0
LINE
  5
2E7
100
AcDbEntity
  8
0
100
AcDbLine
 62
7
  6
CONTINUOUS
 10
68.2858286641
 20
39.9899235219
 11
68.0098286481
 21
40.2179235351
  0
LINE
  5
2E8
100
AcDbEntity
  8
0
100
AcDbLine
 62
7
  6
CONTINUOUS
 10
68.0098286481
 20
40.2179235351
 11
67.7218286314
 21
40.4099235462
  0
LINE
  5
2E9
100
AcDbEntity
  8
0
100
AcDbLine
 62
7
  6
CONTINUOUS
 10
67.7218286314
 20
40.4099235462
 11
67.4098286134
 21
40.5779235559
  0
LINE
  5
2EA
100
AcDbEntity
  8
0
100
AcDbLine
 62
7
  6
CONTINUOUS
 10
67.4098286134
 20
40.5779235559
 11
67.0978285953
 21
40.7219235642
  0
LINE
  5
2EB
100
AcDbEntity
  8
0
100
AcDbLine
 62
7
  6
CONTINUOUS
 10
67.0978285953
 20
40.7219235642
 11
66.7618285759
 21
40.8299235705
  0
LINE
  5
2EC
100
AcDbEntity
  8
0
100
AcDbLine
 62
7
  6
CONTINUOUS
 10
66.7618285759
 20
40.8299235705
 11
66.4138285557
 21
40.925923576
  0
LINE
  5
2ED
100
AcDbEntity
  8
0
100
AcDbLine
 62
7
  6
CONTINUOUS
 10
66.4138285557
 20
40.925923576
 11
66.0778285363
 21
40.9859235795
  0
LINE
  5
2EE
100
AcDbEntity
  8
0
100
AcDbLine
 62
7
  6
CONTINUOUS
 10
66.0778285363
 20
40.9859235795
 11
65.7298285161
 21
41.0219235816
  0
LINE
  5
2EF
100
AcDbEntity
  8
0
100
AcDbLine
 62
7
  6
CONTINUOUS
 10
65.7298285161
 20
41.0219235816
 11
65.381828496
 21
41.0339235823
  0
LINE
  5
2F0
100
AcDbEntity
  8
0
100
AcDbLine
 62
7
  6
CONTINUOUS
 10
65.381828496
 20
39.4139234885
 11
65.5858285078
 21
39.4019234879
  0
LINE
  5
2F1
100
AcDbEntity
  8
0
100
AcDbLine
 62
7
  6
CONTINUOUS
 10
65.5858285078
 20
39.4019234879
 11
65.7898285196
 21
39.3779234865
  0
LINE
  5
2F2
100
AcDbEntity
  8
0
100
AcDbLine
 62
7
  6
CONTINUOUS
 10
65.7898285196
 20
39.3779234865
 11
65.9818285307
 21
39.3419234844
  0
LINE
  5
2F3
100
AcDbEntity
  8
0
100
AcDbLine
 62
7
  6
CONTINUOUS
 10
65.9818285307
 20
39.3419234844
 11
66.1618285411
 21
39.2819234809
  0
LINE
  5
2F4
100
AcDbEntity
  8
0
100
AcDbLine
 62
7
  6
CONTINUOUS
 10
66.1618285411
 20
39.2819234809
 11
66.3418285516
 21
39.2099234767
  0
LINE
  5
2F5
100
AcDbEntity
  8
0
100
AcDbLine
 62
7
  6
CONTINUOUS
 10
66.3418285516
 20
39.2099234767
 11
66.4978285606
 21
39.1259234719
  0
LINE
  5
2F6
100
AcDbEntity
  8
0
100
AcDbLine
 62
7
  6
CONTINUOUS
 10
66.4978285606
 20
39.1259234719
 11
66.6538285696
 21
39.0299234663
  0
LINE
  5
2F7
100
AcDbEntity
  8
0
100
AcDbLine
 62
7
  6
CONTINUOUS
 10
66.6538285696
 20
39.0299234663
 11
66.7978285779
 21
38.9219234601
  0
LINE
  5
2F8
100
AcDbEntity
  8
0
100
AcDbLine
 62
7
  6
CONTINUOUS
 10
66.7978285779
 20
38.9219234601
 11
66.9298285856
 21
38.7899234524
  0
LINE
  5
2F9
100
AcDbEntity
  8
0
100
AcDbLine
 62
7
  6
CONTINUOUS
 10
66.9298285856
 20
38.7899234524
 11
67.0378285918
 21
38.6579234448
  0
LINE
  5
2FA
100
AcDbEntity
  8
0
100
AcDbLine
 62
7
  6
CONTINUOUS
 10
67.0378285918
 20
38.6579234448
 11
67.1338285974
 21
38.5019234358
  0
LINE
  5
2FB
100
AcDbEntity
  8
0
100
AcDbLine
 62
7
  6
CONTINUOUS
 10
67.1338285974
 20
38.5019234358
 11
67.2178286023
 21
38.3459234267
  0
LINE
  5
2FC
100
AcDbEntity
  8
0
100
AcDbLine
 62
7
  6
CONTINUOUS
 10
67.2178286023
 20
38.3459234267
 11
67.2898286064
 21
38.1659234163
  0
LINE
  5
2FD
100
AcDbEntity
  8
0
100
AcDbLine
 62
7
  6
CONTINUOUS
 10
67.2898286064
 20
38.1659234163
 11
67.3378286092
 21
37.9859234059
  0
LINE
  5
2FE
100
AcDbEntity
  8
0
100
AcDbLine
 62
7
  6
CONTINUOUS
 10
67.3378286092
 20
37.9859234059
 11
67.3738286113
 21
37.7819233941
  0
LINE
  5
2FF
100
AcDbEntity
  8
0
100
AcDbLine
 62
7
  6
CONTINUOUS
 10
67.3738286113
 20
37.7819233941
 11
67.3738286113
 21
37.5779233823
  0
LINE
  5
300
100
AcDbEntity
  8
0
100
AcDbLine
 62
7
  6
CONTINUOUS
 10
67.3738286113
 20
37.5779233823
 11
67.3738286113
 21
37.3739233705
  0
LINE
  5
301
100
AcDbEntity
  8
0
100
AcDbLine
 62
7
  6
CONTINUOUS
 10
67.3738286113
 20
37.3739233705
 11
67.3378286092
 21
37.1699233587
  0
LINE
  5
302
100
AcDbEntity
  8
0
100
AcDbLine
 62
7
  6
CONTINUOUS
 10
67.3378286092
 20
37.1699233587
 11
67.2898286064
 21
36.9899233483
  0
LINE
  5
303
100
AcDbEntity
  8
0
100
AcDbLine
 62
7
  6
CONTINUOUS
 10
67.2898286064
 20
36.9899233483
 11
67.2178286023
 21
36.8099233379
  0
LINE
  5
304
100
AcDbEntity
  8
0
100
AcDbLine
 62
7
  6
CONTINUOUS
 10
67.2178286023
 20
36.8099233379
 11
67.1338285974
 21
36.6539233288
  0
LINE
  5
305
100
AcDbEntity
  8
0
100
AcDbLine
 62
7
  6
CONTINUOUS
 10
67.1338285974
 20
36.6539233288
 11
67.0378285918
 21
36.4979233198
  0
LINE
  5
306
100
AcDbEntity
  8
0
100
AcDbLine
 62
7
  6
CONTINUOUS
 10
67.0378285918
 20
36.4979233198
 11
66.9298285856
 21
36.3539233115
  0
LINE
  5
307
100
AcDbEntity
  8
0
100
AcDbLine
 62
7
  6
CONTINUOUS
 10
66.9298285856
 20
36.3539233115
 11
66.7978285779
 21
36.2339233045
  0
LINE
  5
308
100
AcDbEntity
  8
0
100
AcDbLine
 62
7
  6
CONTINUOUS
 10
66.7978285779
 20
36.2339233045
 11
66.6538285696
 21
36.1259232983
  0
LINE
  5
309
100
AcDbEntity
  8
0
100
AcDbLine
 62
7
  6
CONTINUOUS
 10
66.6538285696
 20
36.1259232983
 11
66.4978285606
 21
36.017923292
  0
LINE
  5
30A
100
AcDbEntity
  8
0
100
AcDbLine
 62
7
  6
CONTINUOUS
 10
66.4978285606
 20
36.017923292
 11
66.3418285516
 21
35.9339232872
  0
LINE
  5
30B
100
AcDbEntity
  8
0
100
AcDbLine
 62
7
  6
CONTINUOUS
 10
66.3418285516
 20
35.9339232872
 11
66.1618285411
 21
35.8739232837
  0
LINE
  5
30C
100
AcDbEntity
  8
0
100
AcDbLine
 62
7
  6
CONTINUOUS
 10
66.1618285411
 20
35.8739232837
 11
65.9818285307
 21
35.8139232802
  0
LINE
  5
30D
100
AcDbEntity
  8
0
100
AcDbLine
 62
7
  6
CONTINUOUS
 10
65.9818285307
 20
35.8139232802
 11
65.7898285196
 21
35.7779232781
  0
LINE
  5
30E
100
AcDbEntity
  8
0
100
AcDbLine
 62
7
  6
CONTINUOUS
 10
65.7898285196
 20
35.7779232781
 11
65.5858285078
 21
35.7539232767
  0
LINE
  5
30F
100
AcDbEntity
  8
0
100
AcDbLine
 62
7
  6
CONTINUOUS
 10
65.5858285078
 20
35.7539232767
 11
65.381828496
 21
35.741923276
  0
LINE
  5
310
100
AcDbEntity
  8
0
100
AcDbLine
 62
7
  6
CONTINUOUS
 10
65.381828496
 20
35.741923276
 11
65.1778284842
 21
35.7539232767
  0
LINE
  5
311
100
AcDbEntity
  8
0
100
AcDbLine
 62
7
  6
CONTINUOUS
 10
65.1778284842
 20
35.7539232767
 11
64.9738284724
 21
35.7779232781
  0
LINE
  5
312
100
AcDbEntity
  8
0
100
AcDbLine
 62
7
  6
CONTINUOUS
 10
64.9738284724
 20
35.7779232781
 11
64.7818284613
 21
35.8139232802
  0
LINE
  5
313
100
AcDbEntity
  8
0
100
AcDbLine
 62
7
  6
CONTINUOUS
 10
64.7818284613
 20
35.8139232802
 11
64.6018284509
 21
35.8739232837
  0
LINE
  5
314
100
AcDbEntity
  8
0
100
AcDbLine
 62
7
  6
CONTINUOUS
 10
64.6018284509
 20
35.8739232837
 11
64.4338284411
 21
35.9339232872
  0
LINE
  5
315
100
AcDbEntity
  8
0
100
AcDbLine
 62
7
  6
CONTINUOUS
 10
64.4338284411
 20
35.9339232872
 11
64.2658284314
 21
36.017923292
  0
LINE
  5
316
100
AcDbEntity
  8
0
100
AcDbLine
 62
7
  6
CONTINUOUS
 10
64.2658284314
 20
36.017923292
 11
64.1098284224
 21
36.1259232983
  0
LINE
  5
317
100
AcDbEntity
  8
0
100
AcDbLine
 62
7
  6
CONTINUOUS
 10
64.1098284224
 20
36.1259232983
 11
63.9658284141
 21
36.2339233045
  0
LINE
  5
318
100
AcDbEntity
  8
0
100
AcDbLine
 62
7
  6
CONTINUOUS
 10
63.9658284141
 20
36.2339233045
 11
63.8458284071
 21
36.3539233115
  0
LINE
  5
319
100
AcDbEntity
  8
0
100
AcDbLine
 62
7
  6
CONTINUOUS
 10
63.8458284071
 20
36.3539233115
 11
63.7258284002
 21
36.4979233198
  0
LINE
  5
31A
100
AcDbEntity
  8
0
100
AcDbLine
 62
7
  6
CONTINUOUS
 10
63.7258284002
 20
36.4979233198
 11
63.6298283946
 21
36.6539233288
  0
LINE
  5
31B
100
AcDbEntity
  8
0
100
AcDbLine
 62
7
  6
CONTINUOUS
 10
63.6298283946
 20
36.6539233288
 11
63.5458283898
 21
36.8099233379
  0
LINE
  5
31C
100
AcDbEntity
  8
0
100
AcDbLine
 62
7
  6
CONTINUOUS
 10
63.5458283898
 20
36.8099233379
 11
63.4738283856
 21
36.9899233483
  0
LINE
  5
31D
100
AcDbEntity
  8
0
100
AcDbLine
 62
7
  6
CONTINUOUS
 10
63.4738283856
 20
36.9899233483
 11
63.4258283828
 21
37.1699233587
  0
LINE
  5
31E
100
AcDbEntity
  8
0
100
AcDbLine
 62
7
  6
CONTINUOUS
 10
63.4258283828
 20
37.1699233587
 11
63.4018283814
 21
37.3739233705
  0
LINE
  5
31F
100
AcDbEntity
  8
0
100
AcDbLine
 62
7
  6
CONTINUOUS
 10
63.4018283814
 20
37.3739233705
 11
63.3898283807
 21
37.5779233823
  0
LINE
  5
320
100
AcDbEntity
  8
0
100
AcDbLine
 62
7
  6
CONTINUOUS
 10
63.3898283807
 20
37.5779233823
 11
63.4018283814
 21
37.7819233941
  0
LINE
  5
321
100
AcDbEntity
  8
0
100
AcDbLine
 62
7
  6
CONTINUOUS
 10
63.4018283814
 20
37.7819233941
 11
63.4258283828
 21
37.9859234059
  0
LINE
  5
322
100
AcDbEntity
  8
0
100
AcDbLine
 62
7
  6
CONTINUOUS
 10
63.4258283828
 20
37.9859234059
 11
63.4738283856
 21
38.1659234163
  0
LINE
  5
323
100
AcDbEntity
  8
0
100
AcDbLine
 62
7
  6
CONTINUOUS
 10
63.4738283856
 20
38.1659234163
 11
63.5458283898
 21
38.3459234267
  0
LINE
  5
324
100
AcDbEntity
  8
0
100
AcDbLine
 62
7
  6
CONTINUOUS
 10
63.5458283898
 20
38.3459234267
 11
63.6298283946
 21
38.5019234358
  0
LINE
  5
325
100
AcDbEntity
  8
0
100
AcDbLine
 62
7
  6
CONTINUOUS
 10
63.6298283946
 20
38.5019234358
 11
63.7258284002
 21
38.6579234448
  0
LINE
  5
326
100
AcDbEntity
  8
0
100
AcDbLine
 62
7
  6
CONTINUOUS
 10
63.7258284002
 20
38.6579234448
 11
63.8458284071
 21
38.7899234524
  0
LINE
  5
327
100
AcDbEntity
  8
0
100
AcDbLine
 62
7
  6
CONTINUOUS
 10
63.8458284071
 20
38.7899234524
 11
63.9658284141
 21
38.9219234601
  0
LINE
  5
328
100
AcDbEntity
  8
0
100
AcDbLine
 62
7
  6
CONTINUOUS
 10
63.9658284141
 20
38.9219234601
 11
64.1098284224
 21
39.0299234663
  0
LINE
  5
329
100
AcDbEntity
  8
0
100
AcDbLine
 62
7
  6
CONTINUOUS
 10
64.1098284224
 20
39.0299234663
 11
64.2658284314
 21
39.1259234719
  0
LINE
  5
32A
100
AcDbEntity
  8
0
100
AcDbLine
 62
7
  6
CONTINUOUS
 10
64.2658284314
 20
39.1259234719
 11
64.4338284411
 21
39.2099234767
  0
LINE
  5
32B
100
AcDbEntity
  8
0
100
AcDbLine
 62
7
  6
CONTINUOUS
 10
64.4338284411
 20
39.2099234767
 11
64.6018284509
 21
39.2819234809
  0
LINE
  5
32C
100
AcDbEntity
  8
0
100
AcDbLine
 62
7
  6
CONTINUOUS
 10
64.6018284509
 20
39.2819234809
 11
64.7818284613
 21
39.3419234844
  0
LINE
  5
32D
100
AcDbEntity
  8
0
100
AcDbLine
 62
7
  6
CONTINUOUS
 10
64.7818284613
 20
39.3419234844
 11
64.9738284724
 21
39.3779234865
  0
LINE
  5
32E
100
AcDbEntity
  8
0
100
AcDbLine
 62
7
  6
CONTINUOUS
 10
64.9738284724
 20
39.3779234865
 11
65.1778284842
 21
39.4019234879
  0
LINE
  5
32F
100
AcDbEntity
  8
0
100
AcDbLine
 62
7
  6
CONTINUOUS
 10
65.1778284842
 20
39.4019234879
 11
65.381828496
 21
39.4139234885
  0
LINE
  5
330
100
AcDbEntity
  8
0
100
AcDbLine
 62
7
  6
CONTINUOUS
 10
33.3658266432
 20
34.1819231858
 11
33.0298266238
 21
34.1939231865
  0
LINE
  5
331
100
AcDbEntity
  8
0
100
AcDbLine
 62
7
  6
CONTINUOUS
 10
33.0298266238
 20
34.1939231865
 11
32.6818266036
 21
34.2419231892
  0
LINE
  5
332
100
AcDbEntity
  8
0
100
AcDbLine
 62
7
  6
CONTINUOUS
 10
32.6818266036
 20
34.2419231892
 11
32.3458265842
 21
34.3019231927
  0
LINE
  5
333
100
AcDbEntity
  8
0
100
AcDbLine
 62
7
  6
CONTINUOUS
 10
32.3458265842
 20
34.3019231927
 11
32.0098265648
 21
34.3859231976
  0
LINE
  5
334
100
AcDbEntity
  8
0
100
AcDbLine
 62
7
  6
CONTINUOUS
 10
32.0098265648
 20
34.3859231976
 11
31.6738265453
 21
34.4939232038
  0
LINE
  5
335
100
AcDbEntity
  8
0
100
AcDbLine
 62
7
  6
CONTINUOUS
 10
31.6738265453
 20
34.4939232038
 11
31.3618265273
 21
34.6379232122
  0
LINE
  5
336
100
AcDbEntity
  8
0
100
AcDbLine
 62
7
  6
CONTINUOUS
 10
31.3618265273
 20
34.6379232122
 11
31.0498265092
 21
34.8059232219
  0
LINE
  5
337
100
AcDbEntity
  8
0
100
AcDbLine
 62
7
  6
CONTINUOUS
 10
31.0498265092
 20
34.8059232219
 11
30.7618264925
 21
34.997923233
  0
LINE
  5
338
100
AcDbEntity
  8
0
100
AcDbLine
 62
7
  6
CONTINUOUS
 10
30.7618264925
 20
34.997923233
 11
30.4978264773
 21
35.2259232462
  0
LINE
  5
339
100
AcDbEntity
  8
0
100
AcDbLine
 62
7
  6
CONTINUOUS
 10
30.4978264773
 20
35.2259232462
 11
30.2578264634
 21
35.4779232608
  0
LINE
  5
33A
100
AcDbEntity
  8
0
100
AcDbLine
 62
7
  6
CONTINUOUS
 10
30.2578264634
 20
35.4779232608
 11
30.0418264509
 21
35.7539232767
  0
LINE
  5
33B
100
AcDbEntity
  8
0
100
AcDbLine
 62
7
  6
CONTINUOUS
 10
30.0418264509
 20
35.7539232767
 11
29.8618264404
 21
36.0659232948
  0
LINE
  5
33C
100
AcDbEntity
  8
0
100
AcDbLine
 62
7
  6
CONTINUOUS
 10
29.8618264404
 20
36.0659232948
 11
29.7178264321
 21
36.4019233142
  0
LINE
  5
33D
100
AcDbEntity
  8
0
100
AcDbLine
 62
7
  6
CONTINUOUS
 10
29.7178264321
 20
36.4019233142
 11
29.6098264259
 21
36.7739233358
  0
LINE
  5
33E
100
AcDbEntity
  8
0
100
AcDbLine
 62
7
  6
CONTINUOUS
 10
29.6098264259
 20
36.7739233358
 11
29.5378264217
 21
37.1819233594
  0
LINE
  5
33F
100
AcDbEntity
  8
0
100
AcDbLine
 62
7
  6
CONTINUOUS
 10
29.5378264217
 20
37.1819233594
 11
29.5138264203
 21
37.6139233844
  0
LINE
  5
340
100
AcDbEntity
  8
0
100
AcDbLine
 62
7
  6
CONTINUOUS
 10
29.5138264203
 20
37.6139233844
 11
29.5378264217
 21
38.0459234094
  0
LINE
  5
341
100
AcDbEntity
  8
0
100
AcDbLine
 62
7
  6
CONTINUOUS
 10
29.5378264217
 20
38.0459234094
 11
29.6098264259
 21
38.4419234323
  0
LINE
  5
342
100
AcDbEntity
  8
0
100
AcDbLine
 62
7
  6
CONTINUOUS
 10
29.6098264259
 20
38.4419234323
 11
29.7178264321
 21
38.8139234538
  0
LINE
  5
343
100
AcDbEntity
  8
0
100
AcDbLine
 62
7
  6
CONTINUOUS
 10
29.7178264321
 20
38.8139234538
 11
29.8618264404
 21
39.161923474
  0
LINE
  5
344
100
AcDbEntity
  8
0
100
AcDbLine
 62
7
  6
CONTINUOUS
 10
29.8618264404
 20
39.161923474
 11
30.0418264509
 21
39.4619234913
  0
LINE
  5
345
100
AcDbEntity
  8
0
100
AcDbLine
 62
7
  6
CONTINUOUS
 10
30.0418264509
 20
39.4619234913
 11
30.2578264634
 21
39.749923508
  0
LINE
  5
346
100
AcDbEntity
  8
0
100
AcDbLine
 62
7
  6
CONTINUOUS
 10
30.2578264634
 20
39.749923508
 11
30.4978264773
 21
40.0019235226
  0
LINE
  5
347
100
AcDbEntity
  8
0
100
AcDbLine
 62
7
  6
CONTINUOUS
 10
30.4978264773
 20
40.0019235226
 11
30.7618264925
 21
40.2179235351
  0
LINE
  5
348
100
AcDbEntity
  8
0
100
AcDbLine
 62
7
  6
CONTINUOUS
 10
30.7618264925
 20
40.2179235351
 11
31.0498265092
 21
40.4099235462
  0
LINE
  5
349
100
AcDbEntity
  8
0
100
AcDbLine
 62
7
  6
CONTINUOUS
 10
31.0498265092
 20
40.4099235462
 11
31.3618265273
 21
40.5779235559
  0
LINE
  5
34A
100
AcDbEntity
  8
0
100
AcDbLine
 62
7
  6
CONTINUOUS
 10
31.3618265273
 20
40.5779235559
 11
31.6738265453
 21
40.7219235642
  0
LINE
  5
34B
100
AcDbEntity
  8
0
100
AcDbLine
 62
7
  6
CONTINUOUS
 10
31.6738265453
 20
40.7219235642
 11
32.0098265648
 21
40.8419235712
  0
LINE
  5
34C
100
AcDbEntity
  8
0
100
AcDbLine
 62
7
  6
CONTINUOUS
 10
32.0098265648
 20
40.8419235712
 11
32.3458265842
 21
40.925923576
  0
LINE
  5
34D
100
AcDbEntity
  8
0
100
AcDbLine
 62
7
  6
CONTINUOUS
 10
32.3458265842
 20
40.925923576
 11
32.6938266043
 21
40.9859235795
  0
LINE
  5
34E
100
AcDbEntity
  8
0
100
AcDbLine
 62
7
  6
CONTINUOUS
 10
32.6938266043
 20
40.9859235795
 11
33.0298266238
 21
41.0219235816
  0
LINE
  5
34F
100
AcDbEntity
  8
0
100
AcDbLine
 62
7
  6
CONTINUOUS
 10
33.0298266238
 20
41.0219235816
 11
33.3778266439
 21
41.0339235823
  0
LINE
  5
350
100
AcDbEntity
  8
0
100
AcDbLine
 62
7
  6
CONTINUOUS
 10
33.3778266439
 20
41.0339235823
 11
36.9538268509
 21
41.0339235823
  0
LINE
  5
351
100
AcDbEntity
  8
0
100
AcDbLine
 62
7
  6
CONTINUOUS
 10
36.9538268509
 20
41.0339235823
 11
36.2578268106
 21
39.4259234892
  0
LINE
  5
352
100
AcDbEntity
  8
0
100
AcDbLine
 62
7
  6
CONTINUOUS
 10
36.2578268106
 20
39.4259234892
 11
33.3898266446
 21
39.4259234892
  0
LINE
  5
353
100
AcDbEntity
  8
0
100
AcDbLine
 62
7
  6
CONTINUOUS
 10
33.3898266446
 20
39.4259234892
 11
33.0778266266
 21
39.4139234885
  0
LINE
  5
354
100
AcDbEntity
  8
0
100
AcDbLine
 62
7
  6
CONTINUOUS
 10
33.0778266266
 20
39.4139234885
 11
32.7778266092
 21
39.3539234851
  0
LINE
  5
355
100
AcDbEntity
  8
0
100
AcDbLine
 62
7
  6
CONTINUOUS
 10
32.7778266092
 20
39.3539234851
 11
32.5018265932
 21
39.2579234795
  0
LINE
  5
356
100
AcDbEntity
  8
0
100
AcDbLine
 62
7
  6
CONTINUOUS
 10
32.5018265932
 20
39.2579234795
 11
32.2498265786
 21
39.1259234719
  0
LINE
  5
357
100
AcDbEntity
  8
0
100
AcDbLine
 62
7
  6
CONTINUOUS
 10
32.2498265786
 20
39.1259234719
 11
32.0218265654
 21
38.9699234629
  0
LINE
  5
358
100
AcDbEntity
  8
0
100
AcDbLine
 62
7
  6
CONTINUOUS
 10
32.0218265654
 20
38.9699234629
 11
31.8298265543
 21
38.7779234517
  0
LINE
  5
359
100
AcDbEntity
  8
0
100
AcDbLine
 62
7
  6
CONTINUOUS
 10
31.8298265543
 20
38.7779234517
 11
31.6618265446
 21
38.5499234385
  0
LINE
  5
35A
100
AcDbEntity
  8
0
100
AcDbLine
 62
7
  6
CONTINUOUS
 10
31.6618265446
 20
38.5499234385
 11
31.5418265377
 21
38.297923424
  0
LINE
  5
35B
100
AcDbEntity
  8
0
100
AcDbLine
 62
7
  6
CONTINUOUS
 10
31.5418265377
 20
38.297923424
 11
35.0458267404
 21
38.297923424
  0
LINE
  5
35C
100
AcDbEntity
  8
0
100
AcDbLine
 62
7
  6
CONTINUOUS
 10
35.0458267404
 20
38.297923424
 11
35.0458267404
 21
36.9179233441
  0
LINE
  5
35D
100
AcDbEntity
  8
0
100
AcDbLine
 62
7
  6
CONTINUOUS
 10
35.0458267404
 20
36.9179233441
 11
31.5418265377
 21
36.9179233441
  0
LINE
  5
35E
100
AcDbEntity
  8
0
100
AcDbLine
 62
7
  6
CONTINUOUS
 10
31.5418265377
 20
36.9179233441
 11
31.6618265446
 21
36.6659233295
  0
LINE
  5
35F
100
AcDbEntity
  8
0
100
AcDbLine
 62
7
  6
CONTINUOUS
 10
31.6618265446
 20
36.6659233295
 11
31.8298265543
 21
36.449923317
  0
LINE
  5
360
100
AcDbEntity
  8
0
100
AcDbLine
 62
7
  6
CONTINUOUS
 10
31.8298265543
 20
36.449923317
 11
32.0218265654
 21
36.2579233059
  0
LINE
  5
361
100
AcDbEntity
  8
0
100
AcDbLine
 62
7
  6
CONTINUOUS
 10
32.0218265654
 20
36.2579233059
 11
32.2498265786
 21
36.0899232962
  0
LINE
  5
362
100
AcDbEntity
  8
0
100
AcDbLine
 62
7
  6
CONTINUOUS
 10
32.2498265786
 20
36.0899232962
 11
32.5018265932
 21
35.9579232885
  0
LINE
  5
363
100
AcDbEntity
  8
0
100
AcDbLine
 62
7
  6
CONTINUOUS
 10
32.5018265932
 20
35.9579232885
 11
32.7778266092
 21
35.8739232837
  0
LINE
  5
364
100
AcDbEntity
  8
0
100
AcDbLine
 62
7
  6
CONTINUOUS
 10
32.7778266092
 20
35.8739232837
 11
33.0778266266
 21
35.8139232802
  0
LINE
  5
365
100
AcDbEntity
  8
0
100
AcDbLine
 62
7
  6
CONTINUOUS
 10
33.0778266266
 20
35.8139232802
 11
33.3898266446
 21
35.7899232788
  0
LINE
  5
366
100
AcDbEntity
  8
0
100
AcDbLine
 62
7
  6
CONTINUOUS
 10
33.3898266446
 20
35.7899232788
 11
36.9538268509
 21
35.7899232788
  0
LINE
  5
367
100
AcDbEntity
  8
0
100
AcDbLine
 62
7
  6
CONTINUOUS
 10
36.9538268509
 20
35.7899232788
 11
36.2578268106
 21
34.1939231865
  0
LINE
  5
368
100
AcDbEntity
  8
0
100
AcDbLine
 62
7
  6
CONTINUOUS
 10
36.2578268106
 20
34.1939231865
 11
33.3778266439
 21
34.1819231858
  0
LINE
  5
369
100
AcDbEntity
  8
0
100
AcDbLine
 62
7
  6
CONTINUOUS
 10
33.3778266439
 20
34.1819231858
 11
33.3658266432
 21
34.1819231858
  0
LINE
  5
36A
100
AcDbEntity
  8
0
100
AcDbLine
 62
7
  6
CONTINUOUS
 10
56.8138280002
 20
34.1939231865
 11
56.8138280002
 21
39.4259234892
  0
LINE
  5
36B
100
AcDbEntity
  8
0
100
AcDbLine
 62
7
  6
CONTINUOUS
 10
56.8138280002
 20
39.4259234892
 11
54.2098278495
 21
39.4379234899
  0
LINE
  5
36C
100
AcDbEntity
  8
0
100
AcDbLine
 62
7
  6
CONTINUOUS
 10
54.2098278495
 20
39.4379234899
 11
54.8818278884
 21
41.0219235816
  0
LINE
  5
36D
100
AcDbEntity
  8
0
100
AcDbLine
 62
7
  6
CONTINUOUS
 10
54.8818278884
 20
41.0219235816
 11
60.8218282321
 21
41.0219235816
  0
LINE
  5
36E
100
AcDbEntity
  8
0
100
AcDbLine
 62
7
  6
CONTINUOUS
 10
60.8218282321
 20
41.0219235816
 11
61.5058282717
 21
39.4379234899
  0
LINE
  5
36F
100
AcDbEntity
  8
0
100
AcDbLine
 62
7
  6
CONTINUOUS
 10
61.5058282717
 20
39.4379234899
 11
58.9258281224
 21
39.4379234899
  0
LINE
  5
370
100
AcDbEntity
  8
0
100
AcDbLine
 62
7
  6
CONTINUOUS
 10
58.9258281224
 20
39.4379234899
 11
58.9258281224
 21
34.1939231865
  0
LINE
  5
371
100
AcDbEntity
  8
0
100
AcDbLine
 62
7
  6
CONTINUOUS
 10
58.9258281224
 20
34.1939231865
 11
56.8138280002
 21
34.1939231865
  0
ENDBLK
  5
372
100
AcDbEntity
  8
0
  6
BYBLOCK
 62
0
100
AcDbBlockEnd
  0
BLOCK
  5
373
100
AcDbEntity
  8
0
100
AcDbBlockBegin
  2
_FILLED
 70
64
 10
0.0
 20
0.0
  3
_FILLED
  1

  0
SOLID
  5
374
100
AcDbEntity
  8
0
  6
BYBLOCK
 62
0
100
AcDbTrace
 10
0.0
 20
0.0
 11
-1.0
 21
0.2
 12
-1.0
 22
-0.2
 13
-1.0
 23
-0.2
  0
ENDBLK
  5
375
100
AcDbEntity
  8
0
  6
BYBLOCK
 62
0
100
AcDbBlockEnd
  0
BLOCK
  5
376
100
AcDbEntity
  8
0
100
AcDbBlockBegin
 62
2
  6
CONTINUOUS
  2
*D0
 70
65
 10
0.0
 20
0.0
  3
*D0
  1

  0
MTEXT
  5
377
100
AcDbEntity
  8
0
100
AcDbMText
 62
2
  6
CONTINUOUS
  7
STANDARD
 71
2
 72
1
 10
160.7815316927
 20
80.2929793243
 30
0.0
 11
1.0
 21
0.0
 31
0.0
 73
2
 44
0.9
  1
30.5{\ftxt.shx;\W1.000000;\H2.000000; }[1.2]
 40
2.0
 41
12.8624535316
  0
LINE
  5
378
100
AcDbEntity
  8
0
100
AcDbLine
 62
2
  6
CONTINUOUS
 10
145.5315316927
 20
94.1067875851
 11
145.5315316927
 21
76.7929793243
  0
LINE
  5
379
100
AcDbEntity
  8
0
100
AcDbLine
 62
2
  6
CONTINUOUS
 10
176.0315316927
 20
95.8671577005
 11
176.0315316927
 21
76.7929793243
  0
LINE
  5
37A
100
AcDbEntity
  8
0
100
AcDbLine
 62
2
  6
CONTINUOUS
 10
145.5315316927
 20
77.7929793243
 11
160.7815316927
 21
77.7929793243
  0
LINE
  5
37B
100
AcDbEntity
  8
0
100
AcDbLine
 62
2
  6
CONTINUOUS
 10
176.0315316927
 20
77.7929793243
 11
160.7815316927
 21
77.7929793243
  0
INSERT
  5
37C
100
AcDbEntity
  8
0
100
AcDbBlockReference
 62
2
  6
CONTINUOUS
  2
_FILLED
 10
145.5315316927
 20
77.7929793243
 41
2.0
 42
2.0
 43
2.0
 50
180.0
  0
INSERT
  5
37D
100
AcDbEntity
  8
0
100
AcDbBlockReference
 62
2
  6
CONTINUOUS
  2
_FILLED
 10
176.0315316927
 20
77.7929793243
 41
2.0
 42
2.0
 43
2.0
  0
ENDBLK
  5
37E
100
AcDbEntity
  8
0
  6
BYBLOCK
 62
0
100
AcDbBlockEnd
  0
BLOCK
  5
37F
100
AcDbEntity
  8
0
100
AcDbBlockBegin
 62
2
  6
CONTINUOUS
  2
*D1
 70
65
 10
0.0
 20
0.0
  3
*D1
  1

  0
MTEXT
  5
380
100
AcDbEntity
  8
0
100
AcDbMText
 62
2
  6
CONTINUOUS
  7
STANDARD
 71
3
 72
1
 10
136.7315316927
 20
85.2929793243
 30
0.0
 11
1.0
 21
0.0
 31
0.0
 73
2
 44
0.9
  1
6{\ftxt.shx;\W1.000000;\H2.000000; }[0.24]
 40
2.0
 41
10.5353159851
  0
LINE
  5
381
100
AcDbEntity
  8
0
100
AcDbLine
 62
2
  6
CONTINUOUS
 10
151.5315316927
 20
110.7929793243
 11
151.5315316927
 21
81.7929793243
  0
LINE
  5
382
100
AcDbEntity
  8
0
100
AcDbLine
 62
2
  6
CONTINUOUS
 10
145.5315316927
 20
94.1067875851
 11
145.5315316927
 21
81.7929793243
  0
LINE
  5
383
100
AcDbEntity
  8
0
100
AcDbLine
 62
2
  6
CONTINUOUS
 10
151.5315316927
 20
82.7929793243
 11
148.5315316927
 21
82.7929793243
  0
LINE
  5
384
100
AcDbEntity
  8
0
100
AcDbLine
 62
2
  6
CONTINUOUS
 10
145.5315316927
 20
82.7929793243
 11
148.5315316927
 21
82.7929793243
  0
LINE
  5
385
100
AcDbEntity
  8
0
100
AcDbLine
 62
2
  6
CONTINUOUS
 10
148.5315316927
 20
82.7929793243
 11
126.1962157076
 21
82.7929793243
  0
INSERT
  5
386
100
AcDbEntity
  8
0
100
AcDbBlockReference
 62
2
  6
CONTINUOUS
  2
_FILLED
 10
151.5315316927
 20
82.7929793243
 41
2.0
 42
2.0
 43
2.0
  0
INSERT
  5
387
100
AcDbEntity
  8
0
100
AcDbBlockReference
 62
2
  6
CONTINUOUS
  2
_FILLED
 10
145.5315316927
 20
82.7929793243
 41
2.0
 42
2.0
 43
2.0
 50
180.0
  0
ENDBLK
  5
388
100
AcDbEntity
  8
0
  6
BYBLOCK
 62
0
100
AcDbBlockEnd
  0
BLOCK
  5
389
100
AcDbEntity
  8
0
100
AcDbBlockBegin
 62
2
  6
CONTINUOUS
  2
*D2
 70
65
 10
0.0
 20
0.0
  3
*D2
  1

  0
MTEXT
  5
38A
100
AcDbEntity
  8
0
100
AcDbMText
 62
2
  6
CONTINUOUS
  7
TEXTSTYLE_1
 71
1
 72
1
 10
186.0315316927
 20
157.968914136
 30
0.0
 11
0.0
 21
1.0
 31
0.0
 73
2
 44
0.9
  1
{\fgdt;n}\fArial;8.4{\ftxt.shx;\W1.000000;\H2.000000; }[0.33]
 40
2.0
 41
15.5291201983
  0
LINE
  5
38B
100
AcDbEntity
  8
0
100
AcDbLine
 62
2
  6
CONTINUOUS
 10
170.0315316927
 20
143.9936972835
 11
189.5315316927
 21
143.9936972835
  0
LINE
  5
38C
100
AcDbEntity
  8
0
100
AcDbLine
 62
2
  6
CONTINUOUS
 10
170.0315316927
 20
135.5922613651
 11
189.5315316927
 21
135.5922613651
  0
LINE
  5
38D
100
AcDbEntity
  8
0
100
AcDbLine
 62
2
  6
CONTINUOUS
 10
188.5315316927
 20
143.9936972835
 11
188.5315316927
 21
139.7929793243
  0
LINE
  5
38E
100
AcDbEntity
  8
0
100
AcDbLine
 62
2
  6
CONTINUOUS
 10
188.5315316927
 20
139.7929793243
 11
188.5315316927
 21
173.4980343343
  0
LINE
  5
38F
100
AcDbEntity
  8
0
100
AcDbLine
 62
2
  6
CONTINUOUS
 10
188.5315316927
 20
135.5922613651
 11
188.5315316927
 21
139.7929793243
  0
INSERT
  5
390
100
AcDbEntity
  8
0
100
AcDbBlockReference
 62
2
  6
CONTINUOUS
  2
_FILLED
 10
188.5315316927
 20
143.9936972835
 41
2.0
 42
2.0
 43
2.0
 50
90.0
  0
INSERT
  5
391
100
AcDbEntity
  8
0
100
AcDbBlockReference
 62
2
  6
CONTINUOUS
  2
_FILLED
 10
188.5315316927
 20
135.5922613651
 41
2.0
 42
2.0
 43
2.0
 50
270.0
  0
ENDBLK
  5
392
100
AcDbEntity
  8
0
  6
BYBLOCK
 62
0
100
AcDbBlockEnd
  0
BLOCK
  5
393
100
AcDbEntity
  8
0
100
AcDbBlockBegin
 62
2
  6
CONTINUOUS
  2
*D3
 70
65
 10
0.0
 20
0.0
  3
*D3
  1

  0
MTEXT
  5
394
100
AcDbEntity
  8
0
100
AcDbMText
 62
2
  6
CONTINUOUS
  7
TEXTSTYLE_1
 71
1
 72
1
 10
130.0315316927
 20
147.4817687795
 30
0.0
 11
0.0
 21
1.0
 31
0.0
 73
2
 44
0.9
  1
{\fgdt;n}\fArial;4.3{\ftxt.shx;\W1.000000;\H2.000000; }[0.17]
 40
2.0
 41
15.5291201983
  0
LINE
  5
395
100
AcDbEntity
  8
0
100
AcDbLine
 62
2
  6
CONTINUOUS
 10
141.0315316927
 20
137.6429793243
 11
131.5315316927
 21
137.6429793243
  0
LINE
  5
396
100
AcDbEntity
  8
0
100
AcDbLine
 62
2
  6
CONTINUOUS
 10
141.0315316927
 20
141.9429793243
 11
131.5315316927
 21
141.9429793243
  0
LINE
  5
397
100
AcDbEntity
  8
0
100
AcDbLine
 62
2
  6
CONTINUOUS
 10
132.5315316927
 20
137.6429793243
 11
132.5315316927
 21
139.7929793243
  0
LINE
  5
398
100
AcDbEntity
  8
0
100
AcDbLine
 62
2
  6
CONTINUOUS
 10
132.5315316927
 20
141.9429793243
 11
132.5315316927
 21
139.7929793243
  0
LINE
  5
399
100
AcDbEntity
  8
0
100
AcDbLine
 62
2
  6
CONTINUOUS
 10
132.5315316927
 20
139.7929793243
 11
132.5315316927
 21
163.0108889778
  0
INSERT
  5
39A
100
AcDbEntity
  8
0
100
AcDbBlockReference
 62
2
  6
CONTINUOUS
  2
_FILLED
 10
132.5315316927
 20
137.6429793243
 41
2.0
 42
2.0
 43
2.0
 50
270.0
  0
INSERT
  5
39B
100
AcDbEntity
  8
0
100
AcDbBlockReference
 62
2
  6
CONTINUOUS
  2
_FILLED
 10
132.5315316927
 20
141.9429793243
 41
2.0
 42
2.0
 43
2.0
 50
90.0
  0
ENDBLK
  5
39C
100
AcDbEntity
  8
0
  6
BYBLOCK
 62
0
100
AcDbBlockEnd
  0
BLOCK
  5
39D
100
AcDbEntity
  8
0
100
AcDbBlockBegin
 62
2
  6
CONTINUOUS
  2
*D4
 70
65
 10
0.0
 20
0.0
  3
*D4
  1

  0
MTEXT
  5
39E
100
AcDbEntity
  8
0
100
AcDbMText
 62
2
  6
CONTINUOUS
  7
TEXTSTYLE_1
 71
3
 72
1
 10
130.0315316927
 20
113.1396674097
 30
0.0
 11
0.0
 21
1.0
 31
0.0
 73
2
 44
0.9
  1
{\fgdt;n}\fArial;2.6{\ftxt.shx;\W1.000000;\H2.000000; }[0.1]
 40
2.0
 41
13.9752168525
  0
LINE
  5
39F
100
AcDbEntity
  8
0
100
AcDbLine
 62
2
  6
CONTINUOUS
 10
143.3315316927
 20
120.5679793243
 11
131.5315316927
 21
120.5679793243
  0
LINE
  5
3A0
100
AcDbEntity
  8
0
100
AcDbLine
 62
2
  6
CONTINUOUS
 10
143.3315316927
 20
118.0179793243
 11
131.5315316927
 21
118.0179793243
  0
LINE
  5
3A1
100
AcDbEntity
  8
0
100
AcDbLine
 62
2
  6
CONTINUOUS
 10
132.5315316927
 20
120.5679793243
 11
132.5315316927
 21
125.5679793243
  0
LINE
  5
3A2
100
AcDbEntity
  8
0
100
AcDbLine
 62
2
  6
CONTINUOUS
 10
132.5315316927
 20
125.5679793243
 11
132.5315316927
 21
119.2929793243
  0
LINE
  5
3A3
100
AcDbEntity
  8
0
100
AcDbLine
 62
2
  6
CONTINUOUS
 10
132.5315316927
 20
118.0179793243
 11
132.5315316927
 21
99.1644505571
  0
LINE
  5
3A4
100
AcDbEntity
  8
0
100
AcDbLine
 62
2
  6
CONTINUOUS
 10
132.5315316927
 20
99.1644505571
 11
132.5315316927
 21
119.2929793243
  0
INSERT
  5
3A5
100
AcDbEntity
  8
0
100
AcDbBlockReference
 62
2
  6
CONTINUOUS
  2
_FILLED
 10
132.5315316927
 20
120.5679793243
 41
2.0
 42
2.0
 43
2.0
 50
270.0
  0
INSERT
  5
3A6
100
AcDbEntity
  8
0
100
AcDbBlockReference
 62
2
  6
CONTINUOUS
  2
_FILLED
 10
132.5315316927
 20
118.0179793243
 41
2.0
 42
2.0
 43
2.0
 50
90.0
  0
ENDBLK
  5
3A7
100
AcDbEntity
  8
0
  6
BYBLOCK
 62
0
100
AcDbBlockEnd
  0
BLOCK
  5
3A8
100
AcDbEntity
  8
0
100
AcDbBlockBegin
 62
2
  6
CONTINUOUS
  2
*D5
 70
65
 10
0.0
 20
0.0
  3
*D5
  1

  0
MTEXT
  5
3A9
100
AcDbEntity
  8
0
100
AcDbMText
 62
2
  6
CONTINUOUS
  7
STANDARD
 71
1
 72
1
 10
183.4309170916
 20
114.9342313731
 30
0.0
 11
1.0
 21
0.0
 31
0.0
 73
2
 44
0.9
  1
2.5{\ftxt.shx;\W1.000000;\H2.000000; }[0.1]
 40
2.0
 41
11.3085501859
  0
LINE
  5
3AA
100
AcDbEntity
  8
0
100
AcDbLine
 62
2
  6
CONTINUOUS
 10
176.0315316927
 20
112.4342313731
 11
171.0315316927
 21
112.4342313731
  0
LINE
  5
3AB
100
AcDbEntity
  8
0
100
AcDbLine
 62
2
  6
CONTINUOUS
 10
171.0315316927
 20
112.4342313731
 11
177.2815316927
 21
112.4342313731
  0
LINE
  5
3AC
100
AcDbEntity
  8
0
100
AcDbLine
 62
2
  6
CONTINUOUS
 10
178.5315316927
 20
112.4342313731
 11
194.7394672775
 21
112.4342313731
  0
LINE
  5
3AD
100
AcDbEntity
  8
0
100
AcDbLine
 62
2
  6
CONTINUOUS
 10
194.7394672775
 20
112.4342313731
 11
177.2815316927
 21
112.4342313731
  0
INSERT
  5
3AE
100
AcDbEntity
  8
0
100
AcDbBlockReference
 62
2
  6
CONTINUOUS
  2
_FILLED
 10
176.0315316927
 20
112.4342313731
 41
2.0
 42
2.0
 43
2.0
  0
INSERT
  5
3AF
100
AcDbEntity
  8
0
100
AcDbBlockReference
 62
2
  6
CONTINUOUS
  2
_FILLED
 10
178.5315316927
 20
112.4342313731
 41
2.0
 42
2.0
 43
2.0
 50
180.0
  0
ENDBLK
  5
3B0
100
AcDbEntity
  8
0
  6
BYBLOCK
 62
0
100
AcDbBlockEnd
  0
BLOCK
  5
3B1
100
AcDbEntity
  8
0
100
AcDbBlockBegin
 62
2
  6
CONTINUOUS
  2
*D6
 70
65
 10
0.0
 20
0.0
  3
*D6
  1

  0
MTEXT
  5
3B2
100
AcDbEntity
  8
0
100
AcDbMText
 62
2
  6
CONTINUOUS
  7
STANDARD
 71
1
 72
1
 10
147.9525320244
 20
163.0934901658
 30
0.0
 11
1.0
 21
0.0
 31
0.0
 73
2
 44
0.9
  1
3{\ftxt.shx;\W1.000000;\H2.000000; }[0.12]
 40
2.0
 41
10.5353159851
  0
LINE
  5
3B3
100
AcDbEntity
  8
0
100
AcDbLine
 62
2
  6
CONTINUOUS
 10
142.5315316927
 20
145.2929793243
 11
142.5315316927
 21
161.5934901658
  0
LINE
  5
3B4
100
AcDbEntity
  8
0
100
AcDbLine
 62
2
  6
CONTINUOUS
 10
145.5315316927
 20
145.2929793243
 11
145.5315316927
 21
161.5934901658
  0
LINE
  5
3B5
100
AcDbEntity
  8
0
100
AcDbLine
 62
2
  6
CONTINUOUS
 10
142.5315316927
 20
160.5934901658
 11
137.5315316927
 21
160.5934901658
  0
LINE
  5
3B6
100
AcDbEntity
  8
0
100
AcDbLine
 62
2
  6
CONTINUOUS
 10
137.5315316927
 20
160.5934901658
 11
144.0315316927
 21
160.5934901658
  0
LINE
  5
3B7
100
AcDbEntity
  8
0
100
AcDbLine
 62
2
  6
CONTINUOUS
 10
145.5315316927
 20
160.5934901658
 11
158.4878480095
 21
160.5934901658
  0
LINE
  5
3B8
100
AcDbEntity
  8
0
100
AcDbLine
 62
2
  6
CONTINUOUS
 10
158.4878480095
 20
160.5934901658
 11
144.0315316927
 21
160.5934901658
  0
INSERT
  5
3B9
100
AcDbEntity
  8
0
100
AcDbBlockReference
 62
2
  6
CONTINUOUS
  2
_FILLED
 10
142.5315316927
 20
160.5934901658
 41
2.0
 42
2.0
 43
2.0
  0
INSERT
  5
3BA
100
AcDbEntity
  8
0
100
AcDbBlockReference
 62
2
  6
CONTINUOUS
  2
_FILLED
 10
145.5315316927
 20
160.5934901658
 41
2.0
 42
2.0
 43
2.0
 50
180.0
  0
ENDBLK
  5
3BB
100
AcDbEntity
  8
0
  6
BYBLOCK
 62
0
100
AcDbBlockEnd
  0
BLOCK
  5
3BC
100
AcDbEntity
  8
0
100
AcDbBlockBegin
 62
2
  6
CONTINUOUS
  2
*D7
 70
65
 10
0.0
 20
0.0
  3
*D7
  1

  0
MTEXT
  5
3BD
100
AcDbEntity
  8
0
100
AcDbMText
 62
2
  6
CONTINUOUS
  7
STANDARD
 71
2
 72
1
 10
79.7783958677
 20
85.2929793243
 30
0.0
 11
1.0
 21
0.0
 31
0.0
 73
2
 44
0.9
  1
38{\ftxt.shx;\W1.000000;\H2.000000; }[1.5]
 40
2.0
 41
10.5353159851
  0
LINE
  5
3BE
100
AcDbEntity
  8
0
100
AcDbLine
 62
2
  6
CONTINUOUS
 10
60.7783958677
 20
114.1652148289
 11
60.7783958677
 21
81.7929793243
  0
LINE
  5
3BF
100
AcDbEntity
  8
0
100
AcDbLine
 62
2
  6
CONTINUOUS
 10
98.7783958677
 20
113.9048312672
 11
98.7783958677
 21
81.7929793243
  0
LINE
  5
3C0
100
AcDbEntity
  8
0
100
AcDbLine
 62
2
  6
CONTINUOUS
 10
60.7783958677
 20
82.7929793243
 11
79.7783958677
 21
82.7929793243
  0
LINE
  5
3C1
100
AcDbEntity
  8
0
100
AcDbLine
 62
2
  6
CONTINUOUS
 10
98.7783958677
 20
82.7929793243
 11
79.7783958677
 21
82.7929793243
  0
INSERT
  5
3C2
100
AcDbEntity
  8
0
100
AcDbBlockReference
 62
2
  6
CONTINUOUS
  2
_FILLED
 10
60.7783958677
 20
82.7929793243
 41
2.0
 42
2.0
 43
2.0
 50
180.0
  0
INSERT
  5
3C3
100
AcDbEntity
  8
0
100
AcDbBlockReference
 62
2
  6
CONTINUOUS
  2
_FILLED
 10
98.7783958677
 20
82.7929793243
 41
2.0
 42
2.0
 43
2.0
  0
ENDBLK
  5
3C4
100
AcDbEntity
  8
0
  6
BYBLOCK
 62
0
100
AcDbBlockEnd
  0
BLOCK
  5
3C5
100
AcDbEntity
  8
0
100
AcDbBlockBegin
 62
2
  6
CONTINUOUS
  2
*D8
 70
65
 10
0.0
 20
0.0
  3
*D8
  1

  0
MTEXT
  5
3C6
100
AcDbEntity
  8
0
100
AcDbMText
 62
2
  6
CONTINUOUS
  7
STANDARD
 71
2
 72
1
 10
79.7783958677
 20
80.2929793243
 30
0.0
 11
1.0
 21
0.0
 31
0.0
 73
2
 44
0.9
  1
53{\ftxt.shx;\W1.000000;\H2.000000; }[2.09]
 40
2.0
 41
12.0892193309
  0
LINE
  5
3C7
100
AcDbEntity
  8
0
100
AcDbLine
 62
2
  6
CONTINUOUS
 10
53.2783958677
 20
89.4287764727
 11
53.2783958677
 21
76.7929793243
  0
LINE
  5
3C8
100
AcDbEntity
  8
0
100
AcDbLine
 62
2
  6
CONTINUOUS
 10
106.2783958677
 20
93.3345298974
 11
106.2783958677
 21
76.7929793243
  0
LINE
  5
3C9
100
AcDbEntity
  8
0
100
AcDbLine
 62
2
  6
CONTINUOUS
 10
53.2783958677
 20
77.7929793243
 11
79.7783958677
 21
77.7929793243
  0
LINE
  5
3CA
100
AcDbEntity
  8
0
100
AcDbLine
 62
2
  6
CONTINUOUS
 10
106.2783958677
 20
77.7929793243
 11
79.7783958677
 21
77.7929793243
  0
INSERT
  5
3CB
100
AcDbEntity
  8
0
100
AcDbBlockReference
 62
2
  6
CONTINUOUS
  2
_FILLED
 10
53.2783958677
 20
77.7929793243
 41
2.0
 42
2.0
 43
2.0
 50
180.0
  0
INSERT
  5
3CC
100
AcDbEntity
  8
0
100
AcDbBlockReference
 62
2
  6
CONTINUOUS
  2
_FILLED
 10
106.2783958677
 20
77.7929793243
 41
2.0
 42
2.0
 43
2.0
  0
ENDBLK
  5
3CD
100
AcDbEntity
  8
0
  6
BYBLOCK
 62
0
100
AcDbBlockEnd
  0
BLOCK
  5
3CE
100
AcDbEntity
  8
0
100
AcDbBlockBegin
 62
2
  6
CONTINUOUS
  2
*D9
 70
65
 10
0.0
 20
0.0
  3
*D9
  1

  0
MTEXT
  5
3CF
100
AcDbEntity
  8
0
100
AcDbMText
 62
2
  6
CONTINUOUS
  7
STANDARD
 71
2
 72
1
 10
79.7783958677
 20
75.2929793243
 30
0.0
 11
1.0
 21
0.0
 31
0.0
 73
2
 44
0.9
  1
65{\ftxt.shx;\W1.000000;\H2.000000; }[2.56]
 40
2.0
 41
12.0892193309
  0
LINE
  5
3D0
100
AcDbEntity
  8
0
100
AcDbLine
 62
2
  6
CONTINUOUS
 10
47.2783958677
 20
94.2929793243
 11
47.2783958677
 21
71.7929793243
  0
LINE
  5
3D1
100
AcDbEntity
  8
0
100
AcDbLine
 62
2
  6
CONTINUOUS
 10
112.2783958677
 20
94.2929793243
 11
112.2783958677
 21
71.7929793243
  0
LINE
  5
3D2
100
AcDbEntity
  8
0
100
AcDbLine
 62
2
  6
CONTINUOUS
 10
47.2783958677
 20
72.7929793243
 11
79.7783958677
 21
72.7929793243
  0
LINE
  5
3D3
100
AcDbEntity
  8
0
100
AcDbLine
 62
2
  6
CONTINUOUS
 10
112.2783958677
 20
72.7929793243
 11
79.7783958677
 21
72.7929793243
  0
INSERT
  5
3D4
100
AcDbEntity
  8
0
100
AcDbBlockReference
 62
2
  6
CONTINUOUS
  2
_FILLED
 10
47.2783958677
 20
72.7929793243
 41
2.0
 42
2.0
 43
2.0
 50
180.0
  0
INSERT
  5
3D5
100
AcDbEntity
  8
0
100
AcDbBlockReference
 62
2
  6
CONTINUOUS
  2
_FILLED
 10
112.2783958677
 20
72.7929793243
 41
2.0
 42
2.0
 43
2.0
  0
ENDBLK
  5
3D6
100
AcDbEntity
  8
0
  6
BYBLOCK
 62
0
100
AcDbBlockEnd
  0
BLOCK
  5
3D7
100
AcDbEntity
  8
0
100
AcDbBlockBegin
 62
2
  6
CONTINUOUS
  2
*D10
 70
65
 10
0.0
 20
0.0
  3
*D10
  1

  0
MTEXT
  5
3D8
100
AcDbEntity
  8
0
100
AcDbMText
 62
2
  6
CONTINUOUS
  7
STANDARD
 71
2
 72
1
 10
34.7783958677
 20
119.2929793243
 30
0.0
 11
0.0
 21
1.0
 31
0.0
 73
2
 44
0.9
  1
41{\ftxt.shx;\W1.000000;\H2.000000; }[1.61]
 40
2.0
 41
12.0892193309
  0
LINE
  5
3D9
100
AcDbEntity
  8
0
100
AcDbLine
 62
2
  6
CONTINUOUS
 10
47.1362738087
 20
98.7929793243
 11
36.2783958677
 21
98.7929793243
  0
LINE
  5
3DA
100
AcDbEntity
  8
0
100
AcDbLine
 62
2
  6
CONTINUOUS
 10
46.7456984662
 20
139.7929793243
 11
36.2783958677
 21
139.7929793243
  0
LINE
  5
3DB
100
AcDbEntity
  8
0
100
AcDbLine
 62
2
  6
CONTINUOUS
 10
37.2783958677
 20
98.7929793243
 11
37.2783958677
 21
119.2929793243
  0
LINE
  5
3DC
100
AcDbEntity
  8
0
100
AcDbLine
 62
2
  6
CONTINUOUS
 10
37.2783958677
 20
139.7929793243
 11
37.2783958677
 21
119.2929793243
  0
INSERT
  5
3DD
100
AcDbEntity
  8
0
100
AcDbBlockReference
 62
2
  6
CONTINUOUS
  2
_FILLED
 10
37.2783958677
 20
98.7929793243
 41
2.0
 42
2.0
 43
2.0
 50
270.0
  0
INSERT
  5
3DE
100
AcDbEntity
  8
0
100
AcDbBlockReference
 62
2
  6
CONTINUOUS
  2
_FILLED
 10
37.2783958677
 20
139.7929793243
 41
2.0
 42
2.0
 43
2.0
 50
90.0
  0
ENDBLK
  5
3DF
100
AcDbEntity
  8
0
  6
BYBLOCK
 62
0
100
AcDbBlockEnd
  0
BLOCK
  5
3E0
100
AcDbEntity
  8
0
100
AcDbBlockBegin
 62
2
  6
CONTINUOUS
  2
*D11
 70
65
 10
0.0
 20
0.0
  3
*D11
  1

  0
MTEXT
  5
3E1
100
AcDbEntity
  8
0
100
AcDbMText
 62
2
  6
CONTINUOUS
  7
STANDARD
 71
2
 72
1
 10
29.7783958677
 20
119.2929793243
 30
0.0
 11
0.0
 21
1.0
 31
0.0
 73
2
 44
0.9
  1
53{\ftxt.shx;\W1.000000;\H2.000000; }[2.09]
 40
2.0
 41
12.0892193309
  0
LINE
  5
3E2
100
AcDbEntity
  8
0
100
AcDbLine
 62
2
  6
CONTINUOUS
 10
48.7783958677
 20
92.7929793243
 11
31.2783958677
 21
92.7929793243
  0
LINE
  5
3E3
100
AcDbEntity
  8
0
100
AcDbLine
 62
2
  6
CONTINUOUS
 10
48.7783958677
 20
145.7929793243
 11
31.2783958677
 21
145.7929793243
  0
LINE
  5
3E4
100
AcDbEntity
  8
0
100
AcDbLine
 62
2
  6
CONTINUOUS
 10
32.2783958677
 20
92.7929793243
 11
32.2783958677
 21
119.2929793243
  0
LINE
  5
3E5
100
AcDbEntity
  8
0
100
AcDbLine
 62
2
  6
CONTINUOUS
 10
32.2783958677
 20
145.7929793243
 11
32.2783958677
 21
119.2929793243
  0
INSERT
  5
3E6
100
AcDbEntity
  8
0
100
AcDbBlockReference
 62
2
  6
CONTINUOUS
  2
_FILLED
 10
32.2783958677
 20
92.7929793243
 41
2.0
 42
2.0
 43
2.0
 50
270.0
  0
INSERT
  5
3E7
100
AcDbEntity
  8
0
100
AcDbBlockReference
 62
2
  6
CONTINUOUS
  2
_FILLED
 10
32.2783958677
 20
145.7929793243
 41
2.0
 42
2.0
 43
2.0
 50
90.0
  0
ENDBLK
  5
3E8
100
AcDbEntity
  8
0
  6
BYBLOCK
 62
0
100
AcDbBlockEnd
  0
BLOCK
  5
3E9
100
AcDbEntity
  8
0
100
AcDbBlockBegin
 62
2
  6
CONTINUOUS
  2
*D12
 70
65
 10
0.0
 20
0.0
  3
*D12
  1

  0
MTEXT
  5
3EA
100
AcDbEntity
  8
0
100
AcDbMText
 62
2
  6
CONTINUOUS
  7
STANDARD
 71
2
 72
1
 10
34.7783958677
 20
209.9394517808
 30
0.0
 11
0.0
 21
1.0
 31
0.0
 73
2
 44
0.9
  1
25{\ftxt.shx;\W1.000000;\H2.000000; }[0.98]
 40
2.0
 41
12.0892193309
  0
LINE
  5
3EB
100
AcDbEntity
  8
0
100
AcDbLine
 62
2
  6
CONTINUOUS
 10
48.9855026489
 20
197.4394517808
 11
36.2783958677
 21
197.4394517808
  0
LINE
  5
3EC
100
AcDbEntity
  8
0
100
AcDbLine
 62
2
  6
CONTINUOUS
 10
48.7783958677
 20
222.4394517808
 11
36.2783958677
 21
222.4394517808
  0
LINE
  5
3ED
100
AcDbEntity
  8
0
100
AcDbLine
 62
2
  6
CONTINUOUS
 10
37.2783958677
 20
197.4394517808
 11
37.2783958677
 21
209.9394517808
  0
LINE
  5
3EE
100
AcDbEntity
  8
0
100
AcDbLine
 62
2
  6
CONTINUOUS
 10
37.2783958677
 20
222.4394517808
 11
37.2783958677
 21
209.9394517808
  0
INSERT
  5
3EF
100
AcDbEntity
  8
0
100
AcDbBlockReference
 62
2
  6
CONTINUOUS
  2
_FILLED
 10
37.2783958677
 20
197.4394517808
 41
2.0
 42
2.0
 43
2.0
 50
270.0
  0
INSERT
  5
3F0
100
AcDbEntity
  8
0
100
AcDbBlockReference
 62
2
  6
CONTINUOUS
  2
_FILLED
 10
37.2783958677
 20
222.4394517808
 41
2.0
 42
2.0
 43
2.0
 50
90.0
  0
ENDBLK
  5
3F1
100
AcDbEntity
  8
0
  6
BYBLOCK
 62
0
100
AcDbBlockEnd
  0
BLOCK
  5
3F2
100
AcDbEntity
  8
0
100
AcDbBlockBegin
 62
2
  6
CONTINUOUS
  2
*D13
 70
65
 10
0.0
 20
0.0
  3
*D13
  1

  0
MTEXT
  5
3F3
100
AcDbEntity
  8
0
100
AcDbMText
 62
2
  6
CONTINUOUS
  7
STANDARD
 71
1
 72
1
 10
34.7783958677
 20
239.5624824727
 30
0.0
 11
0.0
 21
1.0
 31
0.0
 73
2
 44
0.9
  1
10{\ftxt.shx;\W1.000000;\H2.000000; }[0.39]
 40
2.0
 41
12.0892193309
  0
LINE
  5
3F4
100
AcDbEntity
  8
0
100
AcDbLine
 62
2
  6
CONTINUOUS
 10
48.7783958677
 20
222.4394517808
 11
36.2783958677
 21
222.4394517808
  0
LINE
  5
3F5
100
AcDbEntity
  8
0
100
AcDbLine
 62
2
  6
CONTINUOUS
 10
55.8045764711
 20
232.4394517808
 11
36.2783958677
 21
232.4394517808
  0
LINE
  5
3F6
100
AcDbEntity
  8
0
100
AcDbLine
 62
2
  6
CONTINUOUS
 10
37.2783958677
 20
222.4394517808
 11
37.2783958677
 21
217.4394517808
  0
LINE
  5
3F7
100
AcDbEntity
  8
0
100
AcDbLine
 62
2
  6
CONTINUOUS
 10
37.2783958677
 20
217.4394517808
 11
37.2783958677
 21
227.4394517808
  0
LINE
  5
3F8
100
AcDbEntity
  8
0
100
AcDbLine
 62
2
  6
CONTINUOUS
 10
37.2783958677
 20
232.4394517808
 11
37.2783958677
 21
251.6517018035
  0
LINE
  5
3F9
100
AcDbEntity
  8
0
100
AcDbLine
 62
2
  6
CONTINUOUS
 10
37.2783958677
 20
251.6517018035
 11
37.2783958677
 21
227.4394517808
  0
INSERT
  5
3FA
100
AcDbEntity
  8
0
100
AcDbBlockReference
 62
2
  6
CONTINUOUS
  2
_FILLED
 10
37.2783958677
 20
222.4394517808
 41
2.0
 42
2.0
 43
2.0
 50
90.0
  0
INSERT
  5
3FB
100
AcDbEntity
  8
0
100
AcDbBlockReference
 62
2
  6
CONTINUOUS
  2
_FILLED
 10
37.2783958677
 20
232.4394517808
 41
2.0
 42
2.0
 43
2.0
 50
270.0
  0
ENDBLK
  5
3FC
100
AcDbEntity
  8
0
  6
BYBLOCK
 62
0
100
AcDbBlockEnd
  0
BLOCK
  5
3FD
100
AcDbEntity
  8
0
100
AcDbBlockBegin
 62
2
  6
CONTINUOUS
  2
*D14
 70
65
 10
0.0
 20
0.0
  3
*D14
  1

  0
MTEXT
  5
3FE
100
AcDbEntity
  8
0
100
AcDbMText
 62
2
  6
CONTINUOUS
  7
STANDARD
 71
2
 72
1
 10
29.7783958677
 20
214.4394517808
 30
0.0
 11
0.0
 21
1.0
 31
0.0
 73
2
 44
0.9
  1
36{\ftxt.shx;\W1.000000;\H2.000000; }[1.42]
 40
2.0
 41
12.0892193309
  0
LINE
  5
3FF
100
AcDbEntity
  8
0
100
AcDbLine
 62
2
  6
CONTINUOUS
 10
47.2783958677
 20
196.4394517808
 11
31.2783958677
 21
196.4394517808
  0
LINE
  5
400
100
AcDbEntity
  8
0
100
AcDbLine
 62
2
  6
CONTINUOUS
 10
55.8045764711
 20
232.4394517808
 11
31.2783958677
 21
232.4394517808
  0
LINE
  5
401
100
AcDbEntity
  8
0
100
AcDbLine
 62
2
  6
CONTINUOUS
 10
32.2783958677
 20
196.4394517808
 11
32.2783958677
 21
214.4394517808
  0
LINE
  5
402
100
AcDbEntity
  8
0
100
AcDbLine
 62
2
  6
CONTINUOUS
 10
32.2783958677
 20
232.4394517808
 11
32.2783958677
 21
214.4394517808
  0
INSERT
  5
403
100
AcDbEntity
  8
0
100
AcDbBlockReference
 62
2
  6
CONTINUOUS
  2
_FILLED
 10
32.2783958677
 20
196.4394517808
 41
2.0
 42
2.0
 43
2.0
 50
270.0
  0
INSERT
  5
404
100
AcDbEntity
  8
0
100
AcDbBlockReference
 62
2
  6
CONTINUOUS
  2
_FILLED
 10
32.2783958677
 20
232.4394517808
 41
2.0
 42
2.0
 43
2.0
 50
90.0
  0
ENDBLK
  5
405
100
AcDbEntity
  8
0
  6
BYBLOCK
 62
0
100
AcDbBlockEnd
  0
BLOCK
  5
406
100
AcDbEntity
  8
0
100
AcDbBlockBegin
  2
*T1
 70
1
 10
0.0
 20
0.0
  3
*T1
  1

  0
LINE
  5
407
100
AcDbEntity
  8
0
100
AcDbLine
 62
2
  6
CONTINUOUS
 10
185.0
 20
0.0
 11
0.0
 21
0.0
  0
LINE
  5
408
100
AcDbEntity
  8
0
100
AcDbLine
 62
2
  6
CONTINUOUS
 10
185.0
 20
0.0
 11
185.0
 21
24.0
  0
LINE
  5
409
100
AcDbEntity
  8
0
100
AcDbLine
 62
2
  6
CONTINUOUS
 10
185.0
 20
6.0
 11
0.0
 21
6.0
  0
LINE
  5
40A
100
AcDbEntity
  8
0
100
AcDbLine
 62
2
  6
CONTINUOUS
 10
185.0
 20
12.0
 11
0.0
 21
12.0
  0
LINE
  5
40B
100
AcDbEntity
  8
0
100
AcDbLine
 62
2
  6
CONTINUOUS
 10
185.0
 20
18.0
 11
0.0
 21
18.0
  0
LINE
  5
40C
100
AcDbEntity
  8
0
100
AcDbLine
 62
2
  6
CONTINUOUS
 10
185.0
 20
24.0
 11
0.0
 21
24.0
  0
LINE
  5
40D
100
AcDbEntity
  8
0
100
AcDbLine
 62
2
  6
CONTINUOUS
 10
167.0
 20
0.0
 11
167.0
 21
24.0
  0
LINE
  5
40E
100
AcDbEntity
  8
0
100
AcDbLine
 62
2
  6
CONTINUOUS
 10
149.0
 20
0.0
 11
149.0
 21
24.0
  0
LINE
  5
40F
100
AcDbEntity
  8
0
100
AcDbLine
 62
2
  6
CONTINUOUS
 10
131.0
 20
0.0
 11
131.0
 21
24.0
  0
LINE
  5
410
100
AcDbEntity
  8
0
100
AcDbLine
 62
2
  6
CONTINUOUS
 10
11.0
 20
0.0
 11
11.0
 21
24.0
  0
LINE
  5
411
100
AcDbEntity
  8
0
100
AcDbLine
 62
2
  6
CONTINUOUS
 10
0.0
 20
0.0
 11
0.0
 21
24.0
  0
MTEXT
  5
412
100
AcDbEntity
  8
0
100
AcDbMText
 62
2
  6
CONTINUOUS
  7
TEXTSTYLE_2
 71
2
 72
1
 10
158.0
 20
4.25
 30
0.0
 11
1.0
 21
0.0
 31
0.0
 73
2
 44
0.9
  1
KA
 40
2.5
 41
9.2936802974
  0
MTEXT
  5
413
100
AcDbEntity
  8
0
100
AcDbMText
 62
2
  6
CONTINUOUS
  7
TEXTSTYLE_2
 71
2
 72
1
 10
140.0
 20
4.25
 30
0.0
 11
1.0
 21
0.0
 31
0.0
 73
2
 44
0.9
  1
8.3.2023
 40
2.5
 41
27.1747211896
  0
MTEXT
  5
414
100
AcDbEntity
  8
0
100
AcDbMText
 62
2
  6
CONTINUOUS
  7
TEXTSTYLE_2
 71
1
 72
1
 10
12.05
 20
4.25
 30
0.0
 11
1.0
 21
0.0
 31
0.0
 73
2
 44
0.9
  1
Drawing mirroring corrected.
 40
2.5
 41
88.0111524164
  0
MTEXT
  5
415
100
AcDbEntity
  8
0
100
AcDbMText
 62
2
  6
CONTINUOUS
  7
TEXTSTYLE_2
 71
2
 72
1
 10
5.5
 20
4.25
 30
0.0
 11
1.0
 21
0.0
 31
0.0
 73
2
 44
0.9
  1
C
 40
2.5
 41
5.0371747212
  0
MTEXT
  5
416
100
AcDbEntity
  8
0
100
AcDbMText
 62
2
  6
CONTINUOUS
  7
TEXTSTYLE_2
 71
2
 72
1
 10
176.0
 20
21.9961801625
 30
0.0
 11
1.0
 21
0.0
 31
0.0
 73
2
 44
0.9
  1
\Q5.0;Appr.
 40
2.0
 41
13.3382899628
  0
MTEXT
  5
417
100
AcDbEntity
  8
0
100
AcDbMText
 62
2
  6
CONTINUOUS
  7
TEXTSTYLE_2
 71
2
 72
1
 10
158.0
 20
21.9961801625
 30
0.0
 11
1.0
 21
0.0
 31
0.0
 73
2
 44
0.9
  1
\Q5.0;By
 40
2.0
 41
6.5130111524
  0
MTEXT
  5
418
100
AcDbEntity
  8
0
100
AcDbMText
 62
2
  6
CONTINUOUS
  7
TEXTSTYLE_2
 71
2
 72
1
 10
140.0
 20
21.9961801625
 30
0.0
 11
1.0
 21
0.0
 31
0.0
 73
2
 44
0.9
  1
\Q5.0;Date
 40
2.0
 41
11.7918215613
  0
MTEXT
  5
419
100
AcDbEntity
  8
0
100
AcDbMText
 62
2
  6
CONTINUOUS
  7
TEXTSTYLE_2
 71
2
 72
1
 10
71.0
 20
21.9961801625
 30
0.0
 11
1.0
 21
0.0
 31
0.0
 73
2
 44
0.9
  1
\Q5.0;Description
 40
2.0
 41
27.9256505576
  0
MTEXT
  5
41A
100
AcDbEntity
  8
0
100
AcDbMText
 62
2
  6
CONTINUOUS
  7
TEXTSTYLE_2
 71
2
 72
1
 10
5.5
 20
21.9961801625
 30
0.0
 11
1.0
 21
0.0
 31
0.0
 73
2
 44
0.9
  1
\Q5.0;ID
 40
2.0
 41
5.5762081784
  0
ENDBLK
  5
41B
100
AcDbEntity
  8
0
  6
BYBLOCK
 62
0
100
AcDbBlockEnd
  0
BLOCK
  5
41C
100
AcDbEntity
  8
0
100
AcDbBlockBegin
  2
*T2
 70
1
 10
0.0
 20
0.0
  3
*T2
  1

  0
LINE
  5
41D
100
AcDbEntity
  8
0
100
AcDbLine
 62
2
  6
CONTINUOUS
 10
0.0
 20
0.0
 11
175.0
 21
0.0
  0
LINE
  5
41E
100
AcDbEntity
  8
0
100
AcDbLine
 62
2
  6
CONTINUOUS
 10
0.0
 20
0.0
 11
0.0
 21
-6.0
  0
LINE
  5
41F
100
AcDbEntity
  8
0
100
AcDbLine
 62
2
  6
CONTINUOUS
 10
0.0
 20
-6.0
 11
175.0
 21
-6.0
  0
LINE
  5
420
100
AcDbEntity
  8
0
100
AcDbLine
 62
2
  6
CONTINUOUS
 10
91.0
 20
0.0
 11
91.0
 21
-6.0
  0
LINE
  5
421
100
AcDbEntity
  8
0
100
AcDbLine
 62
2
  6
CONTINUOUS
 10
135.0
 20
0.0
 11
135.0
 21
-6.0
  0
LINE
  5
422
100
AcDbEntity
  8
0
100
AcDbLine
 62
2
  6
CONTINUOUS
 10
175.0
 20
0.0
 11
175.0
 21
-6.0
  0
MTEXT
  5
423
100
AcDbEntity
  8
0
100
AcDbMText
 62
2
  6
CONTINUOUS
  7
TEXTSTYLE_2
 71
1
 72
1
 10
1.05
 20
-2.1283423579
 30
0.0
 11
1.0
 21
0.0
 31
0.0
 73
2
 44
0.9
  1
\Q5.0;Material:
 40
1.75
 41
18.7100371747
  0
MTEXT
  5
424
100
AcDbEntity
  8
0
100
AcDbMText
 62
2
  6
CONTINUOUS
  7
TEXTSTYLE_2
 71
1
 72
1
 10
13.05
 20
-1.75
 30
0.0
 11
1.0
 21
0.0
 31
0.0
 73
2
 44
0.9
  1
Polycarbonate
 40
2.5
 41
44.6282527881
  0
MTEXT
  5
425
100
AcDbEntity
  8
0
100
AcDbMText
 62
2
  6
CONTINUOUS
  7
TEXTSTYLE_2
 71
1
 72
1
 10
92.05
 20
-2.1283423579
 30
0.0
 11
1.0
 21
0.0
 31
0.0
 73
2
 44
0.9
  1
\Q5.0;Color:
 40
1.75
 41
13.0241635688
  0
MTEXT
  5
426
100
AcDbEntity
  8
0
100
AcDbMText
 62
2
  6
CONTINUOUS
  7
TEXTSTYLE_2
 71
1
 72
1
 10
107.05
 20
-1.5
 30
0.0
 11
1.0
 21
0.0
 31
0.0
 73
2
 44
0.9
  1
RAL 7035
 40
3.0
 41
37.249070632
  0
MTEXT
  5
427
100
AcDbEntity
  8
0
100
AcDbMText
 62
2
  6
CONTINUOUS
  7
TEXTSTYLE_2
 71
1
 72
1
 10
136.05
 20
-2.1283423579
 30
0.0
 11
1.0
 21
0.0
 31
0.0
 73
2
 44
0.9
  1
\Q5.0;Weight (kg):
 40
1.75
 41
26.3215613383
  0
MTEXT
  5
428
100
AcDbEntity
  8
0
100
AcDbMText
 62
2
  6
CONTINUOUS
  7
TEXTSTYLE_2
 71
1
 72
1
 10
151.05
 20
-1.5
 30
0.0
 11
1.0
 21
0.0
 31
0.0
 73
2
 44
0.9
  1
0.055
 40
3.0
 41
20.9665427509
  0
ENDBLK
  5
429
100
AcDbEntity
  8
0
  6
BYBLOCK
 62
0
100
AcDbBlockEnd
  0
BLOCK
  5
42A
100
AcDbEntity
  8
0
100
AcDbBlockBegin
  2
*T3
 70
1
 10
0.0
 20
0.0
  3
*T3
  1

  0
LINE
  5
42B
100
AcDbEntity
  8
0
100
AcDbLine
 62
2
  6
CONTINUOUS
 10
110.0
 20
0.0
 11
0.0
 21
0.0
  0
LINE
  5
42C
100
AcDbEntity
  8
0
100
AcDbLine
 62
2
  6
CONTINUOUS
 10
110.0
 20
0.0
 11
110.0
 21
35.9996
  0
LINE
  5
42D
100
AcDbEntity
  8
0
100
AcDbLine
 62
2
  6
CONTINUOUS
 10
110.0
 20
5.5548
 11
70.0
 21
5.5548
  0
LINE
  5
42E
100
AcDbEntity
  8
0
100
AcDbLine
 62
2
  6
CONTINUOUS
 10
110.0
 20
11.7028
 11
70.0
 21
11.7028
  0
LINE
  5
42F
100
AcDbEntity
  8
0
100
AcDbLine
 62
2
  6
CONTINUOUS
 10
110.0
 20
17.8512
 11
70.0
 21
17.8512
  0
LINE
  5
430
100
AcDbEntity
  8
0
100
AcDbLine
 62
2
  6
CONTINUOUS
 10
110.0
 20
23.9996
 11
70.0
 21
23.9996
  0
LINE
  5
431
100
AcDbEntity
  8
0
100
AcDbLine
 62
2
  6
CONTINUOUS
 10
110.0
 20
29.9996
 11
70.0
 21
29.9996
  0
LINE
  5
432
100
AcDbEntity
  8
0
100
AcDbLine
 62
2
  6
CONTINUOUS
 10
110.0
 20
35.9996
 11
0.0
 21
35.9996
  0
LINE
  5
433
100
AcDbEntity
  8
0
100
AcDbLine
 62
2
  6
CONTINUOUS
 10
70.0
 20
0.0
 11
70.0
 21
35.9996
  0
LINE
  5
434
100
AcDbEntity
  8
0
100
AcDbLine
 62
2
  6
CONTINUOUS
 10
0.0
 20
0.0
 11
0.0
 21
35.9996
  0
MTEXT
  5
435
100
AcDbEntity
  8
0
100
AcDbMText
 62
2
  6
CONTINUOUS
  7
TEXTSTYLE_2
 71
1
 72
1
 10
71.05
 20
3.6490576421
 30
0.0
 11
1.0
 21
0.0
 31
0.0
 73
2
 44
0.9
  1
\Q5.0;Sheet No:
 40
1.75
 41
21.7156133829
  0
MTEXT
  5
436
100
AcDbEntity
  8
0
100
AcDbMText
 62
2
  6
CONTINUOUS
  7
TEXTSTYLE_2
 71
3
 72
1
 10
108.95
 20
10.2028
 30
0.0
 11
1.0
 21
0.0
 31
0.0
 73
2
 44
0.9
  1
DPCP050704G
 40
2.2
 41
42.331598513
  0
MTEXT
  5
437
100
AcDbEntity
  8
0
100
AcDbMText
 62
2
  6
CONTINUOUS
  7
TEXTSTYLE_2
 71
1
 72
1
 10
71.05
 20
9.5004576421
 30
0.0
 11
1.0
 21
0.0
 31
0.0
 73
2
 44
0.9
  1
\Q5.0;Code:
 40
1.75
 41
13.0371747212
  0
MTEXT
  5
438
100
AcDbEntity
  8
0
100
AcDbMText
 62
2
  6
CONTINUOUS
  7
TEXTSTYLE_2
 71
1
 72
1
 10
71.05
 20
15.6486576421
 30
0.0
 11
1.0
 21
0.0
 31
0.0
 73
2
 44
0.9
  1
\Q5.0;Ref:
 40
1.75
 41
8.9516728625
  0
MTEXT
  5
439
100
AcDbEntity
  8
0
100
AcDbMText
 62
2
  6
CONTINUOUS
  7
TEXTSTYLE_2
 71
1
 72
1
 10
100.05
 20
22.4996
 30
0.0
 11
1.0
 21
0.0
 31
0.0
 73
2
 44
0.9
  1
C
 40
2.5
 41
5.0371747212
  0
MTEXT
  5
43A
100
AcDbEntity
  8
0
100
AcDbMText
 62
2
  6
CONTINUOUS
  7
TEXTSTYLE_2
 71
1
 72
1
 10
71.05
 20
21.7970576421
 30
0.0
 11
1.0
 21
0.0
 31
0.0
 73
2
 44
0.9
  1
\Q5.0;Drw No:
 40
1.75
 41
17.6301115242
  0
MTEXT
  5
43B
100
AcDbEntity
  8
0
100
AcDbMText
 62
2
  6
CONTINUOUS
  7
TEXTSTYLE_2
 71
1
 72
1
 10
71.05
 20
27.8712576421
 30
0.0
 11
1.0
 21
0.0
 31
0.0
 73
2
 44
0.9
  1
\Q5.0;Replaced:
 40
1.75
 41
22.0018587361
  0
MTEXT
  5
43C
100
AcDbEntity
  8
0
100
AcDbMText
 62
2
  6
CONTINUOUS
  7
TEXTSTYLE_2
 71
2
 72
1
 10
35.0
 20
29.4996
 30
0.0
 11
1.0
 21
0.0
 31
0.0
 73
2
 44
0.9
  1
DPCP050704G
 40
4.0
 41
76.9665427509
  0
MTEXT
  5
43D
100
AcDbEntity
  8
0
100
AcDbMText
 62
2
  6
CONTINUOUS
  7
TEXTSTYLE_2
 71
1
 72
1
 10
71.05
 20
33.8712576421
 30
0.0
 11
1.0
 21
0.0
 31
0.0
 73
2
 44
0.9
  1
\Q5.0;Replaces:
 40
1.75
 41
21.7286245353
  0
ENDBLK
  5
43E
100
AcDbEntity
  8
0
  6
BYBLOCK
 62
0
100
AcDbBlockEnd
  0
BLOCK
  5
43F
100
AcDbEntity
  8
0
100
AcDbBlockBegin
  2
*T4
 70
1
 10
0.0
 20
0.0
  3
*T4
  1

  0
LINE
  5
440
100
AcDbEntity
  8
0
100
AcDbLine
 62
2
  6
CONTINUOUS
 10
65.0
 20
0.0
 11
-0.0
 21
0.0
  0
LINE
  5
441
100
AcDbEntity
  8
0
100
AcDbLine
 62
2
  6
CONTINUOUS
 10
65.0
 20
0.0
 11
65.0
 21
36.0
  0
LINE
  5
442
100
AcDbEntity
  8
0
100
AcDbLine
 62
2
  6
CONTINUOUS
 10
65.0
 20
5.0
 11
30.0
 21
5.0
  0
LINE
  5
443
100
AcDbEntity
  8
0
100
AcDbLine
 62
2
  6
CONTINUOUS
 10
65.0
 20
10.0
 11
30.0
 21
10.0
  0
LINE
  5
444
100
AcDbEntity
  8
0
100
AcDbLine
 62
2
  6
CONTINUOUS
 10
65.0
 20
15.0
 11
-0.0
 21
15.0
  0
LINE
  5
445
100
AcDbEntity
  8
0
100
AcDbLine
 62
2
  6
CONTINUOUS
 10
65.0
 20
20.0
 11
-0.0
 21
20.0
  0
LINE
  5
446
100
AcDbEntity
  8
0
100
AcDbLine
 62
2
  6
CONTINUOUS
 10
65.0
 20
36.0
 11
-0.0
 21
36.0
  0
LINE
  5
447
100
AcDbEntity
  8
0
100
AcDbLine
 62
2
  6
CONTINUOUS
 10
44.0
 20
0.0
 11
44.0
 21
36.0
  0
LINE
  5
448
100
AcDbEntity
  8
0
100
AcDbLine
 62
2
  6
CONTINUOUS
 10
30.0
 20
0.0
 11
30.0
 21
20.0
  0
LINE
  5
449
100
AcDbEntity
  8
0
100
AcDbLine
 62
2
  6
CONTINUOUS
 10
-0.0
 20
0.0
 11
-0.0
 21
36.0
  0
MTEXT
  5
44A
100
AcDbEntity
  8
0
100
AcDbMText
 62
2
  6
CONTINUOUS
  7
TEXTSTYLE_2
 71
1
 72
1
 10
31.05
 20
3.3716576421
 30
0.0
 11
1.0
 21
0.0
 31
0.0
 73
2
 44
0.9
  1
\Q5.0;Ctrl
 40
1.75
 41
7.5855018587
  0
MTEXT
  5
44B
100
AcDbEntity
  8
0
100
AcDbMText
 62
2
  6
CONTINUOUS
  7
TEXTSTYLE_2
 71
2
 72
1
 10
15.0
 20
3.75
 30
0.0
 11
1.0
 21
0.0
 31
0.0
 73
2
 44
0.9
  1
-
 40
2.5
 41
2.3234200743
  0
MTEXT
  5
44C
100
AcDbEntity
  8
0
100
AcDbMText
 62
2
  6
CONTINUOUS
  7
TEXTSTYLE_2
 71
1
 72
1
 10
31.05
 20
8.3716576421
 30
0.0
 11
1.0
 21
0.0
 31
0.0
 73
2
 44
0.9
  1
\Q5.0;Checked
 40
1.75
 41
19.2955390335
  0
MTEXT
  5
44D
100
AcDbEntity
  8
0
100
AcDbMText
 62
2
  6
CONTINUOUS
  7
TEXTSTYLE_2
 71
2
 72
1
 10
15.0
 20
8.75
 30
0.0
 11
1.0
 21
0.0
 31
0.0
 73
2
 44
0.9
  1
-
 40
2.5
 41
2.3234200743
  0
MTEXT
  5
44E
100
AcDbEntity
  8
0
100
AcDbMText
 62
2
  6
CONTINUOUS
  7
TEXTSTYLE_2
 71
1
 72
1
 10
45.05
 20
13.75
 30
0.0
 11
1.0
 21
0.0
 31
0.0
 73
2
 44
0.9
  1
PKos
 40
2.5
 41
16.6728624535
  0
MTEXT
  5
44F
100
AcDbEntity
  8
0
100
AcDbMText
 62
2
  6
CONTINUOUS
  7
TEXTSTYLE_2
 71
1
 72
1
 10
31.05
 20
13.3716576421
 30
0.0
 11
1.0
 21
0.0
 31
0.0
 73
2
 44
0.9
  1
\Q5.0;By
 40
1.75
 41
5.6988847584
  0
MTEXT
  5
450
100
AcDbEntity
  8
0
100
AcDbMText
 62
2
  6
CONTINUOUS
  7
TEXTSTYLE_2
 71
2
 72
1
 10
15.0
 20
14.0
 30
0.0
 11
1.0
 21
0.0
 31
0.0
 73
2
 44
0.9
  1
1:1
 40
3.0
 41
11.6431226766
  0
MTEXT
  5
451
100
AcDbEntity
  8
0
100
AcDbMText
 62
2
  6
CONTINUOUS
  7
TEXTSTYLE_2
 71
1
 72
1
 10
45.05
 20
18.75
 30
0.0
 11
1.0
 21
0.0
 31
0.0
 73
2
 44
0.9
  1
02.09.11
 40
2.5
 41
27.1747211896
  0
MTEXT
  5
452
100
AcDbEntity
  8
0
100
AcDbMText
 62
2
  6
CONTINUOUS
  7
TEXTSTYLE_2
 71
1
 72
1
 10
31.05
 20
18.3716576421
 30
0.0
 11
1.0
 21
0.0
 31
0.0
 73
2
 44
0.9
  1
\Q5.0;Date
 40
1.75
 41
10.3178438662
  0
MTEXT
  5
453
100
AcDbEntity
  8
0
100
AcDbMText
 62
2
  6
CONTINUOUS
  7
TEXTSTYLE_2
 71
2
 72
1
 10
15.0
 20
18.3716576421
 30
0.0
 11
1.0
 21
0.0
 31
0.0
 73
2
 44
0.9
  1
\Q5.0;Scale
 40
1.75
 41
12.217472119
  0
ENDBLK
  5
454
100
AcDbEntity
  8
0
  6
BYBLOCK
 62
0
100
AcDbBlockEnd
  0
BLOCK
  5
455
100
AcDbEntity
  8
0
100
AcDbBlockBegin
  2
*T5
 70
1
 10
0.0
 20
0.0
  3
*T5
  1

  0
LINE
  5
456
100
AcDbEntity
  8
0
100
AcDbLine
 62
2
  6
CONTINUOUS
 10
0.0
 20
0.0
 11
0.0
 21
42.0
  0
LINE
  5
457
100
AcDbEntity
  8
0
100
AcDbLine
 62
2
  6
CONTINUOUS
 10
0.0
 20
0.0
 11
10.0
 21
0.0
  0
LINE
  5
458
100
AcDbEntity
  8
0
100
AcDbLine
 62
2
  6
CONTINUOUS
 10
5.0
 20
0.0
 11
5.0
 21
42.0
  0
LINE
  5
459
100
AcDbEntity
  8
0
100
AcDbLine
 62
2
  6
CONTINUOUS
 10
10.0
 20
0.0
 11
10.0
 21
42.0
  0
LINE
  5
45A
100
AcDbEntity
  8
0
100
AcDbLine
 62
2
  6
CONTINUOUS
 10
0.0
 20
42.0
 11
10.0
 21
42.0
  0
MTEXT
  5
45B
100
AcDbEntity
  8
0
100
AcDbMText
 62
2
  6
CONTINUOUS
  7
TEXTSTYLE_2
 71
1
 72
1
 10
1.7528648782
 20
1.05
 30
0.0
 11
0.0
 21
1.0
 31
0.0
 73
2
 44
0.9
  1
\Q5.0;model
 40
1.5
 41
11.3977695167
  0
MTEXT
  5
45C
100
AcDbEntity
  8
0
100
AcDbMText
 62
2
  6
CONTINUOUS
  7
TEXTSTYLE_2
 71
1
 72
1
 10
1.25
 20
11.05
 30
0.0
 11
0.0
 21
1.0
 31
0.0
 73
2
 44
0.9
  1
DPCP050704G\H1.0;.PART
 40
2.5
 41
56.312267658
  0
MTEXT
  5
45D
100
AcDbEntity
  8
0
100
AcDbMText
 62
2
  6
CONTINUOUS
  7
TEXTSTYLE_2
 71
1
 72
1
 10
6.7528648782
 20
1.05
 30
0.0
 11
0.0
 21
1.0
 31
0.0
 73
2
 44
0.9
  1
\Q5.0;drawing
 40
1.5
 41
14.6654275093
  0
MTEXT
  5
45E
100
AcDbEntity
  8
0
100
AcDbMText
 62
2
  6
CONTINUOUS
  7
TEXTSTYLE_3
 71
1
 72
1
 10
6.25
 20
11.05
 30
0.0
 11
0.0
 21
1.0
 31
0.0
 73
2
 44
0.9
  1
DPCP050704G_PK1\H1.0;.DRAWING
 40
2.5
 41
79.4200743494
  0
ENDBLK
  5
45F
100
AcDbEntity
  8
0
  6
BYBLOCK
 62
0
100
AcDbBlockEnd
  0
BLOCK
  5
460
100
AcDbEntity
  8
0
100
AcDbBlockBegin
  2
*T6
 70
1
 10
0.0
 20
0.0
  3
*T6
  1

  0
LINE
  5
461
100
AcDbEntity
  8
0
100
AcDbLine
 62
2
  6
CONTINUOUS
 10
0.0
 20
0.0
 11
44.0
 21
0.0
  0
LINE
  5
462
100
AcDbEntity
  8
0
100
AcDbLine
 62
2
  6
CONTINUOUS
 10
0.0
 20
0.0
 11
0.0
 21
-16.0
  0
LINE
  5
463
100
AcDbEntity
  8
0
100
AcDbLine
 62
2
  6
CONTINUOUS
 10
0.0
 20
-12.5
 11
44.0
 21
-12.5
  0
LINE
  5
464
100
AcDbEntity
  8
0
100
AcDbLine
 62
2
  6
CONTINUOUS
 10
0.0
 20
-16.0
 11
44.0
 21
-16.0
  0
LINE
  5
465
100
AcDbEntity
  8
0
100
AcDbLine
 62
2
  6
CONTINUOUS
 10
44.0
 20
0.0
 11
44.0
 21
-16.0
  0
MTEXT
  5
466
100
AcDbEntity
  8
0
100
AcDbMText
 62
2
  6
CONTINUOUS
  7
TEXTSTYLE_2
 71
2
 72
1
 10
22.0
 20
-13.375
 30
0.0
 11
1.0
 21
0.0
 31
0.0
 73
2
 44
0.9
  1
Ensto Building Systems Finland
 40
1.75
 41
68.6598513011
  0
ENDBLK
  5
467
100
AcDbEntity
  8
0
  6
BYBLOCK
 62
0
100
AcDbBlockEnd
  0
ENDSEC
  0
SECTION
  2
ENTITIES
  0
MTEXT
  5
468
100
AcDbEntity
  8
0
100
AcDbMText
 62
2
  6
CONTINUOUS
  7
TEXTSTYLE_2
 71
1
 72
1
 10
165.113280422
 20
53.1833934769
 30
0.0
 11
1.0
 21
0.0
 31
0.0
 73
2
 44
0.9
  1
Dimensions in mm [inches]
 40
2.0
 41
33.3308550186
  0
INSERT
  5
469
100
AcDbEntity
  8
0
100
AcDbBlockReference
 62
2
  6
CONTINUOUS
  2
ENSTO_BL0
 10
49.3918275707
 20
37.5779233823
  0
HATCH
  5
46A
100
AcDbEntity
  8
0
100
AcDbHatch
 62
2
  6
CONTINUOUS
 10
0.0
 20
0.0
 30
0.0
210
0.0
220
0.0
230
1.0
  2
PROCUS_B
 70
0
 71
0
 91
1
 92
1
 93
11
 72
1
 10
167.5315316927
 20
97.2929793243
 11
176.0315316927
 21
97.3671577005
 72
1
 10
176.0315316927
 20
97.3671577005
 11
176.0315316927
 21
119.2929793236
 72
1
 10
176.0315316927
 20
119.2929793236
 11
178.5315316927
 21
119.2929793236
 72
1
 10
178.5315316927
 20
119.2929793236
 11
178.5315316927
 21
95.7929793243
 72
1
 10
178.5315316927
 20
95.7929793243
 11
175.5315316927
 21
92.7929793243
 72
1
 10
175.5315316927
 20
92.7929793243
 11
168.5315316927
 21
92.7929793243
 72
1
 10
168.5315316927
 20
92.7929793243
 11
168.5315316927
 21
93.3929793243
 72
1
 10
168.5315316927
 20
93.3929793243
 11
171.2770726922
 21
93.4888557286
 72
4
 94
3
 73
0
 74
0
 95
18
 96
14
 40
0.0
 40
0.0
 40
0.0
 40
0.0
 40
0.0909090909
 40
0.1818181818
 40
0.2727272727
 40
0.3636363636
 40
0.4545454545
 40
0.5454545455
 40
0.6363636364
 40
0.7272727273
 40
0.8181818182
 40
0.9090909091
 40
1.0
 40
1.0
 40
1.0
 40
1.0
 10
171.2770726922
 20
93.4888557286
 10
171.4015133287
 20
93.493854434
 10
171.6386326098
 20
93.5353404381
 10
171.9711580165
 20
93.69709521
 10
172.2441325254
 20
93.9431957908
 10
172.4392555088
 20
94.2552848473
 10
172.5406498968
 20
94.6089917036
 10
172.5406498968
 20
94.9769669449
 10
172.4392555088
 20
95.3306738012
 10
172.2441325254
 20
95.6427628578
 10
171.9711580165
 20
95.8888634386
 10
171.6386326098
 20
96.0506182105
 10
171.4015133287
 20
96.0921042145
 10
171.2770726922
 20
96.0971029199
 72
1
 10
171.2770726922
 20
96.0971029199
 11
167.5315316927
 21
96.2279000938
 72
1
 10
167.5315316927
 20
96.2279000938
 11
167.5315316927
 21
97.2929793243
 97
0
 75
0
 76
0
 52
45.0
 41
2.0
 77
0
 78
1
 53
45.0
 43
0.0
 44
0.0
 45
-1.4142135624
 46
1.4142135624
 79
0
 98
1
 10
0.0
 20
0.0
  0
HATCH
  5
46B
100
AcDbEntity
  8
0
100
AcDbHatch
 62
2
  6
CONTINUOUS
 10
0.0
 20
0.0
 30
0.0
210
0.0
220
0.0
230
1.0
  2
default__1
 70
0
 71
0
 91
1
 92
1
 93
34
 72
1
 10
145.5315316927
 20
97.3993622903
 11
145.7315316927
 21
97.3993622903
 72
1
 10
145.7315316927
 20
97.3993622903
 11
145.7315316927
 21
97.1440431718
 72
1
 10
145.7315316927
 20
97.1440431718
 11
145.5315316927
 21
97.1440431718
 72
1
 10
145.5315316927
 20
97.1440431718
 11
145.5315316927
 21
96.5482984428
 72
1
 10
145.5315316927
 20
96.5482984428
 11
145.7315316927
 21
96.5482984428
 72
1
 10
145.7315316927
 20
96.5482984428
 11
145.7315316927
 21
96.2929793243
 72
1
 10
145.7315316927
 20
96.2929793243
 11
145.5315316927
 21
96.2929793243
 72
1
 10
145.5315316927
 20
96.2929793243
 11
145.5315316927
 21
95.6067875851
 72
1
 10
145.5315316927
 20
95.6067875851
 11
169.5358949604
 21
95.3973046805
 72
4
 94
3
 73
0
 74
0
 95
14
 96
10
 40
0.0
 40
0.0
 40
0.0
 40
0.0
 40
0.1428571429
 40
0.2857142857
 40
0.4285714286
 40
0.5714285714
 40
0.7142857143
 40
0.8571428571
 40
1.0
 40
1.0
 40
1.0
 40
1.0
 10
169.5358949604
 20
95.3973046805
 10
169.6033530285
 20
95.3958085856
 10
169.7275070365
 20
95.3708390733
 10
169.8930755457
 20
95.260963313
 10
170.003109908
 20
95.0981346347
 10
170.0440218061
 20
94.9053810528
 10
170.0096151932
 20
94.7118948147
 10
169.9029528738
 20
94.544238131
 10
169.799645534
 20
94.4709900062
 10
169.738611137
 20
94.4422214187
 72
1
 10
169.738611137
 20
94.4422214187
 11
168.5315316927
 21
93.8929793243
 72
1
 10
168.5315316927
 20
93.8929793243
 11
168.5315316927
 21
93.3288777091
 72
1
 10
168.5315316927
 20
93.3288777091
 11
166.5315316927
 21
92.7929793243
 72
1
 10
166.5315316927
 20
92.7929793243
 11
144.0315316927
 21
92.7929793243
 72
1
 10
144.0315316927
 20
92.7929793243
 11
143.5315316927
 21
93.2929793243
 72
1
 10
143.5315316927
 20
93.2929793243
 11
143.5315316927
 21
119.2929793236
 72
1
 10
143.5315316927
 20
119.2929793236
 11
145.5315316927
 21
119.2929793236
 72
1
 10
145.5315316927
 20
119.2929793236
 11
145.5315316927
 21
106.7929793243
 72
1
 10
145.5315316927
 20
106.7929793243
 11
145.7315316927
 21
106.7929793243
 72
1
 10
145.7315316927
 20
106.7929793243
 11
145.7315316927
 21
105.1429793243
 72
1
 10
145.7315316927
 20
105.1429793243
 11
145.5315316927
 21
105.1429793243
 72
1
 10
145.5315316927
 20
105.1429793243
 11
145.5315316927
 21
103.1429793243
 72
1
 10
145.5315316927
 20
103.1429793243
 11
145.7315316927
 21
103.1429793243
 72
1
 10
145.7315316927
 20
103.1429793243
 11
145.7315316927
 21
102.4429793243
 72
1
 10
145.7315316927
 20
102.4429793243
 11
145.5315316927
 21
102.4429793243
 72
1
 10
145.5315316927
 20
102.4429793243
 11
145.5315316927
 21
100.4429793243
 72
1
 10
145.5315316927
 20
100.4429793243
 11
145.7315316927
 21
100.4429793243
 72
1
 10
145.7315316927
 20
100.4429793243
 11
145.7315316927
 21
98.7929793243
 72
1
 10
145.7315316927
 20
98.7929793243
 11
145.5315316927
 21
98.7929793243
 72
1
 10
145.5315316927
 20
98.7929793243
 11
145.5315316927
 21
98.2929793243
 72
1
 10
145.5315316927
 20
98.2929793243
 11
145.7315316927
 21
98.2929793243
 72
1
 10
145.7315316927
 20
98.2929793243
 11
145.7315316927
 21
98.037660176
 72
1
 10
145.7315316927
 20
98.037660176
 11
145.5315316927
 21
98.037660176
 72
1
 10
145.5315316927
 20
98.037660176
 11
145.5315316927
 21
97.3993622903
 97
0
 75
0
 76
0
 52
135.0
 41
2.0
 77
0
 78
1
 53
135.0
 43
0.0
 44
0.0
 45
-1.4142135624
 46
-1.4142135624
 79
0
 98
1
 10
0.0
 20
0.0
  0
HATCH
  5
46C
100
AcDbEntity
  8
0
100
AcDbHatch
 62
2
  6
CONTINUOUS
 10
0.0
 20
0.0
 30
0.0
210
0.0
220
0.0
230
1.0
  2
PROCUS_A2
 70
0
 71
0
 91
1
 92
1
 93
11
 72
1
 10
107.7783958677
 20
221.4394517808
 11
107.7042174915
 21
229.9394517808
 72
1
 10
107.7042174915
 20
229.9394517808
 11
79.7783958684
 21
229.9394517808
 72
1
 10
79.7783958684
 20
229.9394517808
 11
79.7783958684
 21
232.4394517808
 72
1
 10
79.7783958684
 20
232.4394517808
 11
109.2783958677
 21
232.4394517808
 72
1
 10
109.2783958677
 20
232.4394517808
 11
112.2783958677
 21
229.4394517808
 72
1
 10
112.2783958677
 20
229.4394517808
 11
112.2783958677
 21
222.4394517808
 72
1
 10
112.2783958677
 20
222.4394517808
 11
111.6783958677
 21
222.4394517808
 72
1
 10
111.6783958677
 20
222.4394517808
 11
111.5825194633
 21
225.1849927803
 72
4
 94
3
 73
0
 74
0
 95
18
 96
14
 40
0.0
 40
0.0
 40
0.0
 40
0.0
 40
0.0909090909
 40
0.1818181818
 40
0.2727272727
 40
0.3636363636
 40
0.4545454545
 40
0.5454545455
 40
0.6363636364
 40
0.7272727273
 40
0.8181818182
 40
0.9090909091
 40
1.0
 40
1.0
 40
1.0
 40
1.0
 10
111.5825194633
 20
225.1849927803
 10
111.577520758
 20
225.3094334168
 10
111.5360347539
 20
225.5465526979
 10
111.374279982
 20
225.8790781046
 10
111.1281794012
 20
226.1520526135
 10
110.8160903447
 20
226.3471755969
 10
110.4623834883
 20
226.4485699849
 10
110.0944082471
 20
226.4485699849
 10
109.7407013908
 20
226.3471755969
 10
109.4286123342
 20
226.1520526135
 10
109.1825117534
 20
225.8790781046
 10
109.0207569815
 20
225.5465526979
 10
108.9792709774
 20
225.3094334168
 10
108.9742722721
 20
225.1849927803
 72
1
 10
108.9742722721
 20
225.1849927803
 11
108.8434750982
 21
221.4394517808
 72
1
 10
108.8434750982
 20
221.4394517808
 11
107.7783958677
 21
221.4394517808
 97
0
 75
0
 76
0
 52
45.0
 41
2.0
 77
0
 78
1
 53
45.0
 43
0.0
 44
0.0
 45
-1.4142135624
 46
1.4142135624
 79
0
 98
1
 10
0.0
 20
0.0
  0
HATCH
  5
46D
100
AcDbEntity
  8
0
100
AcDbHatch
 62
2
  6
CONTINUOUS
 10
0.0
 20
0.0
 30
0.0
210
0.0
220
0.0
230
1.0
  2
default__2
 70
0
 71
0
 91
1
 92
1
 93
26
 72
4
 94
3
 73
0
 74
0
 95
11
 96
7
 40
0.0
 40
0.0
 40
0.0
 40
0.0
 40
0.25
 40
0.5
 40
0.75
 40
1.0
 40
1.0
 40
1.0
 40
1.0
 10
99.7533958635
 20
198.4394517808
 10
99.7945765988
 20
198.4400310116
 10
99.8703190993
 20
198.4548711572
 10
99.9712173024
 20
198.5216293345
 10
100.0379758702
 20
198.6225267506
 10
100.0528164277
 20
198.6982702885
 10
100.0533958677
 20
198.7394517808
 72
1
 10
100.0533958677
 20
198.7394517808
 11
100.0533958677
 21
204.4394517808
 72
1
 10
100.0533958677
 20
204.4394517808
 11
100.2783958677
 21
204.4394517808
 72
1
 10
100.2783958677
 20
204.4394517808
 11
100.2783958677
 21
205.4394517808
 72
1
 10
100.2783958677
 20
205.4394517808
 11
101.7783958677
 21
205.4394517808
 72
1
 10
101.7783958677
 20
205.4394517808
 11
101.8281618607
 21
199.7368338202
 72
4
 94
3
 73
0
 74
0
 95
11
 96
7
 40
0.0
 40
0.0
 40
0.0
 40
0.0
 40
0.25
 40
0.5
 40
0.75
 40
1.0
 40
1.0
 40
1.0
 40
1.0
 10
101.8281618607
 20
199.7368338202
 10
101.8290858644
 20
199.6959076752
 10
101.8444252229
 20
199.6206863425
 10
101.9113463598
 20
199.5207474269
 10
102.0118654597
 20
199.4547009586
 10
102.0872177877
 20
199.4400186058
 10
102.1281504376
 20
199.4394517808
 72
1
 10
102.1281504376
 20
199.4394517808
 11
109.4645876068
 21
199.4394517808
 72
1
 10
109.4645876068
 20
199.4394517808
 11
109.6740705115
 21
223.4438150486
 72
4
 94
3
 73
0
 74
0
 95
14
 96
10
 40
0.0
 40
0.0
 40
0.0
 40
0.0
 40
0.1428571429
 40
0.2857142857
 40
0.4285714286
 40
0.5714285714
 40
0.7142857143
 40
0.8571428571
 40
1.0
 40
1.0
 40
1.0
 40
1.0
 10
109.6740705115
 20
223.4438150486
 10
109.6755666064
 20
223.5112731166
 10
109.7005361186
 20
223.6354271246
 10
109.810411879
 20
223.8009956338
 10
109.9732405573
 20
223.9110299961
 10
110.1659941392
 20
223.9519418942
 10
110.3594803773
 20
223.9175352813
 10
110.527137061
 20
223.8108729619
 10
110.6003851858
 20
223.7075656221
 10
110.6291537733
 20
223.6465312251
 72
1
 10
110.6291537733
 20
223.6465312251
 11
111.1783958677
 21
222.4394517808
 72
1
 10
111.1783958677
 20
222.4394517808
 11
111.7424974828
 21
222.4394517808
 72
1
 10
111.7424974828
 20
222.4394517808
 11
112.2783958677
 21
220.4394517808
 72
1
 10
112.2783958677
 20
220.4394517808
 11
112.2783958677
 21
197.9394517808
 72
1
 10
112.2783958677
 20
197.9394517808
 11
111.7783958677
 21
197.4394517808
 72
1
 10
111.7783958677
 20
197.4394517808
 11
79.7783958684
 21
197.4394517808
 72
1
 10
79.7783958684
 20
197.4394517808
 11
79.7783958684
 21
199.4394517808
 72
1
 10
79.7783958684
 20
199.4394517808
 11
95.4286412978
 21
199.4394517808
 72
4
 94
3
 73
0
 74
0
 95
11
 96
7
 40
0.0
 40
0.0
 40
0.0
 40
0.0
 40
0.25
 40
0.5
 40
0.75
 40
1.0
 40
1.0
 40
1.0
 40
1.0
 10
95.4286412978
 20
199.4394517808
 10
95.4695739477
 20
199.4400186058
 10
95.5449262757
 20
199.4547009586
 10
95.6454453756
 20
199.5207474269
 10
95.7123665125
 20
199.6206863425
 10
95.7277058711
 20
199.6959076752
 10
95.7286298747
 20
199.7368338202
 72
1
 10
95.7286298747
 20
199.7368338202
 11
95.7783958677
 21
205.4394517808
 72
1
 10
95.7783958677
 20
205.4394517808
 11
97.2783958677
 21
205.4394517808
 72
1
 10
97.2783958677
 20
205.4394517808
 11
97.2783958677
 21
204.4394517808
 72
1
 10
97.2783958677
 20
204.4394517808
 11
97.5033958677
 21
204.4394517808
 72
1
 10
97.5033958677
 20
204.4394517808
 11
97.5033958677
 21
198.7394517808
 72
4
 94
3
 73
0
 74
0
 95
11
 96
7
 40
0.0
 40
0.0
 40
0.0
 40
0.0
 40
0.25
 40
0.5
 40
0.75
 40
1.0
 40
1.0
 40
1.0
 40
1.0
 10
97.5033958677
 20
198.7394517808
 10
97.5039753077
 20
198.6982702885
 10
97.5188158652
 20
198.6225267506
 10
97.585574433
 20
198.5216293345
 10
97.6864726361
 20
198.4548711572
 10
97.7622151366
 20
198.4400310116
 10
97.803395872
 20
198.4394517808
 72
1
 10
97.8033958677
 20
198.4394517808
 11
99.7533958677
 21
198.4394517808
 97
0
 75
0
 76
0
 52
135.0
 41
2.0
 77
0
 78
1
 53
135.0
 43
0.0
 44
0.0
 45
-1.4142135624
 46
-1.4142135624
 79
0
 98
1
 10
0.0
 20
0.0
  0
DIMENSION
  5
46E
100
AcDbEntity
  8
0
100
AcDbDimension
 62
2
  6
CONTINUOUS
  2
*D0
 10
176.0315316927
 20
77.7929793243
 11
160.7815316927
 21
77.7929793243
 70
160
 71
2
 72
2
 41
0.9
 42
30.5
  3
DIMSTYLE_1
100
AcDbAlignedDimension
 13
145.5315316927
 23
95.6067875851
 14
176.0315316927
 24
97.3671577005
100
AcDbRotatedDimension
  0
DIMENSION
  5
46F
100
AcDbEntity
  8
0
100
AcDbDimension
 62
2
  6
CONTINUOUS
  2
*D1
 10
145.5315316927
 20
82.7929793243
 11
131.4638737001
 21
82.7929793243
 70
160
 71
3
 72
2
 41
0.9
 42
6.0
  3
DIMSTYLE_1
100
AcDbAlignedDimension
 13
151.5315316927
 23
112.2929793243
 14
145.5315316927
 24
95.6067875851
 50
180.0
100
AcDbRotatedDimension
  0
DIMENSION
  5
470
100
AcDbEntity
  8
0
100
AcDbDimension
 62
2
  6
CONTINUOUS
  2
*D2
 10
188.5315316927
 20
135.5922613651
 11
188.5315316927
 21
165.7334742351
 70
160
 71
1
 72
2
 41
0.9
 42
8.4014359184
  1
%%c<>
  3
DIMSTYLE_1
100
AcDbAlignedDimension
 13
168.5315316927
 23
143.9936972835
 14
168.5315316927
 24
135.5922613651
 50
270.0
100
AcDbRotatedDimension
  0
DIMENSION
  5
471
100
AcDbEntity
  8
0
100
AcDbDimension
 62
2
  6
CONTINUOUS
  2
*D3
 10
132.5315316927
 20
141.9429793243
 11
132.5315316927
 21
155.2463288787
 70
160
 71
1
 72
2
 41
0.9
 42
4.3
  1
%%c<>
  3
DIMSTYLE_1
100
AcDbAlignedDimension
 13
142.5315316927
 23
137.6429793243
 14
142.5315316927
 24
141.9429793243
 50
90.0
100
AcDbRotatedDimension
  0
DIMENSION
  5
472
100
AcDbEntity
  8
0
100
AcDbDimension
 62
2
  6
CONTINUOUS
  2
*D4
 10
132.5315316927
 20
118.0179793243
 11
132.5315316927
 21
106.1520589834
 70
160
 71
3
 72
2
 41
0.9
 42
2.55
  1
%%c<>
  3
DIMSTYLE_2
100
AcDbAlignedDimension
 13
144.8315316927
 23
120.5679793243
 14
144.8315316927
 24
118.0179793243
 50
270.0
100
AcDbRotatedDimension
  0
DIMENSION
  5
473
100
AcDbEntity
  8
0
100
AcDbDimension
 62
2
  6
CONTINUOUS
  2
*D5
 10
178.5315316927
 20
112.4342313731
 11
189.0851921845
 21
112.4342313731
 70
160
 71
1
 72
2
 41
0.9
 42
2.5
  3
DIMSTYLE_1
100
AcDbAlignedDimension
 13
176.0315316927
 23
97.3671577005
 14
178.5315316927
 24
95.7929793243
100
AcDbRotatedDimension
  0
DIMENSION
  5
474
100
AcDbEntity
  8
0
100
AcDbDimension
 62
2
  6
CONTINUOUS
  2
*D6
 10
145.5315316927
 20
160.5934901658
 11
153.2201900169
 21
160.5934901658
 70
160
 71
1
 72
2
 41
0.9
 42
3.0
  3
DIMSTYLE_1
100
AcDbAlignedDimension
 13
142.5315316927
 23
143.7929793243
 14
145.5315316927
 24
143.7929793243
100
AcDbRotatedDimension
  0
DIMENSION
  5
475
100
AcDbEntity
  8
0
100
AcDbDimension
 62
2
  6
CONTINUOUS
  2
*D7
 10
98.7783958677
 20
82.7929793243
 11
79.7783958677
 21
82.7929793243
 70
160
 71
2
 72
2
 41
0.9
 42
38.0
  3
DIMSTYLE_1
100
AcDbAlignedDimension
 13
60.7783958677
 23
115.6652148289
 14
98.7783958677
 24
115.4048312672
100
AcDbRotatedDimension
  0
DIMENSION
  5
476
100
AcDbEntity
  8
0
100
AcDbDimension
 62
2
  6
CONTINUOUS
  2
*D8
 10
106.2783958677
 20
77.7929793243
 11
79.7783958677
 21
77.7929793243
 70
160
 71
2
 72
2
 41
0.9
 42
53.0
  3
DIMSTYLE_1
100
AcDbAlignedDimension
 13
53.2783958677
 23
90.9287764727
 14
106.2783958677
 24
94.8345298974
100
AcDbRotatedDimension
  0
DIMENSION
  5
477
100
AcDbEntity
  8
0
100
AcDbDimension
 62
2
  6
CONTINUOUS
  2
*D9
 10
112.2783958677
 20
72.7929793243
 11
79.7783958677
 21
72.7929793243
 70
160
 71
2
 72
2
 41
0.9
 42
65.0
  3
DIMSTYLE_1
100
AcDbAlignedDimension
 13
47.2783958677
 23
95.7929793243
 14
112.2783958677
 24
95.7929793243
100
AcDbRotatedDimension
  0
DIMENSION
  5
478
100
AcDbEntity
  8
0
100
AcDbDimension
 62
2
  6
CONTINUOUS
  2
*D10
 10
37.2783958677
 20
139.7929793243
 11
37.2783958677
 21
119.2929793243
 70
160
 71
2
 72
2
 41
0.9
 42
41.0
  3
DIMSTYLE_1
100
AcDbAlignedDimension
 13
48.6362738087
 23
98.7929793243
 14
48.2456984662
 24
139.7929793243
 50
90.0
100
AcDbRotatedDimension
  0
DIMENSION
  5
479
100
AcDbEntity
  8
0
100
AcDbDimension
 62
2
  6
CONTINUOUS
  2
*D11
 10
32.2783958677
 20
145.7929793243
 11
32.2783958677
 21
119.2929793243
 70
160
 71
2
 72
2
 41
0.9
 42
53.0
  3
DIMSTYLE_1
100
AcDbAlignedDimension
 13
50.2783958677
 23
92.7929793243
 14
50.2783958677
 24
145.7929793243
 50
90.0
100
AcDbRotatedDimension
  0
DIMENSION
  5
47A
100
AcDbEntity
  8
0
100
AcDbDimension
 62
2
  6
CONTINUOUS
  2
*D12
 10
37.2783958677
 20
222.4394517808
 11
37.2783958677
 21
209.9394517808
 70
160
 71
2
 72
2
 41
0.9
 42
25.0
  3
DIMSTYLE_1
100
AcDbAlignedDimension
 13
50.4855026489
 23
197.4394517808
 14
50.2783958677
 24
222.4394517808
 50
90.0
100
AcDbRotatedDimension
  0
DIMENSION
  5
47B
100
AcDbEntity
  8
0
100
AcDbDimension
 62
2
  6
CONTINUOUS
  2
*D13
 10
37.2783958677
 20
232.4394517808
 11
37.2783958677
 21
245.6070921381
 70
160
 71
1
 72
2
 41
0.9
 42
10.0
  3
DIMSTYLE_1
100
AcDbAlignedDimension
 13
50.2783958677
 23
222.4394517808
 14
57.3045764711
 24
232.4394517808
 50
90.0
100
AcDbRotatedDimension
  0
DIMENSION
  5
47C
100
AcDbEntity
  8
0
100
AcDbDimension
 62
2
  6
CONTINUOUS
  2
*D14
 10
32.2783958677
 20
232.4394517808
 11
32.2783958677
 21
214.4394517808
 70
160
 71
2
 72
2
 41
0.9
 42
36.0
  3
DIMSTYLE_1
100
AcDbAlignedDimension
 13
48.7783958677
 23
196.4394517808
 14
57.3045764711
 24
232.4394517808
 50
90.0
100
AcDbRotatedDimension
  0
ACAD_TABLE
  5
47D
100
AcDbEntity
  8
0
 62
2
  6
CONTINUOUS
100
AcDbBlockReference
  2
*T1
 10
16.9999978361
 20
266.0000036655
 30
0.0
100
AcDbTable
342
       765
343
21A
 11
1.0
 21
0.0
 31
0.0
 90
6
 91
4
 92
5
 93
4
 94
0
 95
0
 96
0
 70
1
141
6.0
141
6.0
141
6.0
141
6.0
142
11.0
142
120.0
142
18.0
142
18.0
142
18.0
171
1
172
0
173
0
174
0
175
1
176
1
 91
49
178
0
145
0.0
  7
TEXTSTYLE_2
301
CELL_VALUE
 90
4
  1
C
304
ACVALUE_END
170
5
140
2.5
171
1
172
0
173
0
174
0
175
1
176
1
 91
49
178
0
145
0.0
  7
TEXTSTYLE_2
301
CELL_VALUE
 90
4
  1
Drawing mirroring corrected.
304
ACVALUE_END
170
4
140
2.5
171
1
172
0
173
0
174
0
175
1
176
1
 91
49
178
0
145
0.0
  7
TEXTSTYLE_2
301
CELL_VALUE
 90
4
  1
8.3.2023
304
ACVALUE_END
170
5
140
2.5
171
1
172
0
173
0
174
0
175
1
176
1
 91
49
178
0
145
0.0
  7
TEXTSTYLE_2
301
CELL_VALUE
 90
4
  1
KA
304
ACVALUE_END
170
5
140
2.5
171
1
172
0
173
0
174
0
175
1
176
1
 91
33
178
0
145
0.0
301
CELL_VALUE
 90
4
  1
 
304
ACVALUE_END
170
5
140
3.0
171
1
172
0
173
0
174
0
175
1
176
1
 91
33
178
0
145
0.0
301
CELL_VALUE
 90
4
  1
 
304
ACVALUE_END
170
5
140
3.0
171
1
172
0
173
0
174
0
175
1
176
1
 91
33
178
0
145
0.0
301
CELL_VALUE
 90
4
  1
 
304
ACVALUE_END
170
4
140
3.0
171
1
172
0
173
0
174
0
175
1
176
1
 91
33
178
0
145
0.0
301
CELL_VALUE
 90
4
  1
 
304
ACVALUE_END
170
5
140
3.0
171
1
172
0
173
0
174
0
175
1
176
1
 91
33
178
0
145
0.0
301
CELL_VALUE
 90
4
  1
 
304
ACVALUE_END
170
5
140
3.0
171
1
172
0
173
0
174
0
175
1
176
1
 91
33
178
0
145
0.0
301
CELL_VALUE
 90
4
  1
 
304
ACVALUE_END
170
5
140
3.0
171
1
172
0
173
0
174
0
175
1
176
1
 91
33
178
0
145
0.0
301
CELL_VALUE
 90
4
  1
 
304
ACVALUE_END
170
5
140
3.0
171
1
172
0
173
0
174
0
175
1
176
1
 91
33
178
0
145
0.0
301
CELL_VALUE
 90
4
  1
 
304
ACVALUE_END
170
4
140
3.0
171
1
172
0
173
0
174
0
175
1
176
1
 91
33
178
0
145
0.0
301
CELL_VALUE
 90
4
  1
 
304
ACVALUE_END
170
5
140
3.0
171
1
172
0
173
0
174
0
175
1
176
1
 91
33
178
0
145
0.0
301
CELL_VALUE
 90
4
  1
 
304
ACVALUE_END
170
5
140
3.0
171
1
172
0
173
0
174
0
175
1
176
1
 91
33
178
0
145
0.0
301
CELL_VALUE
 90
4
  1
 
304
ACVALUE_END
170
5
140
3.0
171
1
172
0
173
0
174
0
175
1
176
1
 91
49
178
0
145
0.0
  7
TEXTSTYLE_2
301
CELL_VALUE
 90
4
  1
\Q5.0;ID
304
ACVALUE_END
170
5
140
2.0
171
1
172
0
173
0
174
0
175
1
176
1
 91
49
178
0
145
0.0
  7
TEXTSTYLE_2
301
CELL_VALUE
 90
4
  1
\Q5.0;Description
304
ACVALUE_END
170
5
140
2.0
171
1
172
0
173
0
174
0
175
1
176
1
 91
49
178
0
145
0.0
  7
TEXTSTYLE_2
301
CELL_VALUE
 90
4
  1
\Q5.0;Date
304
ACVALUE_END
170
5
140
2.0
171
1
172
0
173
0
174
0
175
1
176
1
 91
49
178
0
145
0.0
  7
TEXTSTYLE_2
301
CELL_VALUE
 90
4
  1
\Q5.0;By
304
ACVALUE_END
170
5
140
2.0
171
1
172
0
173
0
174
0
175
1
176
1
 91
49
178
0
145
0.0
  7
TEXTSTYLE_2
301
CELL_VALUE
 90
4
  1
\Q5.0;Appr.
304
ACVALUE_END
170
5
140
2.0
  0
ACAD_TABLE
  5
47E
100
AcDbEntity
  8
0
 62
2
  6
CONTINUOUS
100
AcDbBlockReference
  2
*T2
 10
26.9999339747
 20
49.0000034844
 30
0.0
100
AcDbTable
342
       764
343
21B
 11
1.0
 21
0.0
 31
0.0
 90
22
 91
1
 92
6
 93
0
 94
0
 95
0
 96
0
141
6.0
142
12.0
142
79.0
142
15.0
142
29.0
142
15.0
142
25.0
171
1
172
0
173
0
174
0
175
1
176
1
 91
49
178
0
145
0.0
  7
TEXTSTYLE_2
301
CELL_VALUE
 90
4
  1
\Q5.0;Material:
304
ACVALUE_END
170
4
140
1.75
171
1
172
0
173
0
174
0
175
1
176
1
 91
49
178
0
145
0.0
  7
TEXTSTYLE_2
301
CELL_VALUE
 90
4
  1
Polycarbonate
304
ACVALUE_END
170
4
140
2.5
171
1
172
0
173
0
174
0
175
1
176
1
 91
49
178
0
145
0.0
  7
TEXTSTYLE_2
301
CELL_VALUE
 90
4
  1
\Q5.0;Color:
304
ACVALUE_END
170
4
140
1.75
171
1
172
0
173
0
174
0
175
1
176
1
 91
49
178
0
145
0.0
  7
TEXTSTYLE_2
301
CELL_VALUE
 90
4
  1
RAL 7035
304
ACVALUE_END
170
1
140
3.0
171
1
172
0
173
0
174
0
175
1
176
1
 91
49
178
0
145
0.0
  7
TEXTSTYLE_2
301
CELL_VALUE
 90
4
  1
\Q5.0;Weight (kg):
304
ACVALUE_END
170
4
140
1.75
171
1
172
0
173
0
174
0
175
1
176
1
 91
49
178
0
145
0.0
  7
TEXTSTYLE_2
301
CELL_VALUE
 90
4
  1
0.055
304
ACVALUE_END
170
1
140
3.0
  0
ACAD_TABLE
  5
47F
100
AcDbEntity
  8
0
 62
2
  6
CONTINUOUS
100
AcDbBlockReference
  2
*T3
 10
91.9999338812
 20
7.0000033963
 30
0.0
100
AcDbTable
342
       765
343
21C
 11
1.0
 21
0.0
 31
0.0
 90
6
 91
6
 92
4
 93
4
 94
0
 95
0
 96
0
 70
1
141
5.5548
141
6.148
141
6.1484
141
6.1484
141
6.0
141
6.0
142
70.0
142
12.0
142
17.0
142
11.0
171
1
172
0
173
0
174
0
175
1
176
1
 91
33
178
0
145
0.0
301
CELL_VALUE
 90
4
  1
 
304
ACVALUE_END
170
8
140
3.0
171
1
172
0
173
0
174
0
175
1
176
1
 91
49
178
0
145
0.0
  7
TEXTSTYLE_2
301
CELL_VALUE
 90
4
  1
\Q5.0;Sheet No:
304
ACVALUE_END
170
4
140
1.75
171
1
172
0
173
0
174
0
175
2
176
1
 91
33
178
0
145
0.0
301
CELL_VALUE
 90
4
  1
 
304
ACVALUE_END
170
1
140
3.0
171
1
172
0
173
1
174
0
175
1
176
1
 91
1
178
0
145
0.0
170
1
171
1
172
0
173
0
174
0
175
1
176
1
 91
33
178
0
145
0.0
301
CELL_VALUE
 90
4
  1
 
304
ACVALUE_END
170
8
140
3.0
171
1
172
0
173
0
174
0
175
1
176
1
 91
49
178
0
145
0.0
  7
TEXTSTYLE_2
301
CELL_VALUE
 90
4
  1
\Q5.0;Code:
304
ACVALUE_END
170
4
140
1.75
171
1
172
0
173
0
174
0
175
2
176
1
 91
49
178
0
145
0.0
  7
TEXTSTYLE_2
301
CELL_VALUE
 90
4
  1
DPCP050704G
304
ACVALUE_END
170
3
140
2.2
171
1
172
0
173
1
174
0
175
1
176
1
 91
1
178
0
145
0.0
170
3
171
1
172
0
173
0
174
0
175
1
176
1
 91
33
178
0
145
0.0
301
CELL_VALUE
 90
4
  1
 
304
ACVALUE_END
170
8
140
3.0
171
1
172
0
173
0
174
0
175
1
176
1
 91
49
178
0
145
0.0
  7
TEXTSTYLE_2
301
CELL_VALUE
 90
4
  1
\Q5.0;Ref:
304
ACVALUE_END
170
4
140
1.75
171
1
172
0
173
0
174
0
175
2
176
1
 91
33
178
0
145
0.0
301
CELL_VALUE
 90
4
  1
 
304
ACVALUE_END
170
1
140
3.0
171
1
172
0
173
1
174
0
175
1
176
1
 91
1
178
0
145
0.0
170
1
171
1
172
0
173
0
174
0
175
1
176
1
 91
33
178
0
145
0.0
301
CELL_VALUE
 90
4
  1
 
304
ACVALUE_END
170
8
140
3.0
171
1
172
0
173
0
174
0
175
1
176
1
 91
49
178
0
145
0.0
  7
TEXTSTYLE_2
301
CELL_VALUE
 90
4
  1
\Q5.0;Drw No:
304
ACVALUE_END
170
4
140
1.75
171
1
172
0
173
0
174
0
175
1
176
1
 91
33
178
0
145
0.0
301
CELL_VALUE
 90
4
  1
 
304
ACVALUE_END
170
1
140
3.0
171
1
172
0
173
0
174
0
175
1
176
1
 91
49
178
0
145
0.0
  7
TEXTSTYLE_2
301
CELL_VALUE
 90
4
  1
C
304
ACVALUE_END
170
1
140
2.5
171
1
172
0
173
0
174
0
175
1
176
1
 91
49
178
0
145
0.0
  7
TEXTSTYLE_2
301
CELL_VALUE
 90
4
  1
DPCP050704G
304
ACVALUE_END
170
8
140
4.0
171
1
172
0
173
0
174
0
175
1
176
1
 91
49
178
0
145
0.0
  7
TEXTSTYLE_2
301
CELL_VALUE
 90
4
  1
\Q5.0;Replaced:
304
ACVALUE_END
170
4
140
1.75
171
1
172
0
173
0
174
0
175
2
176
1
 91
33
178
0
145
0.0
301
CELL_VALUE
 90
4
  1
 
304
ACVALUE_END
170
1
140
3.0
171
1
172
0
173
1
174
0
175
1
176
1
 91
1
178
0
145
0.0
170
1
171
1
172
0
173
0
174
0
175
1
176
1
 91
33
178
0
145
0.0
301
CELL_VALUE
 90
4
  1
 
304
ACVALUE_END
170
1
140
3.0
171
1
172
0
173
0
174
0
175
1
176
1
 91
49
178
0
145
0.0
  7
TEXTSTYLE_2
301
CELL_VALUE
 90
4
  1
\Q5.0;Replaces:
304
ACVALUE_END
170
4
140
1.75
171
1
172
0
173
0
174
0
175
2
176
1
 91
33
178
0
145
0.0
301
CELL_VALUE
 90
4
  1
 
304
ACVALUE_END
170
1
140
3.0
171
1
172
0
173
1
174
0
175
1
176
1
 91
1
178
0
145
0.0
170
1
  0
ACAD_TABLE
  5
480
100
AcDbEntity
  8
0
 62
2
  6
CONTINUOUS
100
AcDbBlockReference
  2
*T4
 10
26.9999338817
 20
7.0000034085
 30
0.0
100
AcDbTable
342
       765
343
21D
 11
1.0
 21
0.0
 31
0.0
 90
6
 91
5
 92
3
 93
4
 94
0
 95
0
 96
0
 70
1
141
5.0
141
5.0
141
5.0
141
5.0
141
16.0
142
30.0
142
14.0
142
21.0
171
1
172
0
173
0
174
0
175
1
176
1
 91
49
178
0
145
0.0
  7
TEXTSTYLE_2
301
CELL_VALUE
 90
4
  1
-
304
ACVALUE_END
170
5
140
2.5
171
1
172
0
173
0
174
0
175
1
176
1
 91
49
178
0
145
0.0
  7
TEXTSTYLE_2
301
CELL_VALUE
 90
4
  1
\Q5.0;Ctrl
304
ACVALUE_END
170
4
140
1.75
171
1
172
0
173
0
174
0
175
1
176
1
 91
33
178
0
145
0.0
301
CELL_VALUE
 90
4
  1
 
304
ACVALUE_END
170
4
140
3.0
171
1
172
0
173
0
174
0
175
1
176
1
 91
49
178
0
145
0.0
  7
TEXTSTYLE_2
301
CELL_VALUE
 90
4
  1
-
304
ACVALUE_END
170
5
140
2.5
171
1
172
0
173
0
174
0
175
1
176
1
 91
49
178
0
145
0.0
  7
TEXTSTYLE_2
301
CELL_VALUE
 90
4
  1
\Q5.0;Checked
304
ACVALUE_END
170
4
140
1.75
171
1
172
0
173
0
174
0
175
1
176
1
 91
33
178
0
145
0.0
301
CELL_VALUE
 90
4
  1
 
304
ACVALUE_END
170
4
140
3.0
171
1
172
0
173
0
174
0
175
1
176
1
 91
49
178
0
145
0.0
  7
TEXTSTYLE_2
301
CELL_VALUE
 90
4
  1
1:1
304
ACVALUE_END
170
5
140
3.0
171
1
172
0
173
0
174
0
175
1
176
1
 91
49
178
0
145
0.0
  7
TEXTSTYLE_2
301
CELL_VALUE
 90
4
  1
\Q5.0;By
304
ACVALUE_END
170
4
140
1.75
171
1
172
0
173
0
174
0
175
1
176
1
 91
49
178
0
145
0.0
  7
TEXTSTYLE_2
301
CELL_VALUE
 90
4
  1
PKos
304
ACVALUE_END
170
4
140
2.5
171
1
172
0
173
0
174
0
175
1
176
1
 91
49
178
0
145
0.0
  7
TEXTSTYLE_2
301
CELL_VALUE
 90
4
  1
\Q5.0;Scale
304
ACVALUE_END
170
5
140
1.75
171
1
172
0
173
0
174
0
175
1
176
1
 91
49
178
0
145
0.0
  7
TEXTSTYLE_2
301
CELL_VALUE
 90
4
  1
\Q5.0;Date
304
ACVALUE_END
170
4
140
1.75
171
1
172
0
173
0
174
0
175
1
176
1
 91
49
178
0
145
0.0
  7
TEXTSTYLE_2
301
CELL_VALUE
 90
4
  1
02.09.11
304
ACVALUE_END
170
4
140
2.5
171
1
172
0
173
0
174
0
175
2
176
1
 91
33
178
0
145
0.0
301
CELL_VALUE
 90
4
  1
 
304
ACVALUE_END
170
1
140
3.0
171
1
172
0
173
1
174
0
175
1
176
1
 91
1
178
0
145
0.0
170
1
171
1
172
0
173
0
174
0
175
1
176
1
 91
33
178
0
145
0.0
301
CELL_VALUE
 90
4
  1
 
304
ACVALUE_END
170
1
140
3.0
  0
ACAD_TABLE
  5
481
100
AcDbEntity
  8
0
 62
2
  6
CONTINUOUS
100
AcDbBlockReference
  2
*T5
 10
16.9999254007
 20
7.0000024496
 30
0.0
100
AcDbTable
342
       764
343
21E
 11
0.0
 21
1.0
 31
0.0
 90
22
 91
2
 92
2
 93
0
 94
0
 95
0
 96
0
141
5.0
141
5.0
142
10.0
142
32.0
171
1
172
0
173
0
174
0
175
1
176
1
 91
49
178
0
145
0.0
  7
TEXTSTYLE_2
301
CELL_VALUE
 90
4
  1
\Q5.0;model
304
ACVALUE_END
170
4
140
1.5
171
1
172
0
173
0
174
0
175
1
176
1
 91
49
178
0
145
0.0
  7
TEXTSTYLE_2
301
CELL_VALUE
 90
4
  1
DPCP050704G\H1.0;.PART
304
ACVALUE_END
170
4
140
2.5
171
1
172
0
173
0
174
0
175
1
176
1
 91
49
178
0
145
0.0
  7
TEXTSTYLE_2
301
CELL_VALUE
 90
4
  1
\Q5.0;drawing
304
ACVALUE_END
170
4
140
1.5
171
1
172
0
173
0
174
0
175
1
176
1
 91
49
178
0
145
0.0
  7
TEXTSTYLE_3
301
CELL_VALUE
 90
4
  1
DPCP050704G_PK1\H1.0;.DRAWING
304
ACVALUE_END
170
4
140
2.5
  0
ACAD_TABLE
  5
482
100
AcDbEntity
  8
0
 62
2
  6
CONTINUOUS
100
AcDbBlockReference
  2
*T6
 10
26.9999339402
 20
43.0000034488
 30
0.0
100
AcDbTable
342
       764
343
21F
 11
1.0
 21
0.0
 31
0.0
 90
22
 91
3
 92
1
 93
0
 94
0
 95
0
 96
0
141
9.0
141
3.5
141
3.5
142
44.0
171
1
172
0
173
0
174
0
175
1
176
1
 91
33
178
0
145
0.0
301
CELL_VALUE
 90
4
  1
 
304
ACVALUE_END
170
1
140
2.0
171
1
172
0
173
0
174
0
175
1
176
1
 91
33
178
0
145
0.0
301
CELL_VALUE
 90
4
  1
 
304
ACVALUE_END
170
5
140
2.0
171
1
172
0
173
0
174
0
175
1
176
1
 91
49
178
0
145
0.0
  7
TEXTSTYLE_2
301
CELL_VALUE
 90
4
  1
Ensto Building Systems Finland
304
ACVALUE_END
170
5
140
1.75
  0
LINE
  5
483
100
AcDbEntity
  8
0
100
AcDbLine
 62
7
  6
CONTINUOUS
 10
17.0
 20
7.0
 11
202.0
 21
7.0
  0
LINE
  5
484
100
AcDbEntity
  8
0
100
AcDbLine
 62
2
  6
CONTINUOUS
 10
72.6876968233
 20
34.8664854626
 11
89.3903951458
 21
34.8664854626
  0
LINE
  5
485
100
AcDbEntity
  8
0
100
AcDbLine
 62
7
  6
CONTINUOUS
 10
74.6149312451
 20
33.5816625147
 11
81.0390459845
 21
32.2968395668
  0
LINE
  5
486
100
AcDbEntity
  8
0
100
AcDbLine
 62
7
  6
CONTINUOUS
 10
74.6149312451
 20
36.1513084105
 11
81.0390459845
 21
37.4361313584
  0
LINE
  5
487
100
AcDbEntity
  8
0
100
AcDbLine
 62
2
  6
CONTINUOUS
 10
202.0
 20
43.0
 11
200.0
 21
43.0
  0
LINE
  5
488
100
AcDbEntity
  8
0
100
AcDbLine
 62
7
  6
CONTINUOUS
 10
17.0
 20
7.0
 11
17.0
 21
290.0
  0
LINE
  5
489
100
AcDbEntity
  8
0
100
AcDbLine
 62
2
  6
CONTINUOUS
 10
27.0
 20
7.0
 11
27.0
 21
9.0
  0
LINE
  5
48A
100
AcDbEntity
  8
DEFAULT_2
100
AcDbLine
 62
8
  6
HIDDEN
 10
57.2412710636
 20
224.4407429007
 11
57.2857845297
 21
229.4396434441
  0
LINE
  5
48B
100
AcDbEntity
  8
0
100
AcDbLine
 62
7
  6
CONTINUOUS
 10
74.6149312451
 20
33.5816625147
 11
74.6149312451
 21
36.1513084105
  0
LINE
  5
48C
100
AcDbEntity
  8
0
100
AcDbLine
 62
7
  6
CONTINUOUS
 10
81.0390459845
 20
37.4361313584
 11
81.0390459845
 21
32.2968395668
  0
LINE
  5
48D
100
AcDbEntity
  8
0
100
AcDbLine
 62
2
  6
CONTINUOUS
 10
86.1783377761
 20
38.0785428323
 11
86.1783377761
 21
31.6544280929
  0
LINE
  5
48E
100
AcDbEntity
  8
0
100
AcDbLine
 62
2
  6
CONTINUOUS
 10
92.0
 20
7.0
 11
92.0
 21
9.0
  0
LINE
  5
48F
100
AcDbEntity
  8
0
100
AcDbLine
 62
2
  6
CONTINUOUS
 10
17.0
 20
150.5
 11
12.0
 21
150.5
  0
LINE
  5
490
100
AcDbEntity
  8
0
100
AcDbLine
 62
7
  6
CONTINUOUS
 10
202.0
 20
7.0
 11
202.0
 21
290.0
  0
LINE
  5
491
100
AcDbEntity
  8
0
100
AcDbLine
 62
7
  6
CONTINUOUS
 10
17.0
 20
290.0
 11
202.0
 21
290.0
  0
LINE
  5
492
100
AcDbEntity
  8
EDGEFEAT
100
AcDbLine
 62
7
  6
CONTINUOUS
 10
47.2783958677
 20
142.7929793243
 11
50.2783958677
 21
145.7929793243
  0
LINE
  5
493
100
AcDbEntity
  8
EDGEFEAT
100
AcDbLine
 62
7
  6
CONTINUOUS
 10
47.8142942526
 20
142.5710029452
 11
50.5003722468
 21
145.2570809394
  0
LINE
  5
494
100
AcDbEntity
  8
EDGEFEAT
100
AcDbLine
 62
7
  6
CONTINUOUS
 10
50.2783958677
 20
92.7929793243
 11
47.2783958677
 21
95.7929793243
  0
LINE
  5
495
100
AcDbEntity
  8
EDGEFEAT
100
AcDbLine
 62
7
  6
CONTINUOUS
 10
50.5003722468
 20
93.3288777091
 11
47.8142942526
 21
96.0149557033
  0
LINE
  5
496
100
AcDbEntity
  8
EDGEFEAT
100
AcDbLine
 62
7
  6
CONTINUOUS
 10
47.2783958677
 20
95.7929793243
 11
47.2783958677
 21
142.7929793243
  0
LINE
  5
497
100
AcDbEntity
  8
EDGEFEAT
100
AcDbLine
 62
7
  6
CONTINUOUS
 10
47.8142942526
 20
96.0149557033
 11
47.8142942526
 21
142.5710029452
  0
LINE
  5
498
100
AcDbEntity
  8
0
100
AcDbLine
 62
7
  6
CONTINUOUS
 10
48.3783958677
 20
132.2929793243
 11
48.3783958677
 21
106.2929793243
  0
LINE
  5
499
100
AcDbEntity
  8
0
100
AcDbLine
 62
9
  6
CONTINUOUS
 10
48.9276379621
 20
132.2929793243
 11
48.9276379621
 21
106.2929793243
  0
LINE
  5
49A
100
AcDbEntity
  8
0
100
AcDbLine
 62
7
  6
CONTINUOUS
 10
49.8827212239
 20
132.2929793243
 11
49.8827212239
 21
106.2929793243
  0
LINE
  5
49B
100
AcDbEntity
  8
0
100
AcDbLine
 62
7
  6
CONTINUOUS
 10
50.0922041286
 20
106.2929793243
 11
50.0922041286
 21
132.2929793243
  0
LINE
  5
49C
100
AcDbEntity
  8
0
100
AcDbLine
 62
9
  6
CONTINUOUS
 10
50.8783958677
 20
103.7929793243
 11
50.8783958677
 21
105.5067875851
  0
LINE
  5
49D
100
AcDbEntity
  8
0
100
AcDbLine
 62
9
  6
CONTINUOUS
 10
50.8783958677
 20
133.0791710634
 11
50.8783958677
 21
134.7929793243
  0
LINE
  5
49E
100
AcDbEntity
  8
0
100
AcDbLine
 62
7
  6
CONTINUOUS
 10
54.7127670381
 20
99.231817957
 11
54.7783958677
 21
98.7929793243
  0
LINE
  5
49F
100
AcDbEntity
  8
DEFAULT_1
100
AcDbLine
 62
7
  6
CENTER
 10
53.2783958677
 20
139.7929793243
 11
53.2783958677
 21
135.1429793243
  0
LINE
  5
4A0
100
AcDbEntity
  8
DEFAULT_1
100
AcDbLine
 62
7
  6
CENTER
 10
53.2783958677
 20
98.7929793243
 11
53.2783958677
 21
90.2929793243
  0
LINE
  5
4A1
100
AcDbEntity
  8
0
100
AcDbLine
 62
9
  6
CONTINUOUS
 10
53.2783958677
 20
103.7929793243
 11
53.2783958677
 21
105.5067875851
  0
LINE
  5
4A2
100
AcDbEntity
  8
0
100
AcDbLine
 62
9
  6
CONTINUOUS
 10
53.2783958677
 20
133.0791710634
 11
53.2783958677
 21
134.7929793243
  0
LINE
  5
4A3
100
AcDbEntity
  8
DEFAULT_1
100
AcDbLine
 62
7
  6
CENTER
 10
53.2783958677
 20
98.7929793243
 11
53.2783958677
 21
103.7929793243
  0
LINE
  5
4A4
100
AcDbEntity
  8
DEFAULT_1
100
AcDbLine
 62
7
  6
CENTER
 10
53.2783958677
 20
105.5067875851
 11
53.2783958677
 21
133.0791710634
  0
LINE
  5
4A5
100
AcDbEntity
  8
DEFAULT_1
100
AcDbLine
 62
7
  6
CENTER
 10
53.2783958677
 20
134.7929793243
 11
53.2783958677
 21
135.1429793243
  0
LINE
  5
4A6
100
AcDbEntity
  8
DEFAULT_1
100
AcDbLine
 62
7
  6
CENTER
 10
53.2783958677
 20
139.7929793243
 11
53.2783958677
 21
144.4429793243
  0
LINE
  5
4A7
100
AcDbEntity
  8
EDGEFEAT
100
AcDbLine
 62
7
  6
CONTINUOUS
 10
109.2783958677
 20
92.7929793243
 11
50.2783958677
 21
92.7929793243
  0
LINE
  5
4A8
100
AcDbEntity
  8
EDGEFEAT
100
AcDbLine
 62
7
  6
CONTINUOUS
 10
109.0564194886
 20
93.3288777091
 11
50.5003722468
 21
93.3288777091
  0
LINE
  5
4A9
100
AcDbEntity
  8
0
100
AcDbLine
 62
7
  6
CONTINUOUS
 10
60.7783958677
 20
93.8929793243
 11
98.7783958677
 21
93.8929793243
  0
LINE
  5
4AA
100
AcDbEntity
  8
0
100
AcDbLine
 62
9
  6
CONTINUOUS
 10
60.7783958677
 20
94.4422214187
 11
98.7783958677
 21
94.4422214187
  0
LINE
  5
4AB
100
AcDbEntity
  8
0
100
AcDbLine
 62
7
  6
CONTINUOUS
 10
51.6449839964
 20
99.2641116397
 11
51.5489009451
 21
99.2918253053
  0
LINE
  5
4AC
100
AcDbEntity
  8
0
100
AcDbLine
 62
7
  6
CONTINUOUS
 10
54.9988697335
 20
98.2638577152
 11
54.9032878521
 21
98.2932533602
  0
LINE
  5
4AD
100
AcDbEntity
  8
0
100
AcDbLine
 62
7
  6
CONTINUOUS
 10
60.7783958677
 20
95.3973046805
 11
98.7783958677
 21
95.3973046805
  0
LINE
  5
4AE
100
AcDbEntity
  8
0
100
AcDbLine
 62
7
  6
CONTINUOUS
 10
98.7783958677
 20
95.6067875851
 11
60.7783958677
 21
95.6067875851
  0
LINE
  5
4AF
100
AcDbEntity
  8
0
100
AcDbLine
 62
9
  6
CONTINUOUS
 10
58.2783958677
 20
96.3929793243
 11
59.9922041286
 21
96.3929793243
  0
LINE
  5
4B0
100
AcDbEntity
  8
0
100
AcDbLine
 62
9
  6
CONTINUOUS
 10
99.5645876068
 20
96.3929793243
 11
101.2783958677
 21
96.3929793243
  0
LINE
  5
4B1
100
AcDbEntity
  8
EDGEFEAT
100
AcDbLine
 62
9
  6
CONTINUOUS
 10
59.9786298747
 20
116.1289003801
 11
59.9786196547
 21
116.1315080652
  0
LINE
  5
4B2
100
AcDbEntity
  8
0
100
AcDbLine
 62
7
  6
CONTINUOUS
 10
58.2783958677
 20
142.1929793243
 11
58.2783958677
 21
139.7929793243
  0
LINE
  5
4B3
100
AcDbEntity
  8
0
100
AcDbLine
 62
7
  6
CONTINUOUS
 10
58.2783958677
 20
98.7929793243
 11
58.2783958677
 21
96.3929793243
  0
LINE
  5
4B4
100
AcDbEntity
  8
0
100
AcDbLine
 62
9
  6
CONTINUOUS
 10
58.8276379621
 20
142.1929793243
 11
58.8276379621
 21
139.7929793243
  0
LINE
  5
4B5
100
AcDbEntity
  8
0
100
AcDbLine
 62
9
  6
CONTINUOUS
 10
58.8276379621
 20
98.7929793243
 11
58.8276379621
 21
96.3929793243
  0
LINE
  5
4B6
100
AcDbEntity
  8
EDGEFEAT
100
AcDbLine
 62
9
  6
CONTINUOUS
 10
59.6786412978
 20
126.2929793243
 11
59.6786412978
 21
122.4570582767
  0
LINE
  5
4B7
100
AcDbEntity
  8
EDGEFEAT
100
AcDbLine
 62
9
  6
CONTINUOUS
 10
59.6786412978
 20
116.1289003736
 11
59.6786412978
 21
112.2929793243
  0
LINE
  5
4B8
100
AcDbEntity
  8
0
100
AcDbLine
 62
7
  6
CONTINUOUS
 10
59.7827212239
 20
142.1929793243
 11
59.7827212239
 21
139.7929793243
  0
LINE
  5
4B9
100
AcDbEntity
  8
0
100
AcDbLine
 62
7
  6
CONTINUOUS
 10
59.7827212239
 20
98.7929793243
 11
59.7827212239
 21
96.3929793243
  0
LINE
  5
4BA
100
AcDbEntity
  8
EDGEFEAT
100
AcDbLine
 62
7
  6
CONTINUOUS
 10
59.9786298747
 20
126.2929793243
 11
59.9786298747
 21
122.4570583015
  0
LINE
  5
4BB
100
AcDbEntity
  8
EDGEFEAT
100
AcDbLine
 62
7
  6
CONTINUOUS
 10
59.9786298747
 20
116.128900347
 11
59.9786298747
 21
112.2929793243
  0
LINE
  5
4BC
100
AcDbEntity
  8
0
100
AcDbLine
 62
7
  6
CONTINUOUS
 10
59.9922041286
 20
96.3929793243
 11
59.9922041286
 21
98.7929793243
  0
LINE
  5
4BD
100
AcDbEntity
  8
0
100
AcDbLine
 62
7
  6
CONTINUOUS
 10
59.9922041286
 20
139.7929793243
 11
59.9922041286
 21
142.1929793243
  0
LINE
  5
4BE
100
AcDbEntity
  8
EDGEFEAT
100
AcDbLine
 62
7
  6
CONTINUOUS
 10
60.0283958677
 20
126.2929793243
 11
60.0283958677
 21
122.421469151
  0
LINE
  5
4BF
100
AcDbEntity
  8
EDGEFEAT
100
AcDbLine
 62
7
  6
CONTINUOUS
 10
60.0283958677
 20
116.1644894975
 11
60.0283958677
 21
112.2929793243
  0
LINE
  5
4C0
100
AcDbEntity
  8
EDGEFEAT
100
AcDbLine
 62
9
  6
CONTINUOUS
 10
59.9786196547
 20
122.4544505833
 11
59.9786298747
 21
122.4570582684
  0
LINE
  5
4C1
100
AcDbEntity
  8
DEFAULT_1
100
AcDbLine
 62
7
  6
CENTER
 10
106.2783958677
 20
98.7929793243
 11
101.6283958677
 21
98.7929793243
  0
LINE
  5
4C2
100
AcDbEntity
  8
DEFAULT_1
100
AcDbLine
 62
7
  6
CENTER
 10
53.2783958677
 20
98.7929793243
 11
44.7783958677
 21
98.7929793243
  0
LINE
  5
4C3
100
AcDbEntity
  8
DEFAULT_1
100
AcDbLine
 62
7
  6
CENTER
 10
53.2783958677
 20
98.7929793243
 11
58.2783958677
 21
98.7929793243
  0
LINE
  5
4C4
100
AcDbEntity
  8
DEFAULT_1
100
AcDbLine
 62
7
  6
CENTER
 10
101.2783958677
 20
98.7929793243
 11
101.6283958677
 21
98.7929793243
  0
LINE
  5
4C5
100
AcDbEntity
  8
DEFAULT_1
100
AcDbLine
 62
7
  6
CENTER
 10
59.9922041286
 20
98.7929793243
 11
99.5645876068
 21
98.7929793243
  0
LINE
  5
4C6
100
AcDbEntity
  8
0
100
AcDbLine
 62
9
  6
CONTINUOUS
 10
58.2783958677
 20
98.7929793243
 11
59.9922041286
 21
98.7929793243
  0
LINE
  5
4C7
100
AcDbEntity
  8
0
100
AcDbLine
 62
9
  6
CONTINUOUS
 10
99.5645876068
 20
98.7929793243
 11
101.2783958677
 21
98.7929793243
  0
LINE
  5
4C8
100
AcDbEntity
  8
DEFAULT_1
100
AcDbLine
 62
7
  6
CENTER
 10
106.2783958677
 20
98.7929793243
 11
110.9283958677
 21
98.7929793243
  0
LINE
  5
4C9
100
AcDbEntity
  8
EDGEFEAT
100
AcDbLine
 62
9
  6
CONTINUOUS
 10
61.5781618607
 20
122.4570582684
 11
61.5781720808
 21
122.4544505833
  0
LINE
  5
4CA
100
AcDbEntity
  8
DEFAULT_1
100
AcDbLine
 62
7
  6
CENTER
 10
60.7783958677
 20
119.2929793243
 11
60.7783958677
 21
115.2929793243
  0
LINE
  5
4CB
100
AcDbEntity
  8
0
100
AcDbLine
 62
9
  6
CONTINUOUS
 10
60.7783958677
 20
93.8929793243
 11
60.7783958677
 21
95.6067875851
  0
LINE
  5
4CC
100
AcDbEntity
  8
DEFAULT_1
100
AcDbLine
 62
7
  6
CENTER
 10
60.7783958677
 20
119.2929793243
 11
60.7783958677
 21
123.2929793243
  0
LINE
  5
4CD
100
AcDbEntity
  8
0
100
AcDbLine
 62
9
  6
CONTINUOUS
 10
60.7783958677
 20
142.9791710634
 11
60.7783958677
 21
144.6929793243
  0
LINE
  5
4CE
100
AcDbEntity
  8
EDGEFEAT
100
AcDbLine
 62
7
  6
CONTINUOUS
 10
61.5283958677
 20
112.2929793243
 11
61.5283958677
 21
116.1644894975
  0
LINE
  5
4CF
100
AcDbEntity
  8
EDGEFEAT
100
AcDbLine
 62
7
  6
CONTINUOUS
 10
61.5283958677
 20
122.421469151
 11
61.5283958677
 21
126.2929793243
  0
LINE
  5
4D0
100
AcDbEntity
  8
EDGEFEAT
100
AcDbLine
 62
7
  6
CONTINUOUS
 10
61.5781618607
 20
112.2929793243
 11
61.5781618607
 21
116.128900347
  0
LINE
  5
4D1
100
AcDbEntity
  8
EDGEFEAT
100
AcDbLine
 62
7
  6
CONTINUOUS
 10
61.5781618607
 20
122.4570583015
 11
61.5781618607
 21
126.2929793243
  0
LINE
  5
4D2
100
AcDbEntity
  8
EDGEFEAT
100
AcDbLine
 62
9
  6
CONTINUOUS
 10
61.8781504376
 20
112.2929793243
 11
61.8781504376
 21
116.128900373
  0
LINE
  5
4D3
100
AcDbEntity
  8
EDGEFEAT
100
AcDbLine
 62
9
  6
CONTINUOUS
 10
61.8781504376
 20
122.457058276
 11
61.8781504376
 21
126.2929793243
  0
LINE
  5
4D4
100
AcDbEntity
  8
EDGEFEAT
100
AcDbLine
 62
9
  6
CONTINUOUS
 10
61.5807735721
 20
116.1683201129
 11
61.5781618607
 21
116.1289003801
  0
LINE
  5
4D5
100
AcDbEntity
  8
EDGEFEAT
100
AcDbLine
 62
9
  6
CONTINUOUS
 10
61.8781504376
 20
122.4570582684
 11
61.7805189366
 21
122.1761648898
  0
LINE
  5
4D6
100
AcDbEntity
  8
EDGEFEAT
100
AcDbLine
 62
9
  6
CONTINUOUS
 10
59.6786412978
 20
116.1289003801
 11
59.7762727988
 21
116.4097937587
  0
LINE
  5
4D7
100
AcDbEntity
  8
EDGEFEAT
100
AcDbLine
 62
7
  6
CONTINUOUS
 10
50.2783958677
 20
92.7929793243
 11
50.5003722468
 21
93.3288777091
  0
LINE
  5
4D8
100
AcDbEntity
  8
EDGEFEAT
100
AcDbLine
 62
7
  6
CONTINUOUS
 10
50.5003722468
 20
145.2570809394
 11
50.2783958677
 21
145.7929793243
  0
LINE
  5
4D9
100
AcDbEntity
  8
EDGEFEAT
100
AcDbLine
 62
9
  6
CONTINUOUS
 10
59.6786412978
 20
122.4570582684
 11
59.7762727988
 21
122.1761648898
  0
LINE
  5
4DA
100
AcDbEntity
  8
EDGEFEAT
100
AcDbLine
 62
9
  6
CONTINUOUS
 10
61.8781504376
 20
116.1289003801
 11
61.7796614882
 21
116.412260704
  0
LINE
  5
4DB
100
AcDbEntity
  8
0
100
AcDbLine
 62
7
  6
CONTINUOUS
 10
50.8783958677
 20
103.7929793243
 11
53.2783958677
 21
103.7929793243
  0
LINE
  5
4DC
100
AcDbEntity
  8
0
100
AcDbLine
 62
7
  6
CONTINUOUS
 10
106.2783958677
 20
103.7929793243
 11
108.6783958677
 21
103.7929793243
  0
LINE
  5
4DD
100
AcDbEntity
  8
0
100
AcDbLine
 62
9
  6
CONTINUOUS
 10
50.8783958677
 20
104.3422214187
 11
53.2783958677
 21
104.3422214187
  0
LINE
  5
4DE
100
AcDbEntity
  8
0
100
AcDbLine
 62
9
  6
CONTINUOUS
 10
106.2783958677
 20
104.3422214187
 11
108.6783958677
 21
104.3422214187
  0
LINE
  5
4DF
100
AcDbEntity
  8
0
100
AcDbLine
 62
7
  6
CONTINUOUS
 10
50.8783958677
 20
105.2973046805
 11
53.2783958677
 21
105.2973046805
  0
LINE
  5
4E0
100
AcDbEntity
  8
0
100
AcDbLine
 62
7
  6
CONTINUOUS
 10
106.2783958677
 20
105.2973046805
 11
108.6783958677
 21
105.2973046805
  0
LINE
  5
4E1
100
AcDbEntity
  8
0
100
AcDbLine
 62
7
  6
CONTINUOUS
 10
108.6783958677
 20
105.5067875851
 11
106.2783958677
 21
105.5067875851
  0
LINE
  5
4E2
100
AcDbEntity
  8
0
100
AcDbLine
 62
7
  6
CONTINUOUS
 10
53.2783958677
 20
105.5067875851
 11
50.8783958677
 21
105.5067875851
  0
LINE
  5
4E3
100
AcDbEntity
  8
EDGEFEAT
100
AcDbLine
 62
9
  6
CONTINUOUS
 10
61.7485268858
 20
122.1493453201
 11
61.7329342418
 21
122.1370708299
  0
LINE
  5
4E4
100
AcDbEntity
  8
0
100
AcDbLine
 62
9
  6
CONTINUOUS
 10
48.3783958677
 20
106.2929793243
 11
50.0922041286
 21
106.2929793243
  0
LINE
  5
4E5
100
AcDbEntity
  8
0
100
AcDbLine
 62
9
  6
CONTINUOUS
 10
109.4645876068
 20
106.2929793243
 11
111.1783958677
 21
106.2929793243
  0
LINE
  5
4E6
100
AcDbEntity
  8
EDGEFEAT
100
AcDbLine
 62
9
  6
CONTINUOUS
 10
61.5450133268
 20
116.1525610142
 11
61.5283958677
 21
116.1644894975
  0
LINE
  5
4E7
100
AcDbEntity
  8
EDGEFEAT
100
AcDbLine
 62
9
  6
CONTINUOUS
 10
59.8082648497
 20
116.4366133284
 11
59.8238574936
 21
116.4488878186
  0
LINE
  5
4E8
100
AcDbEntity
  8
EDGEFEAT
100
AcDbLine
 62
9
  6
CONTINUOUS
 10
59.7771302472
 20
122.1736979446
 11
59.8135075108
 21
122.1891067428
  0
LINE
  5
4E9
100
AcDbEntity
  8
EDGEFEAT
100
AcDbLine
 62
7
  6
CONTINUOUS
 10
111.7424974828
 20
142.5710029452
 11
112.2783958677
 21
142.7929793243
  0
LINE
  5
4EA
100
AcDbEntity
  8
EDGEFEAT
100
AcDbLine
 62
7
  6
CONTINUOUS
 10
112.2783958677
 20
95.7929793243
 11
111.7424974828
 21
96.0149557033
  0
LINE
  5
4EB
100
AcDbEntity
  8
EDGEFEAT
100
AcDbLine
 62
9
  6
CONTINUOUS
 10
59.8135075108
 20
116.3968519057
 11
59.7771302472
 21
116.412260704
  0
LINE
  5
4EC
100
AcDbEntity
  8
EDGEFEAT
100
AcDbLine
 62
9
  6
CONTINUOUS
 10
59.8082648497
 20
122.1493453201
 11
59.8238574936
 21
122.1370708299
  0
LINE
  5
4ED
100
AcDbEntity
  8
EDGEFEAT
100
AcDbLine
 62
9
  6
CONTINUOUS
 10
99.8781504376
 20
112.2929793243
 11
99.5283958677
 21
112.2929793243
  0
LINE
  5
4EE
100
AcDbEntity
  8
EDGEFEAT
100
AcDbLine
 62
9
  6
CONTINUOUS
 10
61.8781504376
 20
112.2929793243
 11
61.5283958677
 21
112.2929793243
  0
LINE
  5
4EF
100
AcDbEntity
  8
EDGEFEAT
100
AcDbLine
 62
9
  6
CONTINUOUS
 10
59.6786412978
 20
112.2929793243
 11
60.0283958677
 21
112.2929793243
  0
LINE
  5
4F0
100
AcDbEntity
  8
EDGEFEAT
100
AcDbLine
 62
9
  6
CONTINUOUS
 10
97.6786412978
 20
112.2929793243
 11
98.0283958677
 21
112.2929793243
  0
LINE
  5
4F1
100
AcDbEntity
  8
EDGEFEAT
100
AcDbLine
 62
9
  6
CONTINUOUS
 10
61.7796614882
 20
116.412260704
 11
61.7772017015
 21
116.411394924
  0
LINE
  5
4F2
100
AcDbEntity
  8
EDGEFEAT
100
AcDbLine
 62
9
  6
CONTINUOUS
 10
99.8781504376
 20
116.1289003801
 11
99.5781618607
 21
116.1289003801
  0
LINE
  5
4F3
100
AcDbEntity
  8
EDGEFEAT
100
AcDbLine
 62
9
  6
CONTINUOUS
 10
61.8781504376
 20
116.1289003801
 11
61.5781618607
 21
116.1289003801
  0
LINE
  5
4F4
100
AcDbEntity
  8
EDGEFEAT
100
AcDbLine
 62
9
  6
CONTINUOUS
 10
59.6786412978
 20
116.1289003801
 11
59.9786298747
 21
116.1289003801
  0
LINE
  5
4F5
100
AcDbEntity
  8
EDGEFEAT
100
AcDbLine
 62
9
  6
CONTINUOUS
 10
97.6786412978
 20
116.1289003801
 11
97.9786298747
 21
116.1289003801
  0
LINE
  5
4F6
100
AcDbEntity
  8
EDGEFEAT
100
AcDbLine
 62
9
  6
CONTINUOUS
 10
61.7432842246
 20
122.1891067428
 11
61.7796614882
 21
122.1736979446
  0
LINE
  5
4F7
100
AcDbEntity
  8
DEFAULT_1
100
AcDbLine
 62
7
  6
CENTER
 10
98.7783958677
 20
119.2929793243
 11
94.7783958677
 21
119.2929793243
  0
LINE
  5
4F8
100
AcDbEntity
  8
DEFAULT_1
100
AcDbLine
 62
7
  6
CENTER
 10
60.7783958677
 20
119.2929793243
 11
56.7783958677
 21
119.2929793243
  0
LINE
  5
4F9
100
AcDbEntity
  8
DEFAULT_1
100
AcDbLine
 62
7
  6
CENTER
 10
60.7783958677
 20
119.2929793243
 11
64.7783958677
 21
119.2929793243
  0
LINE
  5
4FA
100
AcDbEntity
  8
DEFAULT_1
100
AcDbLine
 62
7
  6
CENTER
 10
98.7783958677
 20
119.2929793243
 11
102.7783958677
 21
119.2929793243
  0
LINE
  5
4FB
100
AcDbEntity
  8
EDGEFEAT
100
AcDbLine
 62
9
  6
CONTINUOUS
 10
99.8781504376
 20
122.4570582684
 11
99.5781618607
 21
122.4570582684
  0
LINE
  5
4FC
100
AcDbEntity
  8
EDGEFEAT
100
AcDbLine
 62
9
  6
CONTINUOUS
 10
61.8781504376
 20
122.4570582684
 11
61.5781618607
 21
122.4570582684
  0
LINE
  5
4FD
100
AcDbEntity
  8
EDGEFEAT
100
AcDbLine
 62
9
  6
CONTINUOUS
 10
59.6786412978
 20
122.4570582684
 11
59.9786298747
 21
122.4570582684
  0
LINE
  5
4FE
100
AcDbEntity
  8
EDGEFEAT
100
AcDbLine
 62
9
  6
CONTINUOUS
 10
97.6786412978
 20
122.4570582684
 11
97.9786298747
 21
122.4570582684
  0
LINE
  5
4FF
100
AcDbEntity
  8
EDGEFEAT
100
AcDbLine
 62
9
  6
CONTINUOUS
 10
97.7771302472
 20
122.1736979446
 11
97.779590034
 21
122.1745637246
  0
LINE
  5
500
100
AcDbEntity
  8
EDGEFEAT
100
AcDbLine
 62
9
  6
CONTINUOUS
 10
97.8135075108
 20
116.3968519057
 11
97.7771302472
 21
116.412260704
  0
LINE
  5
501
100
AcDbEntity
  8
EDGEFEAT
100
AcDbLine
 62
9
  6
CONTINUOUS
 10
99.8781504376
 20
126.2929793243
 11
99.5283958677
 21
126.2929793243
  0
LINE
  5
502
100
AcDbEntity
  8
EDGEFEAT
100
AcDbLine
 62
9
  6
CONTINUOUS
 10
61.8781504376
 20
126.2929793243
 11
61.5283958677
 21
126.2929793243
  0
LINE
  5
503
100
AcDbEntity
  8
EDGEFEAT
100
AcDbLine
 62
9
  6
CONTINUOUS
 10
59.6786412978
 20
126.2929793243
 11
60.0283958677
 21
126.2929793243
  0
LINE
  5
504
100
AcDbEntity
  8
EDGEFEAT
100
AcDbLine
 62
9
  6
CONTINUOUS
 10
97.6786412978
 20
126.2929793243
 11
98.0283958677
 21
126.2929793243
  0
LINE
  5
505
100
AcDbEntity
  8
EDGEFEAT
100
AcDbLine
 62
9
  6
CONTINUOUS
 10
99.7485268858
 20
122.1493453201
 11
99.7329342418
 21
122.1370708299
  0
LINE
  5
506
100
AcDbEntity
  8
EDGEFEAT
100
AcDbLine
 62
9
  6
CONTINUOUS
 10
99.7796614882
 20
116.412260704
 11
99.7432842246
 21
116.3968519057
  0
LINE
  5
507
100
AcDbEntity
  8
EDGEFEAT
100
AcDbLine
 62
7
  6
CONTINUOUS
 10
47.2783958677
 20
95.7929793243
 11
47.8142942526
 21
96.0149557033
  0
LINE
  5
508
100
AcDbEntity
  8
EDGEFEAT
100
AcDbLine
 62
7
  6
CONTINUOUS
 10
47.2783958677
 20
142.7929793243
 11
47.8142942526
 21
142.5710029452
  0
LINE
  5
509
100
AcDbEntity
  8
EDGEFEAT
100
AcDbLine
 62
9
  6
CONTINUOUS
 10
99.7432842246
 20
122.1891067428
 11
99.7796614882
 21
122.1736979446
  0
LINE
  5
50A
100
AcDbEntity
  8
EDGEFEAT
100
AcDbLine
 62
9
  6
CONTINUOUS
 10
99.7485268858
 20
116.4366133284
 11
99.7329342418
 21
116.4488878186
  0
LINE
  5
50B
100
AcDbEntity
  8
EDGEFEAT
100
AcDbLine
 62
9
  6
CONTINUOUS
 10
97.8082648497
 20
116.4366133284
 11
97.8238574936
 21
116.4488878186
  0
LINE
  5
50C
100
AcDbEntity
  8
0
100
AcDbLine
 62
9
  6
CONTINUOUS
 10
48.3783958677
 20
132.2929793243
 11
50.0922041286
 21
132.2929793243
  0
LINE
  5
50D
100
AcDbEntity
  8
0
100
AcDbLine
 62
9
  6
CONTINUOUS
 10
109.4645876068
 20
132.2929793243
 11
111.1783958677
 21
132.2929793243
  0
LINE
  5
50E
100
AcDbEntity
  8
0
100
AcDbLine
 62
7
  6
CONTINUOUS
 10
50.8783958677
 20
133.0791710634
 11
53.2783958677
 21
133.0791710634
  0
LINE
  5
50F
100
AcDbEntity
  8
0
100
AcDbLine
 62
7
  6
CONTINUOUS
 10
106.2783958677
 20
133.0791710634
 11
108.6783958677
 21
133.0791710634
  0
LINE
  5
510
100
AcDbEntity
  8
0
100
AcDbLine
 62
7
  6
CONTINUOUS
 10
108.6783958677
 20
133.288653968
 11
106.2783958677
 21
133.288653968
  0
LINE
  5
511
100
AcDbEntity
  8
0
100
AcDbLine
 62
7
  6
CONTINUOUS
 10
53.2783958677
 20
133.288653968
 11
50.8783958677
 21
133.288653968
  0
LINE
  5
512
100
AcDbEntity
  8
EDGEFEAT
100
AcDbLine
 62
9
  6
CONTINUOUS
 10
98.0117784086
 20
122.4333976343
 11
98.0283958677
 21
122.421469151
  0
LINE
  5
513
100
AcDbEntity
  8
EDGEFEAT
100
AcDbLine
 62
7
  6
CONTINUOUS
 10
109.2783958677
 20
145.7929793243
 11
109.0564194886
 21
145.2570809394
  0
LINE
  5
514
100
AcDbEntity
  8
0
100
AcDbLine
 62
9
  6
CONTINUOUS
 10
108.6783958677
 20
134.2437372299
 11
106.2783958677
 21
134.2437372299
  0
LINE
  5
515
100
AcDbEntity
  8
0
100
AcDbLine
 62
9
  6
CONTINUOUS
 10
53.2783958677
 20
134.2437372299
 11
50.8783958677
 21
134.2437372299
  0
LINE
  5
516
100
AcDbEntity
  8
0
100
AcDbLine
 62
7
  6
CONTINUOUS
 10
108.6783958677
 20
134.7929793243
 11
106.2783958677
 21
134.7929793243
  0
LINE
  5
517
100
AcDbEntity
  8
0
100
AcDbLine
 62
7
  6
CONTINUOUS
 10
53.2783958677
 20
134.7929793243
 11
50.8783958677
 21
134.7929793243
  0
LINE
  5
518
100
AcDbEntity
  8
EDGEFEAT
100
AcDbLine
 62
7
  6
CONTINUOUS
 10
109.0564194886
 20
93.3288777091
 11
109.2783958677
 21
92.7929793243
  0
LINE
  5
519
100
AcDbEntity
  8
EDGEFEAT
100
AcDbLine
 62
9
  6
CONTINUOUS
 10
97.9786298747
 20
116.1289003801
 11
97.9786196547
 21
116.1315080652
  0
LINE
  5
51A
100
AcDbEntity
  8
EDGEFEAT
100
AcDbLine
 62
9
  6
CONTINUOUS
 10
99.5781618607
 20
122.4570582684
 11
99.5781720808
 21
122.4544505833
  0
LINE
  5
51B
100
AcDbEntity
  8
EDGEFEAT
100
AcDbLine
 62
9
  6
CONTINUOUS
 10
97.6786412978
 20
126.2929793243
 11
97.6786412978
 21
122.4570582756
  0
LINE
  5
51C
100
AcDbEntity
  8
EDGEFEAT
100
AcDbLine
 62
9
  6
CONTINUOUS
 10
97.6786412978
 20
116.1289003725
 11
97.6786412978
 21
112.2929793243
  0
LINE
  5
51D
100
AcDbEntity
  8
EDGEFEAT
100
AcDbLine
 62
7
  6
CONTINUOUS
 10
97.9786298747
 20
126.2929793243
 11
97.9786298747
 21
122.4570583015
  0
LINE
  5
51E
100
AcDbEntity
  8
EDGEFEAT
100
AcDbLine
 62
7
  6
CONTINUOUS
 10
97.9786298747
 20
116.128900347
 11
97.9786298747
 21
112.2929793243
  0
LINE
  5
51F
100
AcDbEntity
  8
EDGEFEAT
100
AcDbLine
 62
7
  6
CONTINUOUS
 10
98.0283958677
 20
126.2929793243
 11
98.0283958677
 21
122.421469151
  0
LINE
  5
520
100
AcDbEntity
  8
EDGEFEAT
100
AcDbLine
 62
7
  6
CONTINUOUS
 10
98.0283958677
 20
116.1644894975
 11
98.0283958677
 21
112.2929793243
  0
LINE
  5
521
100
AcDbEntity
  8
DEFAULT_1
100
AcDbLine
 62
7
  6
CENTER
 10
98.7783958677
 20
119.2929793243
 11
98.7783958677
 21
115.2929793243
  0
LINE
  5
522
100
AcDbEntity
  8
0
100
AcDbLine
 62
9
  6
CONTINUOUS
 10
98.7783958677
 20
93.8929793243
 11
98.7783958677
 21
95.6067875851
  0
LINE
  5
523
100
AcDbEntity
  8
DEFAULT_1
100
AcDbLine
 62
7
  6
CENTER
 10
98.7783958677
 20
119.2929793243
 11
98.7783958677
 21
123.2929793243
  0
LINE
  5
524
100
AcDbEntity
  8
0
100
AcDbLine
 62
9
  6
CONTINUOUS
 10
98.7783958677
 20
142.9791710634
 11
98.7783958677
 21
144.6929793243
  0
LINE
  5
525
100
AcDbEntity
  8
EDGEFEAT
100
AcDbLine
 62
7
  6
CONTINUOUS
 10
99.5283958677
 20
112.2929793243
 11
99.5283958677
 21
116.1644894975
  0
LINE
  5
526
100
AcDbEntity
  8
EDGEFEAT
100
AcDbLine
 62
7
  6
CONTINUOUS
 10
99.5283958677
 20
122.421469151
 11
99.5283958677
 21
126.2929793243
  0
LINE
  5
527
100
AcDbEntity
  8
0
100
AcDbLine
 62
7
  6
CONTINUOUS
 10
99.5645876068
 20
142.1929793243
 11
99.5645876068
 21
139.7929793243
  0
LINE
  5
528
100
AcDbEntity
  8
0
100
AcDbLine
 62
7
  6
CONTINUOUS
 10
99.5645876068
 20
98.7929793243
 11
99.5645876068
 21
96.3929793243
  0
LINE
  5
529
100
AcDbEntity
  8
EDGEFEAT
100
AcDbLine
 62
7
  6
CONTINUOUS
 10
99.5781618607
 20
112.2929793243
 11
99.5781618607
 21
116.128900347
  0
LINE
  5
52A
100
AcDbEntity
  8
EDGEFEAT
100
AcDbLine
 62
7
  6
CONTINUOUS
 10
99.5781618607
 20
122.4570583015
 11
99.5781618607
 21
126.2929793243
  0
LINE
  5
52B
100
AcDbEntity
  8
EDGEFEAT
100
AcDbLine
 62
9
  6
CONTINUOUS
 10
99.5781720808
 20
116.1315080652
 11
99.5781618607
 21
116.1289003801
  0
LINE
  5
52C
100
AcDbEntity
  8
EDGEFEAT
100
AcDbLine
 62
9
  6
CONTINUOUS
 10
97.9760181633
 20
122.4176385356
 11
97.9786298747
 21
122.4570582684
  0
LINE
  5
52D
100
AcDbEntity
  8
EDGEFEAT
100
AcDbLine
 62
9
  6
CONTINUOUS
 10
99.8781504376
 20
122.4570582684
 11
99.7805189366
 21
122.1761648898
  0
LINE
  5
52E
100
AcDbEntity
  8
EDGEFEAT
100
AcDbLine
 62
9
  6
CONTINUOUS
 10
97.6786412978
 20
116.1289003801
 11
97.7762727988
 21
116.4097937587
  0
LINE
  5
52F
100
AcDbEntity
  8
EDGEFEAT
100
AcDbLine
 62
9
  6
CONTINUOUS
 10
97.6786412978
 20
122.4570582684
 11
97.7771302472
 21
122.1736979446
  0
LINE
  5
530
100
AcDbEntity
  8
EDGEFEAT
100
AcDbLine
 62
9
  6
CONTINUOUS
 10
99.8781504376
 20
116.1289003801
 11
99.7805189366
 21
116.4097937587
  0
LINE
  5
531
100
AcDbEntity
  8
0
100
AcDbLine
 62
7
  6
CONTINUOUS
 10
99.7740705115
 20
96.3929793243
 11
99.7740705115
 21
98.7929793243
  0
LINE
  5
532
100
AcDbEntity
  8
0
100
AcDbLine
 62
7
  6
CONTINUOUS
 10
99.7740705115
 20
139.7929793243
 11
99.7740705115
 21
142.1929793243
  0
LINE
  5
533
100
AcDbEntity
  8
EDGEFEAT
100
AcDbLine
 62
9
  6
CONTINUOUS
 10
99.8781504376
 20
112.2929793243
 11
99.8781504376
 21
116.1289003719
  0
LINE
  5
534
100
AcDbEntity
  8
EDGEFEAT
100
AcDbLine
 62
9
  6
CONTINUOUS
 10
99.8781504376
 20
122.4570582749
 11
99.8781504376
 21
126.2929793243
  0
LINE
  5
535
100
AcDbEntity
  8
0
100
AcDbLine
 62
9
  6
CONTINUOUS
 10
100.7291537733
 20
96.3929793243
 11
100.7291537733
 21
98.7929793243
  0
LINE
  5
536
100
AcDbEntity
  8
0
100
AcDbLine
 62
9
  6
CONTINUOUS
 10
100.7291537733
 20
139.7929793243
 11
100.7291537733
 21
142.1929793243
  0
LINE
  5
537
100
AcDbEntity
  8
0
100
AcDbLine
 62
7
  6
CONTINUOUS
 10
101.2783958677
 20
96.3929793243
 11
101.2783958677
 21
98.7929793243
  0
LINE
  5
538
100
AcDbEntity
  8
0
100
AcDbLine
 62
7
  6
CONTINUOUS
 10
101.2783958677
 20
139.7929793243
 11
101.2783958677
 21
142.1929793243
  0
LINE
  5
539
100
AcDbEntity
  8
DEFAULT_1
100
AcDbLine
 62
7
  6
CENTER
 10
106.2783958677
 20
139.7929793243
 11
101.2783958677
 21
139.7929793243
  0
LINE
  5
53A
100
AcDbEntity
  8
DEFAULT_1
100
AcDbLine
 62
7
  6
CENTER
 10
99.5645876068
 20
139.7929793243
 11
97.7783958677
 21
139.7929793243
  0
LINE
  5
53B
100
AcDbEntity
  8
DEFAULT_1
100
AcDbLine
 62
7
  6
CENTER
 10
53.2783958677
 20
139.7929793243
 11
48.6283958677
 21
139.7929793243
  0
LINE
  5
53C
100
AcDbEntity
  8
DEFAULT_1
100
AcDbLine
 62
7
  6
CENTER
 10
53.2783958677
 20
139.7929793243
 11
58.2783958677
 21
139.7929793243
  0
LINE
  5
53D
100
AcDbEntity
  8
DEFAULT_1
100
AcDbLine
 62
7
  6
CENTER
 10
59.9922041286
 20
139.7929793243
 11
97.7783958677
 21
139.7929793243
  0
LINE
  5
53E
100
AcDbEntity
  8
0
100
AcDbLine
 62
9
  6
CONTINUOUS
 10
58.2783958677
 20
139.7929793243
 11
59.9922041286
 21
139.7929793243
  0
LINE
  5
53F
100
AcDbEntity
  8
0
100
AcDbLine
 62
9
  6
CONTINUOUS
 10
99.5645876068
 20
139.7929793243
 11
101.2783958677
 21
139.7929793243
  0
LINE
  5
540
100
AcDbEntity
  8
DEFAULT_1
100
AcDbLine
 62
7
  6
CENTER
 10
106.2783958677
 20
139.7929793243
 11
114.7783958677
 21
139.7929793243
  0
LINE
  5
541
100
AcDbEntity
  8
0
100
AcDbLine
 62
9
  6
CONTINUOUS
 10
58.2783958677
 20
142.1929793243
 11
59.9922041286
 21
142.1929793243
  0
LINE
  5
542
100
AcDbEntity
  8
0
100
AcDbLine
 62
9
  6
CONTINUOUS
 10
99.5645876068
 20
142.1929793243
 11
101.2783958677
 21
142.1929793243
  0
LINE
  5
543
100
AcDbEntity
  8
0
100
AcDbLine
 62
7
  6
CONTINUOUS
 10
60.7783958677
 20
142.9791710634
 11
98.7783958677
 21
142.9791710634
  0
LINE
  5
544
100
AcDbEntity
  8
0
100
AcDbLine
 62
7
  6
CONTINUOUS
 10
98.7783958677
 20
143.188653968
 11
60.7783958677
 21
143.188653968
  0
LINE
  5
545
100
AcDbEntity
  8
0
100
AcDbLine
 62
9
  6
CONTINUOUS
 10
98.7783958677
 20
144.1437372299
 11
60.7783958677
 21
144.1437372299
  0
LINE
  5
546
100
AcDbEntity
  8
0
100
AcDbLine
 62
7
  6
CONTINUOUS
 10
98.7783958677
 20
144.6929793243
 11
60.7783958677
 21
144.6929793243
  0
LINE
  5
547
100
AcDbEntity
  8
DEFAULT_1
100
AcDbLine
 62
7
  6
CENTER
 10
106.2783958677
 20
139.7929793243
 11
106.2783958677
 21
134.7929793243
  0
LINE
  5
548
100
AcDbEntity
  8
DEFAULT_1
100
AcDbLine
 62
7
  6
CENTER
 10
106.2783958677
 20
133.0791710634
 11
106.2783958677
 21
131.2929793243
  0
LINE
  5
549
100
AcDbEntity
  8
DEFAULT_1
100
AcDbLine
 62
7
  6
CENTER
 10
106.2783958677
 20
98.7929793243
 11
106.2783958677
 21
94.1429793243
  0
LINE
  5
54A
100
AcDbEntity
  8
0
100
AcDbLine
 62
9
  6
CONTINUOUS
 10
106.2783958677
 20
103.7929793243
 11
106.2783958677
 21
105.5067875851
  0
LINE
  5
54B
100
AcDbEntity
  8
0
100
AcDbLine
 62
9
  6
CONTINUOUS
 10
106.2783958677
 20
133.0791710634
 11
106.2783958677
 21
134.7929793243
  0
LINE
  5
54C
100
AcDbEntity
  8
DEFAULT_1
100
AcDbLine
 62
7
  6
CENTER
 10
106.2783958677
 20
98.7929793243
 11
106.2783958677
 21
103.7929793243
  0
LINE
  5
54D
100
AcDbEntity
  8
DEFAULT_1
100
AcDbLine
 62
7
  6
CENTER
 10
106.2783958677
 20
105.5067875851
 11
106.2783958677
 21
131.2929793243
  0
LINE
  5
54E
100
AcDbEntity
  8
DEFAULT_1
100
AcDbLine
 62
7
  6
CENTER
 10
106.2783958677
 20
139.7929793243
 11
106.2783958677
 21
148.2929793243
  0
LINE
  5
54F
100
AcDbEntity
  8
EDGEFEAT
100
AcDbLine
 62
7
  6
CONTINUOUS
 10
50.5003722468
 20
145.2570809394
 11
109.0564194886
 21
145.2570809394
  0
LINE
  5
550
100
AcDbEntity
  8
EDGEFEAT
100
AcDbLine
 62
7
  6
CONTINUOUS
 10
50.2783958677
 20
145.7929793243
 11
109.2783958677
 21
145.7929793243
  0
LINE
  5
551
100
AcDbEntity
  8
0
100
AcDbLine
 62
7
  6
CONTINUOUS
 10
104.6449839964
 20
140.2641116397
 11
104.5489009451
 21
140.2918253053
  0
LINE
  5
552
100
AcDbEntity
  8
0
100
AcDbLine
 62
7
  6
CONTINUOUS
 10
107.9988697335
 20
139.2638577153
 11
107.9032878521
 21
139.2932533602
  0
LINE
  5
553
100
AcDbEntity
  8
0
100
AcDbLine
 62
9
  6
CONTINUOUS
 10
108.6783958677
 20
103.7929793243
 11
108.6783958677
 21
105.5067875851
  0
LINE
  5
554
100
AcDbEntity
  8
0
100
AcDbLine
 62
9
  6
CONTINUOUS
 10
108.6783958677
 20
133.0791710634
 11
108.6783958677
 21
134.7929793243
  0
LINE
  5
555
100
AcDbEntity
  8
0
100
AcDbLine
 62
7
  6
CONTINUOUS
 10
109.4645876068
 20
132.2929793243
 11
109.4645876068
 21
106.2929793243
  0
LINE
  5
556
100
AcDbEntity
  8
0
100
AcDbLine
 62
7
  6
CONTINUOUS
 10
109.6740705115
 20
106.2929793243
 11
109.6740705115
 21
132.2929793243
  0
LINE
  5
557
100
AcDbEntity
  8
0
100
AcDbLine
 62
9
  6
CONTINUOUS
 10
110.6291537733
 20
106.2929793243
 11
110.6291537733
 21
132.2929793243
  0
LINE
  5
558
100
AcDbEntity
  8
0
100
AcDbLine
 62
7
  6
CONTINUOUS
 10
107.7127670381
 20
140.231817957
 11
107.7783958677
 21
139.7929793243
  0
LINE
  5
559
100
AcDbEntity
  8
0
100
AcDbLine
 62
7
  6
CONTINUOUS
 10
111.1783958677
 20
106.2929793243
 11
111.1783958677
 21
132.2929793243
  0
LINE
  5
55A
100
AcDbEntity
  8
EDGEFEAT
100
AcDbLine
 62
7
  6
CONTINUOUS
 10
111.7424974828
 20
142.5710029452
 11
111.7424974828
 21
96.0149557033
  0
LINE
  5
55B
100
AcDbEntity
  8
EDGEFEAT
100
AcDbLine
 62
7
  6
CONTINUOUS
 10
112.2783958677
 20
142.7929793243
 11
112.2783958677
 21
95.7929793243
  0
LINE
  5
55C
100
AcDbEntity
  8
EDGEFEAT
100
AcDbLine
 62
7
  6
CONTINUOUS
 10
111.7424974828
 20
96.0149557033
 11
109.0564194886
 21
93.3288777091
  0
LINE
  5
55D
100
AcDbEntity
  8
EDGEFEAT
100
AcDbLine
 62
7
  6
CONTINUOUS
 10
112.2783958677
 20
95.7929793243
 11
109.2783958677
 21
92.7929793243
  0
LINE
  5
55E
100
AcDbEntity
  8
EDGEFEAT
100
AcDbLine
 62
7
  6
CONTINUOUS
 10
109.0564194886
 20
145.2570809394
 11
111.7424974828
 21
142.5710029452
  0
LINE
  5
55F
100
AcDbEntity
  8
EDGEFEAT
100
AcDbLine
 62
7
  6
CONTINUOUS
 10
109.2783958677
 20
145.7929793243
 11
112.2783958677
 21
142.7929793243
  0
LINE
  5
560
100
AcDbEntity
  8
EDGEFEAT
100
AcDbLine
 62
7
  6
CONTINUOUS
 10
144.0315316927
 20
145.7929793243
 11
143.5315316927
 21
145.2929793243
  0
LINE
  5
561
100
AcDbEntity
  8
0
100
AcDbLine
 62
7
  6
CONTINUOUS
 10
143.5315316927
 20
93.2929793243
 11
144.0315316927
 21
92.7929793243
  0
LINE
  5
562
100
AcDbEntity
  8
EDGEFEAT
100
AcDbLine
 62
7
  6
CONTINUOUS
 10
144.0315316927
 20
142.7929793243
 11
143.5315316927
 21
142.5858725431
  0
LINE
  5
563
100
AcDbEntity
  8
0
100
AcDbLine
 62
7
  6
CONTINUOUS
 10
168.5315316927
 20
93.3288777091
 11
166.5315316927
 21
92.7929793243
  0
LINE
  5
564
100
AcDbEntity
  8
0
100
AcDbLine
 62
7
  6
CONTINUOUS
 10
168.5315316927
 20
93.3929793243
 11
171.2770726922
 21
93.4888557286
  0
LINE
  5
565
100
AcDbEntity
  8
0
100
AcDbLine
 62
7
  6
CONTINUOUS
 10
144.0315316927
 20
92.7929793243
 11
166.5315316927
 21
92.7929793243
  0
LINE
  5
566
100
AcDbEntity
  8
0
100
AcDbLine
 62
7
  6
CONTINUOUS
 10
168.5315316927
 20
92.7929793243
 11
175.5315316927
 21
92.7929793243
  0
LINE
  5
567
100
AcDbEntity
  8
0
100
AcDbLine
 62
7
  6
CONTINUOUS
 10
143.5315316927
 20
94.7929793243
 11
142.5315316927
 21
94.7929793243
  0
LINE
  5
568
100
AcDbEntity
  8
0
100
AcDbLine
 62
7
  6
CONTINUOUS
 10
145.5315316927
 20
95.6067875851
 11
169.5358949604
 21
95.3973046805
  0
LINE
  5
569
100
AcDbEntity
  8
0
100
AcDbLine
 62
7
  6
CONTINUOUS
 10
176.0315316927
 20
97.3671577005
 11
167.5315316927
 21
97.2929793243
  0
LINE
  5
56A
100
AcDbEntity
  8
0
100
AcDbLine
 62
7
  6
CONTINUOUS
 10
145.5315316927
 20
96.2929793243
 11
145.7315316927
 21
96.2929793243
  0
LINE
  5
56B
100
AcDbEntity
  8
0
100
AcDbLine
 62
9
  6
CONTINUOUS
 10
145.7315316927
 20
96.3929793243
 11
167.5315316927
 21
96.3929793243
  0
LINE
  5
56C
100
AcDbEntity
  8
0
100
AcDbLine
 62
7
  6
CONTINUOUS
 10
145.5315316927
 20
96.5482984428
 11
145.7315316927
 21
96.5482984428
  0
LINE
  5
56D
100
AcDbEntity
  8
0
100
AcDbLine
 62
7
  6
CONTINUOUS
 10
145.5315316927
 20
97.1440431718
 11
145.7315316927
 21
97.1440431718
  0
LINE
  5
56E
100
AcDbEntity
  8
0
100
AcDbLine
 62
7
  6
CONTINUOUS
 10
145.5315316927
 20
97.3993622903
 11
145.7315316927
 21
97.3993622903
  0
LINE
  5
56F
100
AcDbEntity
  8
0
100
AcDbLine
 62
7
  6
CONTINUOUS
 10
145.5315316927
 20
98.037660176
 11
145.7315316927
 21
98.037660176
  0
LINE
  5
570
100
AcDbEntity
  8
0
100
AcDbLine
 62
7
  6
CONTINUOUS
 10
171.2770726922
 20
96.0971029199
 11
167.5315316927
 21
96.2279000938
  0
LINE
  5
571
100
AcDbEntity
  8
0
100
AcDbLine
 62
7
  6
CONTINUOUS
 10
145.5315316927
 20
98.2929793243
 11
145.7315316927
 21
98.2929793243
  0
LINE
  5
572
100
AcDbEntity
  8
0
100
AcDbLine
 62
7
  6
CONTINUOUS
 10
145.5315316927
 20
98.7929793243
 11
145.7315316927
 21
98.7929793243
  0
LINE
  5
573
100
AcDbEntity
  8
0
100
AcDbLine
 62
9
  6
CONTINUOUS
 10
145.7315316927
 20
98.7929793243
 11
176.0315316927
 21
98.7929793243
  0
LINE
  5
574
100
AcDbEntity
  8
0
100
AcDbLine
 62
7
  6
CONTINUOUS
 10
142.5315316927
 20
94.7932975122
 11
142.5315316927
 21
102.7926611364
  0
LINE
  5
575
100
AcDbEntity
  8
0
100
AcDbLine
 62
7
  6
CONTINUOUS
 10
142.5315316927
 20
135.2929793243
 11
142.5315316927
 21
144.2929793243
  0
LINE
  5
576
100
AcDbEntity
  8
0
100
AcDbLine
 62
7
  6
CONTINUOUS
 10
143.5315316927
 20
119.2929793236
 11
143.5315316927
 21
93.2929793243
  0
LINE
  5
577
100
AcDbEntity
  8
EDGEFEAT
100
AcDbLine
 62
7
  6
CONTINUOUS
 10
143.5315316927
 20
119.2929793236
 11
143.5315316927
 21
145.2929793243
  0
LINE
  5
578
100
AcDbEntity
  8
0
100
AcDbLine
 62
7
  6
CONTINUOUS
 10
145.5315316927
 20
100.4429793243
 11
145.7315316927
 21
100.4429793243
  0
LINE
  5
579
100
AcDbEntity
  8
0
100
AcDbLine
 62
7
  6
CONTINUOUS
 10
145.5315316927
 20
101.7929793243
 11
145.7315316927
 21
101.7929793243
  0
LINE
  5
57A
100
AcDbEntity
  8
0
100
AcDbLine
 62
7
  6
CONTINUOUS
 10
145.5315316927
 20
102.4429793243
 11
145.7315316927
 21
102.4429793243
  0
LWPOLYLINE
  5
57B
100
AcDbEntity
  8
EDGEFEAT
100
AcDbPolyline
 62
9
  6
CONTINUOUS
 90
4
 70
0
 10
145.828913732
 20
116.1289003801
 10
145.8283830018
 20
116.2498991949
 10
145.8283951568
 20
116.3503091487
 10
145.828913732
 20
116.412260704
  0
LINE
  5
57C
100
AcDbEntity
  8
EDGEFEAT
100
AcDbLine
 62
7
  6
CONTINUOUS
 10
144.0315316927
 20
119.2929793236
 11
144.0315316927
 21
145.7929793243
  0
LINE
  5
57D
100
AcDbEntity
  8
EDGEFEAT
100
AcDbLine
 62
8
  6
HIDDEN
 10
144.5315316927
 20
120.2679793243
 11
144.5315316927
 21
119.2929793243
  0
LINE
  5
57E
100
AcDbEntity
  8
DEFAULT_2
100
AcDbLine
 62
8
  6
HIDDEN
 10
144.5315316927
 20
118.3179793243
 11
144.5315316927
 21
119.2929793243
  0
LINE
  5
57F
100
AcDbEntity
  8
EDGEFEAT
100
AcDbLine
 62
8
  6
HIDDEN
 10
144.5315316927
 20
118.3179808397
 11
144.5315316927
 21
119.2929793243
  0
LINE
  5
580
100
AcDbEntity
  8
EDGEFEAT
100
AcDbLine
 62
8
  6
HIDDEN
 10
145.5315316927
 20
127.3927338942
 11
145.5315316927
 21
126.2929793267
  0
LINE
  5
581
100
AcDbEntity
  8
0
100
AcDbLine
 62
7
  6
CONTINUOUS
 10
145.5315316927
 20
119.2929793236
 11
145.5315316927
 21
106.7929793243
  0
LINE
  5
582
100
AcDbEntity
  8
0
100
AcDbLine
 62
7
  6
CONTINUOUS
 10
145.5315316927
 20
105.1429793243
 11
145.5315316927
 21
103.1429793243
  0
LINE
  5
583
100
AcDbEntity
  8
0
100
AcDbLine
 62
7
  6
CONTINUOUS
 10
145.5315316927
 20
102.4429793243
 11
145.5315316927
 21
100.4429793243
  0
LINE
  5
584
100
AcDbEntity
  8
0
100
AcDbLine
 62
7
  6
CONTINUOUS
 10
145.5315316927
 20
98.7929793243
 11
145.5315316927
 21
98.2929793243
  0
LINE
  5
585
100
AcDbEntity
  8
0
100
AcDbLine
 62
7
  6
CONTINUOUS
 10
145.5315316927
 20
98.037660176
 11
145.5315316927
 21
97.3993622903
  0
LINE
  5
586
100
AcDbEntity
  8
0
100
AcDbLine
 62
7
  6
CONTINUOUS
 10
145.5315316927
 20
97.1440431718
 11
145.5315316927
 21
96.5482984428
  0
LINE
  5
587
100
AcDbEntity
  8
0
100
AcDbLine
 62
7
  6
CONTINUOUS
 10
145.5315316927
 20
96.2929793243
 11
145.5315316927
 21
95.6067875851
  0
LINE
  5
588
100
AcDbEntity
  8
DEFAULT_2
100
AcDbLine
 62
8
  6
HIDDEN
 10
145.5315316927
 20
119.2929793236
 11
145.5315316927
 21
143.7929793243
  0
LINE
  5
589
100
AcDbEntity
  8
0
100
AcDbLine
 62
7
  6
CONTINUOUS
 10
145.7315316927
 20
106.7929793243
 11
145.7315316927
 21
98.7929793243
  0
LINE
  5
58A
100
AcDbEntity
  8
0
100
AcDbLine
 62
7
  6
CONTINUOUS
 10
145.7315316927
 20
98.2929793243
 11
145.7315316927
 21
96.2929793243
  0
LINE
  5
58B
100
AcDbEntity
  8
EDGEFEAT
100
AcDbLine
 62
9
  6
CONTINUOUS
 10
145.828913732
 20
119.2929793236
 11
145.828913732
 21
116.412260732
  0
LINE
  5
58C
100
AcDbEntity
  8
EDGEFEAT
100
AcDbLine
 62
9
  6
CONTINUOUS
 10
145.828913732
 20
116.128900347
 11
145.8289139049
 21
111.4932133328
  0
LINE
  5
58D
100
AcDbEntity
  8
0
100
AcDbLine
 62
7
  6
CONTINUOUS
 10
143.5315316927
 20
102.7929793243
 11
142.5315316927
 21
102.7929793243
  0
LINE
  5
58E
100
AcDbEntity
  8
0
100
AcDbLine
 62
7
  6
CONTINUOUS
 10
145.5315316927
 20
103.1429793243
 11
145.7315316927
 21
103.1429793243
  0
LINE
  5
58F
100
AcDbEntity
  8
0
100
AcDbLine
 62
7
  6
CONTINUOUS
 10
145.5315316927
 20
103.7929793243
 11
145.7315316927
 21
103.7929793243
  0
LWPOLYLINE
  5
590
100
AcDbEntity
  8
EDGEFEAT
100
AcDbPolyline
 62
9
  6
CONTINUOUS
 90
5
 70
0
 10
145.5315316927
 20
116.1289003801
 10
145.554118027
 20
116.2367703923
 10
145.61847608
 20
116.3283978167
 10
145.7149151016
 20
116.3899858025
 10
145.828913732
 20
116.412260704
  0
LINE
  5
591
100
AcDbEntity
  8
0
100
AcDbLine
 62
7
  6
CONTINUOUS
 10
145.5315316927
 20
105.1429793243
 11
145.7315316927
 21
105.1429793243
  0
LINE
  5
592
100
AcDbEntity
  8
0
100
AcDbLine
 62
9
  6
CONTINUOUS
 10
145.7315316927
 20
106.2929793243
 11
167.5315316927
 21
106.2929793243
  0
LINE
  5
593
100
AcDbEntity
  8
0
100
AcDbLine
 62
7
  6
CONTINUOUS
 10
145.7315316927
 20
105.5050422116
 11
167.5315316927
 21
105.3147964937
  0
LWPOLYLINE
  5
594
100
AcDbEntity
  8
EDGEFEAT
100
AcDbPolyline
 62
8
  6
HIDDEN
 90
5
 70
0
 10
145.5315316927
 20
122.4570582684
 10
145.554118027
 20
122.3491882563
 10
145.61847608
 20
122.2575608318
 10
145.7149151016
 20
122.1959728461
 10
145.828913732
 20
122.1736979446
  0
LINE
  5
595
100
AcDbEntity
  8
0
100
AcDbLine
 62
7
  6
CONTINUOUS
 10
176.0315316927
 20
107.3671577005
 11
167.5315316927
 21
107.2929793243
  0
LINE
  5
596
100
AcDbEntity
  8
0
100
AcDbLine
 62
7
  6
CONTINUOUS
 10
145.5315316927
 20
106.7929793243
 11
145.7315316927
 21
106.7929793243
  0
LINE
  5
597
100
AcDbEntity
  8
DEFAULT_2
100
AcDbLine
 62
8
  6
HIDDEN
 10
150.5315316927
 20
120.7929793243
 11
150.5315316927
 21
117.7929793243
  0
LINE
  5
598
100
AcDbEntity
  8
DEFAULT_2
100
AcDbLine
 62
8
  6
HIDDEN
 10
151.5315316927
 20
127.0430875331
 11
151.5315316927
 21
126.2929793243
  0
LINE
  5
599
100
AcDbEntity
  8
EDGEFEAT
100
AcDbLine
 62
8
  6
HIDDEN
 10
151.5315316927
 20
126.2929793243
 11
151.5315316927
 21
119.2929793236
  0
LINE
  5
59A
100
AcDbEntity
  8
EDGEFEAT
100
AcDbLine
 62
7
  6
CONTINUOUS
 10
151.5315316927
 20
119.2929793236
 11
151.5315316927
 21
112.2929793243
  0
LINE
  5
59B
100
AcDbEntity
  8
0
100
AcDbLine
 62
7
  6
CONTINUOUS
 10
151.5315316927
 20
112.2929793243
 11
151.5315316927
 21
111.5428711154
  0
LINE
  5
59C
100
AcDbEntity
  8
0
100
AcDbLine
 62
7
  6
CONTINUOUS
 10
145.828913732
 20
111.4932133313
 11
151.5315316927
 21
111.5429793243
  0
LINE
  5
59D
100
AcDbEntity
  8
EDGEFEAT
100
AcDbLine
 62
9
  6
CONTINUOUS
 10
145.5315316927
 20
112.2929793243
 11
151.5315316927
 21
112.2929793243
  0
LINE
  5
59E
100
AcDbEntity
  8
EDGEFEAT
100
AcDbLine
 62
9
  6
CONTINUOUS
 10
145.828913732
 20
116.412260732
 11
151.5315316927
 21
116.4488878186
  0
LINE
  5
59F
100
AcDbEntity
  8
EDGEFEAT
100
AcDbLine
 62
9
  6
CONTINUOUS
 10
145.828913732
 20
116.128900347
 11
151.5315316927
 21
116.1644894975
  0
LINE
  5
5A0
100
AcDbEntity
  8
EDGEFEAT
100
AcDbLine
 62
9
  6
CONTINUOUS
 10
145.5315316927
 20
116.1289003801
 11
145.828913732
 21
116.1289003801
  0
LINE
  5
5A1
100
AcDbEntity
  8
DEFAULT_2
100
AcDbLine
 62
8
  6
HIDDEN
 10
150.5315316927
 20
117.7929793243
 11
151.5315316927
 21
117.7929793243
  0
LINE
  5
5A2
100
AcDbEntity
  8
DEFAULT_2
100
AcDbLine
 62
8
  6
HIDDEN
 10
144.8315316927
 20
118.0179793243
 11
150.5315316927
 21
118.0179793243
  0
LINE
  5
5A3
100
AcDbEntity
  8
0
100
AcDbLine
 62
7
  6
CONTINUOUS
 10
178.5315316927
 20
119.2929793236
 11
143.5315316927
 21
119.2929793236
  0
LINE
  5
5A4
100
AcDbEntity
  8
DEFAULT_2
100
AcDbLine
 62
8
  6
HIDDEN
 10
144.8315316927
 20
120.5679793243
 11
150.5315316927
 21
120.5679793243
  0
LINE
  5
5A5
100
AcDbEntity
  8
DEFAULT_2
100
AcDbLine
 62
8
  6
HIDDEN
 10
150.5315316927
 20
120.7929793243
 11
151.5315316927
 21
120.7929793243
  0
LINE
  5
5A6
100
AcDbEntity
  8
EDGEFEAT
100
AcDbLine
 62
8
  6
HIDDEN
 10
145.828913732
 20
122.1736979165
 11
151.5315316927
 21
122.1370708299
  0
LINE
  5
5A7
100
AcDbEntity
  8
EDGEFEAT
100
AcDbLine
 62
7
  6
CONTINUOUS
 10
166.5315316927
 20
119.2929793236
 11
166.5315316927
 21
145.7929793243
  0
LINE
  5
5A8
100
AcDbEntity
  8
0
100
AcDbLine
 62
7
  6
CONTINUOUS
 10
167.5315316927
 20
96.2279000938
 11
167.5315316927
 21
119.2929793236
  0
LINE
  5
5A9
100
AcDbEntity
  8
0
100
AcDbLine
 62
7
  6
CONTINUOUS
 10
168.5315316927
 20
93.8929793243
 11
168.5315316927
 21
92.7929793243
  0
LINE
  5
5AA
100
AcDbEntity
  8
EDGEFEAT
100
AcDbLine
 62
7
  6
CONTINUOUS
 10
168.5315316927
 20
119.2929793236
 11
168.5315316927
 21
145.7929793243
  0
LINE
  5
5AB
100
AcDbEntity
  8
DEFAULT_2
100
AcDbLine
 62
8
  6
HIDDEN
 10
145.828913732
 20
127.0927453173
 11
151.5315316927
 21
127.0429793243
  0
LINE
  5
5AC
100
AcDbEntity
  8
0
100
AcDbLine
 62
9
  6
CONTINUOUS
 10
169.5358949604
 20
96.1579061861
 11
169.5358949604
 21
95.3973046805
  0
LINE
  5
5AD
100
AcDbEntity
  8
0
100
AcDbLine
 62
7
  6
CONTINUOUS
 10
170.0315316927
 20
94.897323719
 11
170.0315316927
 21
96.14059817
  0
LINE
  5
5AE
100
AcDbEntity
  8
0
100
AcDbLine
 62
9
  6
CONTINUOUS
 10
171.2770726922
 20
96.0971029199
 11
171.2770726922
 21
93.4888557286
  0
LINE
  5
5AF
100
AcDbEntity
  8
0
100
AcDbLine
 62
7
  6
CONTINUOUS
 10
175.5315316927
 20
119.2929793236
 11
175.5324653166
 21
145.7929793243
  0
LINE
  5
5B0
100
AcDbEntity
  8
0
100
AcDbLine
 62
7
  6
CONTINUOUS
 10
176.0315316927
 20
119.2929793236
 11
176.0315316927
 21
97.3671577005
  0
LINE
  5
5B1
100
AcDbEntity
  8
0
100
AcDbLine
 62
7
  6
CONTINUOUS
 10
143.5315316927
 20
135.2929793243
 11
142.5315316927
 21
135.2929793243
  0
LINE
  5
5B2
100
AcDbEntity
  8
0
100
AcDbLine
 62
7
  6
CONTINUOUS
 10
143.5315316927
 20
135.7929793243
 11
142.5315316927
 21
135.7929793243
  0
LINE
  5
5B3
100
AcDbEntity
  8
DEFAULT_2
100
AcDbLine
 62
8
  6
HIDDEN
 10
145.5315316927
 20
135.7929793243
 11
168.5315316927
 21
135.5922613651
  0
LINE
  5
5B4
100
AcDbEntity
  8
0
100
AcDbLine
 62
7
  6
CONTINUOUS
 10
178.5315316927
 20
142.7929793243
 11
178.5315316927
 21
95.7929793243
  0
LINE
  5
5B5
100
AcDbEntity
  8
DEFAULT_2
100
AcDbLine
 62
8
  6
HIDDEN
 10
142.5315316927
 20
137.6429793243
 11
145.5315316927
 21
137.6429793243
  0
LINE
  5
5B6
100
AcDbEntity
  8
DEFAULT_2
100
AcDbLine
 62
8
  6
HIDDEN
 10
142.5315316927
 20
141.9429793243
 11
145.5315316927
 21
141.9429793243
  0
LINE
  5
5B7
100
AcDbEntity
  8
EDGEFEAT
100
AcDbLine
 62
7
  6
CONTINUOUS
 10
144.0315316927
 20
142.7929793243
 11
166.5315316927
 21
142.7929793243
  0
LINE
  5
5B8
100
AcDbEntity
  8
0
100
AcDbLine
 62
7
  6
CONTINUOUS
 10
168.5315316927
 20
142.7929793243
 11
175.5324653166
 21
142.7929793243
  0
LINE
  5
5B9
100
AcDbEntity
  8
DEFAULT_2
100
AcDbLine
 62
8
  6
HIDDEN
 10
145.5315316927
 20
143.7929793243
 11
168.5315316927
 21
143.9936972835
  0
LINE
  5
5BA
100
AcDbEntity
  8
0
100
AcDbLine
 62
7
  6
CONTINUOUS
 10
143.5315316927
 20
143.7929793243
 11
142.5315316927
 21
143.7929793243
  0
LINE
  5
5BB
100
AcDbEntity
  8
0
100
AcDbLine
 62
7
  6
CONTINUOUS
 10
143.5315316927
 20
144.2929793243
 11
142.5315316927
 21
144.2929793243
  0
LINE
  5
5BC
100
AcDbEntity
  8
EDGEFEAT
100
AcDbLine
 62
7
  6
CONTINUOUS
 10
166.5315316927
 20
142.7929793243
 11
168.5315316927
 21
142.5710029452
  0
LINE
  5
5BD
100
AcDbEntity
  8
0
100
AcDbLine
 62
7
  6
CONTINUOUS
 10
168.5315316927
 20
93.8929793243
 11
169.738611137
 21
94.4422214187
  0
LINE
  5
5BE
100
AcDbEntity
  8
EDGEFEAT
100
AcDbLine
 62
7
  6
CONTINUOUS
 10
144.0315316927
 20
145.7929793243
 11
166.5315316927
 21
145.7929793243
  0
LINE
  5
5BF
100
AcDbEntity
  8
0
100
AcDbLine
 62
7
  6
CONTINUOUS
 10
168.5315316927
 20
145.7929793243
 11
175.5324653166
 21
145.7929793243
  0
LINE
  5
5C0
100
AcDbEntity
  8
EDGEFEAT
100
AcDbLine
 62
7
  6
CONTINUOUS
 10
168.5315316927
 20
145.2570809394
 11
166.5315316927
 21
145.7929793243
  0
LINE
  5
5C1
100
AcDbEntity
  8
0
100
AcDbLine
 62
7
  6
CONTINUOUS
 10
175.5315316927
 20
142.794846572
 11
178.5315316927
 21
139.794846572
  0
LINE
  5
5C2
100
AcDbEntity
  8
0
100
AcDbLine
 62
7
  6
CONTINUOUS
 10
178.5315316927
 20
95.7929793243
 11
175.5315316927
 21
92.7929793243
  0
LINE
  5
5C3
100
AcDbEntity
  8
0
100
AcDbLine
 62
7
  6
CONTINUOUS
 10
175.5315316927
 20
145.7929793243
 11
178.5315316927
 21
142.7929793243
  0
LINE
  5
5C4
100
AcDbEntity
  8
EDGEFEAT
100
AcDbLine
 62
7
  6
CONTINUOUS
 10
47.2783958677
 20
197.9394517808
 11
47.7783958677
 21
197.4394517808
  0
LINE
  5
5C5
100
AcDbEntity
  8
EDGEFEAT
100
AcDbLine
 62
7
  6
CONTINUOUS
 10
47.2783958677
 20
197.9394517808
 11
47.2783958677
 21
220.4394517808
  0
LINE
  5
5C6
100
AcDbEntity
  8
0
100
AcDbLine
 62
7
  6
CONTINUOUS
 10
47.2783958677
 20
222.4394517808
 11
47.2783958677
 21
229.4394517808
  0
LINE
  5
5C7
100
AcDbEntity
  8
EDGEFEAT
100
AcDbLine
 62
7
  6
CONTINUOUS
 10
47.2783958677
 20
220.4394517808
 11
47.8142942526
 21
222.4394517808
  0
LINE
  5
5C8
100
AcDbEntity
  8
0
100
AcDbLine
 62
7
  6
CONTINUOUS
 10
50.2783958677
 20
232.4394517808
 11
47.2783958677
 21
229.4394517808
  0
LINE
  5
5C9
100
AcDbEntity
  8
EDGEFEAT
100
AcDbLine
 62
7
  6
CONTINUOUS
 10
50.4855026489
 20
197.4394517808
 11
50.2783958677
 21
197.9394517808
  0
LINE
  5
5CA
100
AcDbEntity
  8
DEFAULT_2
100
AcDbLine
 62
8
  6
HIDDEN
 10
49.2434883965
 20
222.4394517808
 11
49.2783958677
 21
218.4394517808
  0
LINE
  5
5CB
100
AcDbEntity
  8
DEFAULT_2
100
AcDbLine
 62
8
  6
HIDDEN
 10
49.2783958677
 20
229.4394517808
 11
49.3220302067
 21
224.4394517808
  0
LINE
  5
5CC
100
AcDbEntity
  8
DEFAULT_2
100
AcDbLine
 62
8
  6
HIDDEN
 10
50.2783958677
 20
206.4394517808
 11
50.2085809254
 21
214.4394517808
  0
LINE
  5
5CD
100
AcDbEntity
  8
0
100
AcDbLine
 62
7
  6
CONTINUOUS
 10
48.7783958677
 20
197.4394517808
 11
48.7783958677
 21
196.4394517808
  0
LINE
  5
5CE
100
AcDbEntity
  8
EDGEFEAT
100
AcDbLine
 62
7
  6
CONTINUOUS
 10
50.2783958677
 20
197.9394517808
 11
50.2783958677
 21
220.4394517808
  0
LINE
  5
5CF
100
AcDbEntity
  8
0
100
AcDbLine
 62
7
  6
CONTINUOUS
 10
50.2783958677
 20
222.4394517808
 11
50.2783958677
 21
229.4394517808
  0
LINE
  5
5D0
100
AcDbEntity
  8
DEFAULT_2
100
AcDbLine
 62
8
  6
HIDDEN
 10
49.2783958677
 20
196.4394517808
 11
49.4354794879
 21
214.4394517808
  0
LINE
  5
5D1
100
AcDbEntity
  8
EDGEFEAT
100
AcDbLine
 62
7
  6
CONTINUOUS
 10
50.2783958677
 20
220.4394517808
 11
50.5003722468
 21
222.4394517808
  0
LWPOLYLINE
  5
5D2
100
AcDbEntity
  8
DEFAULT_2
100
AcDbPolyline
 62
8
  6
HIDDEN
 90
11
 70
0
 10
51.278405185
 20
212.6403213788
 10
51.2835001818
 20
212.5907279539
 10
51.3518426632
 20
212.462439483
 10
51.4486222314
 20
212.3886883139
 10
51.5665063949
 20
212.3342820437
 10
51.7161811934
 20
212.2849022548
 10
51.9031809388
 20
212.2364994052
 10
52.1306504921
 20
212.187344207
 10
52.397599857
 20
212.1368830441
 10
52.6994641273
 20
212.0849654973
 10
53.2786353355
 20
211.9919138801
  0
LWPOLYLINE
  5
5D3
100
AcDbEntity
  8
DEFAULT_2
100
AcDbPolyline
 62
8
  6
HIDDEN
 90
12
 70
0
 10
51.2784032685
 20
214.4302268022
 10
51.2816872609
 20
214.390331792
 10
51.343871413
 20
214.2612753641
 10
51.4358268287
 20
214.1862030294
 10
51.5464353339
 20
214.1321837613
 10
51.6853899327
 20
214.0840153757
 10
51.8584648223
 20
214.0372146013
 10
52.070294593
 20
213.9896781766
 10
52.3251806253
 20
213.940032198
 10
52.6250533488
 20
213.88741579
 10
52.9628730699
 20
213.8320740352
 10
53.2783583457
 20
213.7819577196
  0
LINE
  5
5D4
100
AcDbEntity
  8
DEFAULT_2
100
AcDbLine
 62
8
  6
HIDDEN
 10
51.2783961612
 20
213.1392974433
 11
51.2783958677
 21
213.1394517808
  0
LINE
  5
5D5
100
AcDbEntity
  8
DEFAULT_2
100
AcDbLine
 62
8
  6
HIDDEN
 10
51.2783959811
 20
209.5593558546
 11
51.2783958677
 21
209.5594517808
  0
LINE
  5
5D6
100
AcDbEntity
  8
DEFAULT_2
100
AcDbLine
 62
8
  6
HIDDEN
 10
51.0283958677
 20
218.4394517808
 11
51.0283958677
 21
215.9394517808
  0
LINE
  5
5D7
100
AcDbEntity
  8
DEFAULT_2
100
AcDbLine
 62
8
  6
HIDDEN
 10
51.2783958677
 20
214.9294517808
 11
51.2783958677
 21
214.4294517808
  0
LINE
  5
5D8
100
AcDbEntity
  8
DEFAULT_2
100
AcDbLine
 62
8
  6
HIDDEN
 10
51.2783958677
 20
213.1394517808
 11
51.2783958677
 21
212.6394517808
  0
LINE
  5
5D9
100
AcDbEntity
  8
DEFAULT_2
100
AcDbLine
 62
8
  6
HIDDEN
 10
51.2783958677
 20
211.3494517808
 11
51.2783958677
 21
210.8494517808
  0
LINE
  5
5DA
100
AcDbEntity
  8
DEFAULT_2
100
AcDbLine
 62
8
  6
HIDDEN
 10
51.2783958677
 20
209.5594517808
 11
51.2783958677
 21
209.0594517808
  0
LINE
  5
5DB
100
AcDbEntity
  8
DEFAULT_2
100
AcDbLine
 62
8
  6
HIDDEN
 10
51.2783958677
 20
207.7694517808
 11
51.2783958677
 21
207.2694517808
  0
LINE
  5
5DC
100
AcDbEntity
  8
DEFAULT_2
100
AcDbLine
 62
8
  6
HIDDEN
 10
51.3783958677
 20
223.3394517808
 11
51.3783958677
 21
222.4394517808
  0
LINE
  5
5DD
100
AcDbEntity
  8
DEFAULT_2
100
AcDbLine
 62
8
  6
HIDDEN
 10
51.2783958677
 20
214.9294517808
 11
51.2783970986
 21
214.9297678559
  0
LINE
  5
5DE
100
AcDbEntity
  8
DEFAULT_2
100
AcDbLine
 62
8
  6
HIDDEN
 10
51.2783958677
 20
211.3494517808
 11
51.2783971323
 21
211.349772149
  0
LINE
  5
5DF
100
AcDbEntity
  8
DEFAULT_2
100
AcDbLine
 62
8
  6
HIDDEN
 10
51.2783958677
 20
207.7694517808
 11
51.2783980828
 21
207.7698757844
  0
LWPOLYLINE
  5
5E0
100
AcDbEntity
  8
DEFAULT_2
100
AcDbPolyline
 62
8
  6
HIDDEN
 90
11
 70
0
 10
51.2783961872
 20
209.0596128003
 10
51.2998993783
 20
208.9600610194
 10
51.3884659267
 20
208.8489075445
 10
51.4977560665
 20
208.7833449249
 10
51.6348614087
 20
208.7299949956
 10
51.8099800792
 20
208.679371665
 10
52.0310451626
 20
208.627941902
 10
52.3002170488
 20
208.5746464902
 10
52.6146500697
 20
208.5191717707
 10
52.969472203
 20
208.4610167068
 10
53.2790377422
 20
208.4118501909
  0
LWPOLYLINE
  5
5E1
100
AcDbEntity
  8
DEFAULT_2
100
AcDbPolyline
 62
8
  6
HIDDEN
 90
11
 70
0
 10
51.2783964454
 20
207.2696683099
 10
51.2967800788
 20
207.1773991283
 10
51.3798555548
 20
207.0659563885
 10
51.4839717374
 20
206.9999751809
 10
51.6141288134
 20
206.9469916237
 10
51.7838336202
 20
206.8961956226
 10
52.0017602261
 20
206.8442472078
 10
52.2700858785
 20
206.7902771011
 10
52.5864981764
 20
206.7339440493
 10
52.9434920724
 20
206.6751829896
 10
53.278766571
 20
206.6218931095
  0
LWPOLYLINE
  5
5E2
100
AcDbEntity
  8
DEFAULT_2
100
AcDbPolyline
 62
8
  6
HIDDEN
 90
11
 70
0
 10
51.2783960328
 20
210.8495675466
 10
51.293035386
 20
210.7671602404
 10
51.3674482909
 20
210.6569330705
 10
51.466418511
 20
210.588928912
 10
51.5910053557
 20
210.5351553882
 10
51.7512334471
 20
210.4850053395
 10
51.9497439893
 20
210.4357754831
 10
52.1903036306
 20
210.3855433919
 10
52.475580865
 20
210.3330718796
 10
52.8058197831
 20
210.2774587344
 10
53.279432311
 20
210.2017877422
  0
LINE
  5
5E3
100
AcDbEntity
  8
DEFAULT_2
100
AcDbLine
 62
8
  6
HIDDEN
 10
55.2783958677
 20
210.4544517808
 11
55.2783945924
 21
210.4547735055
  0
LINE
  5
5E4
100
AcDbEntity
  8
DEFAULT_2
100
AcDbLine
 62
8
  6
HIDDEN
 10
55.2783958677
 20
208.6644517808
 11
55.2783949623
 21
208.6647228595
  0
LINE
  5
5E5
100
AcDbEntity
  8
DEFAULT_2
100
AcDbLine
 62
8
  6
HIDDEN
 10
55.2783958677
 20
214.0344517808
 11
55.278395006
 21
214.0347162439
  0
LINE
  5
5E6
100
AcDbEntity
  8
DEFAULT_2
100
AcDbLine
 62
8
  6
HIDDEN
 10
55.2783958677
 20
215.8244517808
 11
55.2783957737
 21
215.8245391495
  0
LINE
  5
5E7
100
AcDbEntity
  8
0
100
AcDbLine
 62
9
  6
CONTINUOUS
 10
53.2783958677
 20
232.4394517808
 11
53.2783958677
 21
229.4394517808
  0
LINE
  5
5E8
100
AcDbEntity
  8
DEFAULT_2
100
AcDbLine
 62
8
  6
HIDDEN
 10
55.1783958677
 20
223.3394517808
 11
55.1783958677
 21
222.4394517808
  0
LINE
  5
5E9
100
AcDbEntity
  8
DEFAULT_2
100
AcDbLine
 62
8
  6
HIDDEN
 10
55.2783958677
 20
206.4394517808
 11
55.2783958677
 21
206.8744517808
  0
LINE
  5
5EA
100
AcDbEntity
  8
DEFAULT_2
100
AcDbLine
 62
8
  6
HIDDEN
 10
55.2783958677
 20
208.1644517808
 11
55.2783958677
 21
208.6644517808
  0
LINE
  5
5EB
100
AcDbEntity
  8
DEFAULT_2
100
AcDbLine
 62
8
  6
HIDDEN
 10
55.2783958677
 20
209.9544517808
 11
55.2783958677
 21
210.4544517808
  0
LINE
  5
5EC
100
AcDbEntity
  8
DEFAULT_2
100
AcDbLine
 62
8
  6
HIDDEN
 10
55.2783958677
 20
211.7444517808
 11
55.2783958677
 21
212.2444517808
  0
LINE
  5
5ED
100
AcDbEntity
  8
DEFAULT_2
100
AcDbLine
 62
8
  6
HIDDEN
 10
55.2783958677
 20
213.5344517808
 11
55.2783958677
 21
214.0344517808
  0
LINE
  5
5EE
100
AcDbEntity
  8
DEFAULT_2
100
AcDbLine
 62
8
  6
HIDDEN
 10
55.2783958677
 20
215.3244517808
 11
55.2783958677
 21
215.8244517808
  0
LINE
  5
5EF
100
AcDbEntity
  8
DEFAULT_2
100
AcDbLine
 62
8
  6
HIDDEN
 10
55.2783957462
 20
212.2443524766
 11
55.2783958677
 21
212.2444517808
  0
LWPOLYLINE
  5
5F0
100
AcDbEntity
  8
DEFAULT_2
100
AcDbPolyline
 62
8
  6
HIDDEN
 90
4
 70
0
 10
55.2783958677
 20
206.8744517808
 10
55.26693206
 20
206.9049690222
 10
55.1361252147
 20
206.9825552291
 10
54.8683818679
 20
207.060141436
  0
LWPOLYLINE
  5
5F1
100
AcDbEntity
  8
DEFAULT_2
100
AcDbPolyline
 62
8
  6
HIDDEN
 90
4
 70
0
 10
55.2783949623
 20
208.6647228595
 10
55.2707000464
 20
208.6894517808
 10
55.1501233234
 20
208.7670379877
 10
54.8915782735
 20
208.8446241946
  0
LWPOLYLINE
  5
5F2
100
AcDbEntity
  8
DEFAULT_2
100
AcDbPolyline
 62
8
  6
HIDDEN
 90
4
 70
0
 10
55.2783945924
 20
210.4547735055
 10
55.273720828
 20
210.4739345394
 10
55.1634194489
 20
210.5515207463
 10
54.9141696622
 20
210.6291069532
  0
LINE
  5
5F3
100
AcDbEntity
  8
DEFAULT_2
100
AcDbLine
 62
8
  6
HIDDEN
 10
57.1213122475
 20
214.4394517808
 11
57.2783958677
 21
196.4394517808
  0
LINE
  5
5F4
100
AcDbEntity
  8
DEFAULT_2
100
AcDbLine
 62
8
  6
HIDDEN
 10
55.5283958677
 20
218.4394517808
 11
55.5283958677
 21
215.9394517808
  0
LINE
  5
5F5
100
AcDbEntity
  8
0
100
AcDbLine
 62
7
  6
CONTINUOUS
 10
57.7783958677
 20
197.4394517808
 11
57.7783958677
 21
196.4394517808
  0
LINE
  5
5F6
100
AcDbEntity
  8
DEFAULT_2
100
AcDbLine
 62
8
  6
HIDDEN
 10
56.2783958677
 20
206.4394517808
 11
56.34821081
 21
214.4394517808
  0
LINE
  5
5F7
100
AcDbEntity
  8
0
100
AcDbLine
 62
7
  6
CONTINUOUS
 10
57.3045764711
 20
232.4394517808
 11
57.2783958677
 21
229.4394517808
  0
LINE
  5
5F8
100
AcDbEntity
  8
DEFAULT_2
100
AcDbLine
 62
8
  6
HIDDEN
 10
57.3133033389
 20
222.4394517808
 11
57.2783958677
 21
218.4394517808
  0
LINE
  5
5F9
100
AcDbEntity
  8
DEFAULT_2
100
AcDbLine
 62
8
  6
HIDDEN
 10
56.2783958499
 20
224.439451763
 11
55.1783958564
 21
223.3394517695
  0
LWPOLYLINE
  5
5FA
100
AcDbEntity
  8
DEFAULT_2
100
AcDbPolyline
 62
8
  6
HIDDEN
 90
4
 70
0
 10
55.278395006
 20
214.0347162439
 10
55.2673170142
 20
214.0644517808
 10
55.136069165
 20
214.1425767808
 10
54.865992478
 20
214.2207017808
  0
LWPOLYLINE
  5
5FB
100
AcDbEntity
  8
DEFAULT_2
100
AcDbPolyline
 62
8
  6
HIDDEN
 90
4
 70
0
 10
55.2783958677
 20
212.2444517808
 10
55.2718105204
 20
212.2675767808
 10
55.1534080911
 20
212.3457017808
 10
54.8948810402
 20
212.4238267808
  0
LWPOLYLINE
  5
5FC
100
AcDbEntity
  8
DEFAULT_2
100
AcDbPolyline
 62
8
  6
HIDDEN
 90
7
 70
0
 10
51.2783971323
 20
211.349772149
 10
51.3207728231
 20
211.4082017808
 10
51.5048246375
 20
211.4863267808
 10
51.8214201198
 20
211.5644517808
 10
52.2468992525
 20
211.6425767808
 10
52.7494648548
 20
211.7207017808
 10
53.83266918
 20
211.8769517808
  0
LWPOLYLINE
  5
5FD
100
AcDbEntity
  8
DEFAULT_2
100
AcDbPolyline
 62
8
  6
HIDDEN
 90
7
 70
0
 10
51.2783958677
 20
209.5594517808
 10
51.3241196799
 20
209.6204862636
 10
51.5105220648
 20
209.6980724705
 10
51.827237541
 20
209.7756586774
 10
52.2509204529
 20
209.8532448843
 10
52.750340387
 20
209.9308310912
 10
53.8262696814
 20
210.086003505
  0
LWPOLYLINE
  5
5FE
100
AcDbEntity
  8
DEFAULT_2
100
AcDbPolyline
 62
8
  6
HIDDEN
 90
7
 70
0
 10
51.2783958677
 20
213.1394517808
 10
51.3312247037
 20
213.2050767808
 10
51.527645908
 20
213.2832017808
 10
51.8549052864
 20
213.3613267808
 10
52.28854588
 20
213.4394517808
 10
52.7961605807
 20
213.5175767808
 10
53.878877479
 20
213.6738267808
  0
LWPOLYLINE
  5
5FF
100
AcDbEntity
  8
DEFAULT_2
100
AcDbPolyline
 62
8
  6
HIDDEN
 90
7
 70
0
 10
51.2783970986
 20
214.9297678559
 10
51.3428105035
 20
215.0019517808
 10
51.5514867135
 20
215.0800767808
 10
51.889219411
 20
215.1582017808
 10
52.3307689386
 20
215.2363267808
 10
52.8431371324
 20
215.3144517808
 10
53.9247360925
 20
215.4707017808
  0
LWPOLYLINE
  5
600
100
AcDbEntity
  8
DEFAULT_2
100
AcDbPolyline
 62
8
  6
HIDDEN
 90
3
 70
0
 10
55.2783957737
 20
215.8245391495
 10
55.261665276
 20
215.8613267808
 10
55.1176484379
 20
215.9394517808
  0
LWPOLYLINE
  5
601
100
AcDbEntity
  8
DEFAULT_2
100
AcDbPolyline
 62
8
  6
HIDDEN
 90
7
 70
0
 10
51.2783980828
 20
207.7698757844
 10
51.3327204456
 20
207.836003505
 10
51.5289641434
 20
207.9135897119
 10
51.8541615344
 20
207.9911759188
 10
52.2843417462
 20
208.0687621256
 10
52.7877954377
 20
208.1463483325
 10
53.8634157876
 20
208.3015207463
  0
LINE
  5
602
100
AcDbEntity
  8
0
100
AcDbLine
 62
7
  6
CONTINUOUS
 10
110.7783958677
 20
196.4394517808
 11
101.7783958677
 21
196.4394517808
  0
LINE
  5
603
100
AcDbEntity
  8
0
100
AcDbLine
 62
7
  6
CONTINUOUS
 10
57.7783958677
 20
196.4394517808
 11
48.7783958677
 21
196.4394517808
  0
LINE
  5
604
100
AcDbEntity
  8
0
100
AcDbLine
 62
7
  6
CONTINUOUS
 10
111.7783958677
 20
197.4394517808
 11
79.7783958684
 21
197.4394517808
  0
LINE
  5
605
100
AcDbEntity
  8
EDGEFEAT
100
AcDbLine
 62
7
  6
CONTINUOUS
 10
79.7783958684
 20
197.4394517808
 11
47.7783958677
 21
197.4394517808
  0
LINE
  5
606
100
AcDbEntity
  8
EDGEFEAT
100
AcDbLine
 62
7
  6
CONTINUOUS
 10
79.7783958684
 20
197.9394517808
 11
47.2783958677
 21
197.9394517808
  0
LINE
  5
607
100
AcDbEntity
  8
0
100
AcDbLine
 62
7
  6
CONTINUOUS
 10
99.7533958677
 20
198.4394517808
 11
97.8033958677
 21
198.4394517808
  0
LINE
  5
608
100
AcDbEntity
  8
0
100
AcDbLine
 62
9
  6
CONTINUOUS
 10
97.5033958677
 20
198.7394517808
 11
100.0533958677
 21
198.7394517808
  0
LINE
  5
609
100
AcDbEntity
  8
0
100
AcDbLine
 62
7
  6
CONTINUOUS
 10
79.7783958684
 20
199.4394517808
 11
95.4286412978
 21
199.4394517808
  0
LINE
  5
60A
100
AcDbEntity
  8
0
100
AcDbLine
 62
7
  6
CONTINUOUS
 10
102.1281504376
 20
199.4394517808
 11
109.4645876068
 21
199.4394517808
  0
LINE
  5
60B
100
AcDbEntity
  8
0
100
AcDbLine
 62
7
  6
CONTINUOUS
 10
79.7783958684
 20
199.6394517808
 11
83.7783958677
 21
199.6394517808
  0
LINE
  5
60C
100
AcDbEntity
  8
DEFAULT_2
100
AcDbLine
 62
8
  6
HIDDEN
 10
53.5266486297
 20
206.5802000866
 11
53.2783958665
 21
206.621951781
  0
LWPOLYLINE
  5
60D
100
AcDbEntity
  8
DEFAULT_2
100
AcDbPolyline
 62
8
  6
HIDDEN
 90
12
 70
0
 10
53.2779931957
 20
206.6220192609
 10
52.9226902235
 20
206.6820049723
 10
52.4714458982
 20
206.7628560361
 10
52.0847602871
 20
206.8437071
 10
51.7935695408
 20
206.9245581638
 10
51.6211698995
 20
207.0054092276
 10
51.5813539148
 20
207.0862602915
 10
51.6773069995
 20
207.1671113553
 10
51.9013525838
 20
207.2479624191
 10
52.2355662667
 20
207.3288134829
 10
52.6532098284
 20
207.4096645468
 10
53.0301431057
 20
207.4752000866
  0
LWPOLYLINE
  5
60E
100
AcDbEntity
  8
DEFAULT_2
100
AcDbPolyline
 62
8
  6
HIDDEN
 90
3
 70
0
 10
54.2944516455
 20
206.4394517808
 10
53.8721740484
 20
206.5203028447
 10
53.5266486297
 20
206.5802000866
  0
LWPOLYLINE
  5
60F
100
AcDbEntity
  8
DEFAULT_2
100
AcDbPolyline
 62
8
  6
HIDDEN
 90
4
 70
0
 10
54.8683818679
 20
207.060141436
 10
54.483437853
 20
207.1377276429
 10
54.0096680713
 20
207.2153138498
 10
52.9393141389
 20
207.3704862636
  0
LINE
  5
610
100
AcDbEntity
  8
DEFAULT_2
100
AcDbLine
 62
8
  6
HIDDEN
 10
50.2783958856
 20
224.439451763
 11
51.378395879
 21
223.3394517695
  0
LWPOLYLINE
  5
611
100
AcDbEntity
  8
DEFAULT_2
100
AcDbPolyline
 62
8
  6
HIDDEN
 90
8
 70
0
 10
54.7529797284
 20
214.9760714991
 10
54.9300588382
 20
215.0563531893
 10
54.9768416139
 20
215.1366348794
 10
54.8896374576
 20
215.2169165696
 10
54.6753257277
 20
215.2971982597
 10
54.350813041
 20
215.3774799498
 10
53.9416995437
 20
215.45776164
 10
53.4802593678
 20
215.5380433301
  0
LINE
  5
612
100
AcDbEntity
  8
0
100
AcDbLine
 62
7
  6
CONTINUOUS
 10
100.2783958677
 20
204.4394517808
 11
97.2783958677
 21
204.4394517808
  0
LWPOLYLINE
  5
613
100
AcDbEntity
  8
DEFAULT_2
100
AcDbPolyline
 62
8
  6
HIDDEN
 90
7
 70
0
 10
52.9393141389
 20
207.3704862636
 10
52.4216276614
 20
207.4480724705
 10
51.9670950772
 20
207.5256586774
 10
51.6092207834
 20
207.6032448843
 10
51.3743843245
 20
207.6808310912
 10
51.2798959094
 20
207.7584172981
 10
51.2783958677
 20
207.7694517808
  0
LINE
  5
614
100
AcDbEntity
  8
DEFAULT_2
100
AcDbLine
 62
8
  6
HIDDEN
 10
53.5266486297
 20
208.3702000866
 11
53.2783958662
 21
208.4119517811
  0
LWPOLYLINE
  5
615
100
AcDbEntity
  8
DEFAULT_2
100
AcDbPolyline
 62
8
  6
HIDDEN
 90
12
 70
0
 10
53.2776927118
 20
208.4120696163
 10
52.9887526642
 20
208.4607283766
 10
52.531288943
 20
208.5415794404
 10
52.1335962909
 20
208.6224305042
 10
51.8274914591
 20
208.7032815681
 10
51.6374638644
 20
208.7841326319
 10
51.5787163544
 20
208.8649836957
 10
51.6559489274
 20
208.9458347595
 10
51.8629827177
 20
209.0266858234
 10
52.1832543251
 20
209.1075368872
 10
52.5911409428
 20
209.188387951
 10
53.0301431057
 20
209.2652000866
  0
LWPOLYLINE
  5
616
100
AcDbEntity
  8
DEFAULT_2
100
AcDbPolyline
 62
8
  6
HIDDEN
 90
4
 70
0
 10
54.8915782735
 20
208.8446241946
 10
54.5141227077
 20
208.9222104015
 10
54.0455795404
 20
208.9997966084
 10
53.5204859135
 20
209.0773828153
  0
LINE
  5
617
100
AcDbEntity
  8
0
100
AcDbLine
 62
7
  6
CONTINUOUS
 10
101.7783958677
 20
205.4394517808
 11
95.7783958677
 21
205.4394517808
  0
LINE
  5
618
100
AcDbEntity
  8
DEFAULT_2
100
AcDbLine
 62
8
  6
HIDDEN
 10
56.2783958677
 20
206.4394517808
 11
50.2783958677
 21
206.4394517808
  0
LWPOLYLINE
  5
619
100
AcDbEntity
  8
DEFAULT_2
100
AcDbPolyline
 62
8
  6
HIDDEN
 90
8
 70
0
 10
53.5204859135
 20
209.0773828153
 10
52.9775474031
 20
209.1549690222
 10
52.4567849628
 20
209.2325552291
 10
51.9965849092
 20
209.310141436
 10
51.6308693985
 20
209.3877276429
 10
51.3865959652
 20
209.4653138498
 10
51.2817704342
 20
209.5429000567
 10
51.2783959811
 20
209.5593558546
  0
LWPOLYLINE
  5
61A
100
AcDbEntity
  8
DEFAULT_2
100
AcDbPolyline
 62
8
  6
HIDDEN
 90
7
 70
0
 10
53.0158934992
 20
210.9394517808
 10
52.4887737777
 20
211.0175767808
 10
52.020664603
 20
211.0957017808
 10
51.6465490115
 20
211.1738267808
 10
51.3943856507
 20
211.2519517808
 10
51.2830193553
 20
211.3300767808
 10
51.2783958677
 20
211.3494517808
  0
LINE
  5
61B
100
AcDbEntity
  8
DEFAULT_2
100
AcDbLine
 62
8
  6
HIDDEN
 10
53.5266486297
 20
210.1602000866
 11
53.0552688545
 21
210.2394517808
  0
LWPOLYLINE
  5
61C
100
AcDbEntity
  8
DEFAULT_2
100
AcDbPolyline
 62
8
  6
HIDDEN
 90
11
 70
0
 10
53.0552688545
 20
210.2394517808
 10
52.5954123747
 20
210.319733471
 10
52.1894350742
 20
210.4000151611
 10
51.8693636769
 20
210.4802968512
 10
51.6604479646
 20
210.5605785414
 10
51.5791688733
 20
210.6408602315
 10
51.6319383452
 20
210.7211419217
 10
51.8145935039
 20
210.8014236118
 10
52.1127250553
 20
210.881705302
 10
52.5028140074
 20
210.9619869921
 10
52.9540870357
 20
211.0422686822
  0
LWPOLYLINE
  5
61D
100
AcDbEntity
  8
DEFAULT_2
100
AcDbPolyline
 62
8
  6
HIDDEN
 90
5
 70
0
 10
54.9141696622
 20
210.6291069532
 10
54.5443441084
 20
210.7066931601
 10
54.0812032806
 20
210.784279367
 10
53.5588861046
 20
210.8618655739
 10
53.0158934992
 20
210.9394517808
  0
LWPOLYLINE
  5
61E
100
AcDbEntity
  8
DEFAULT_2
100
AcDbPolyline
 62
8
  6
HIDDEN
 90
6
 70
0
 10
51.506303065
 20
215.9394517808
 10
51.6429568618
 20
215.8873379078
 10
51.9436649942
 20
215.8071525963
 10
52.2975357412
 20
215.7351447805
 10
52.6834369256
 20
215.6676317256
 10
53.2779082386
 20
215.5720289581
  0
LWPOLYLINE
  5
61F
100
AcDbEntity
  8
DEFAULT_2
100
AcDbPolyline
 62
8
  6
HIDDEN
 90
8
 70
0
 10
54.7114834958
 20
209.5926432702
 10
54.9102151402
 20
209.673494334
 10
54.9783957492
 20
209.7543453978
 10
54.9105706445
 20
209.8351964617
 10
54.7121660629
 20
209.9160475255
 10
54.3990550388
 20
209.9968985893
 10
53.9962875082
 20
210.0777496532
 10
53.5266486297
 20
210.1602000866
  0
LWPOLYLINE
  5
620
100
AcDbEntity
  8
DEFAULT_2
100
AcDbPolyline
 62
8
  6
HIDDEN
 90
8
 70
0
 10
54.6464764413
 20
211.3633954428
 10
54.8731410712
 20
211.4436771329
 10
54.9739994939
 20
211.5239588231
 10
54.9410951936
 20
211.6042405132
 10
54.7770239236
 20
211.6845222034
 10
54.4947289329
 20
211.7648038935
 10
54.1164798994
 20
211.8450855836
 10
53.6721161204
 20
211.9253672738
  0
LWPOLYLINE
  5
621
100
AcDbEntity
  8
DEFAULT_2
100
AcDbPolyline
 62
8
  6
HIDDEN
 90
8
 70
0
 10
54.5574870651
 20
213.1295926259
 10
54.8184326822
 20
213.209874316
 10
54.9578879257
 20
213.2901560062
 10
54.9648514551
 20
213.3704376963
 10
54.8387739316
 20
213.4507193865
 10
54.5896013548
 20
213.5310010766
 10
54.2369904427
 20
213.6112827667
 10
53.8087579533
 20
213.6915644569
  0
LWPOLYLINE
  5
622
100
AcDbEntity
  8
DEFAULT_2
100
AcDbPolyline
 62
8
  6
HIDDEN
 90
8
 70
0
 10
53.5147777973
 20
212.6582017808
 10
52.9681274156
 20
212.7363267808
 10
52.4446642157
 20
212.8144517808
 10
51.9835079868
 20
212.8925767808
 10
51.6191221533
 20
212.9707017808
 10
51.3787382321
 20
213.0488267808
 10
51.2803207493
 20
213.1269517808
 10
51.2783961612
 20
213.1392974433
  0
LINE
  5
623
100
AcDbEntity
  8
DEFAULT_2
100
AcDbLine
 62
8
  6
HIDDEN
 10
53.8087579533
 20
213.6915644569
 11
52.8638584132
 21
213.8521278372
  0
LWPOLYLINE
  5
624
100
AcDbEntity
  8
DEFAULT_2
100
AcDbPolyline
 62
8
  6
HIDDEN
 90
12
 70
0
 10
53.6721161204
 20
211.9253672738
 10
52.7277143903
 20
212.0859306541
 10
52.3021783718
 20
212.1662123442
 10
51.9536541669
 20
212.2464940343
 10
51.7096361417
 20
212.3267757245
 10
51.5893743822
 20
212.4070574146
 10
51.602356094
 20
212.4873391048
 10
51.7475571762
 20
212.5676207949
 10
52.0135230108
 20
212.647902485
 10
52.3792720937
 20
212.7281841752
 10
52.8159512232
 20
212.8084658653
 10
53.7614267702
 20
212.9690292456
  0
LWPOLYLINE
  5
625
100
AcDbEntity
  8
DEFAULT_2
100
AcDbPolyline
 62
8
  6
HIDDEN
 90
10
 70
0
 10
52.8638584132
 20
213.8521278372
 10
52.4217325663
 20
213.9324095273
 10
52.0471871457
 20
214.0126912174
 10
51.7697692783
 20
214.0929729076
 10
51.6113638955
 20
214.1732545977
 10
51.5844672761
 20
214.2535362879
 10
51.6912012397
 20
214.333817978
 10
51.9231457608
 20
214.4140996681
 10
52.2620032077
 20
214.4943813583
 10
52.6810418053
 20
214.5746630484
  0
LWPOLYLINE
  5
626
100
AcDbEntity
  8
DEFAULT_2
100
AcDbPolyline
 62
8
  6
HIDDEN
 90
4
 70
0
 10
54.865992478
 20
214.2207017808
 10
54.4772704982
 20
214.2988267808
 10
53.9989534471
 20
214.3769517808
 10
52.9205420142
 20
214.5332017808
  0
LWPOLYLINE
  5
627
100
AcDbEntity
  8
DEFAULT_2
100
AcDbPolyline
 62
8
  6
HIDDEN
 90
4
 70
0
 10
54.8948810402
 20
212.4238267808
 10
54.5155497779
 20
212.5019517808
 10
54.0437627325
 20
212.5800767808
 10
53.5147777973
 20
212.6582017808
  0
LWPOLYLINE
  5
628
100
AcDbEntity
  8
DEFAULT_2
100
AcDbPolyline
 62
8
  6
HIDDEN
 90
8
 70
0
 10
54.7465487613
 20
207.8139198659
 10
54.9277978754
 20
207.8947709298
 10
54.9770892761
 20
207.9756219936
 10
54.8904794855
 20
208.0564730574
 10
54.6748975782
 20
208.1373241212
 10
54.3475908327
 20
208.2181751851
 10
53.9347448904
 20
208.2990262489
 10
53.5266486297
 20
208.3702000866
  0
LINE
  5
629
100
AcDbEntity
  8
DEFAULT_2
100
AcDbLine
 62
8
  6
HIDDEN
 10
53.6011334971
 20
207.5713666744
 11
54.0555765193
 21
207.6522177383
  0
LINE
  5
62A
100
AcDbEntity
  8
DEFAULT_2
100
AcDbLine
 62
8
  6
HIDDEN
 10
53.2791777036
 20
207.5170828015
 11
53.6011334971
 21
207.5713666744
  0
LINE
  5
62B
100
AcDbEntity
  8
DEFAULT_2
100
AcDbLine
 62
8
  6
HIDDEN
 10
53.0301431057
 20
207.4752000866
 11
53.2783958692
 21
207.5169517811
  0
LWPOLYLINE
  5
62C
100
AcDbEntity
  8
DEFAULT_2
100
AcDbPolyline
 62
8
  6
HIDDEN
 90
11
 70
0
 10
53.2777190905
 20
207.5168446667
 10
53.6243274151
 20
207.5719545468
 10
53.9831724753
 20
207.6311376289
 10
54.2999975819
 20
207.6877832773
 10
54.567895092
 20
207.7420574311
 10
54.7847863232
 20
207.7943513838
 10
54.9531893987
 20
207.8456579097
 10
55.0809253533
 20
207.8990337317
 10
55.1822688523
 20
207.9655465389
 10
55.2618801664
 20
208.0771215982
 10
55.2783951395
 20
208.1646948852
  0
LWPOLYLINE
  5
62D
100
AcDbEntity
  8
DEFAULT_2
100
AcDbPolyline
 62
8
  6
HIDDEN
 90
7
 70
0
 10
53.366121698
 20
206.4394517808
 10
53.9003424846
 20
206.5170379877
 10
54.3887184908
 20
206.5946241946
 10
54.7952506612
 20
206.6722104015
 10
55.0899727936
 20
206.7497966084
 10
55.2511604007
 20
206.8273828153
 10
55.2783958555
 20
206.8744202691
  0
LWPOLYLINE
  5
62E
100
AcDbEntity
  8
DEFAULT_2
100
AcDbPolyline
 62
8
  6
HIDDEN
 90
6
 70
0
 10
52.9205420142
 20
214.5332017808
 10
52.4010401704
 20
214.6113267808
 10
51.9471054379
 20
214.6894517808
 10
51.5926615596
 20
214.7675767808
 10
51.3641970637
 20
214.8457017808
 10
51.2783958677
 20
214.9294517808
  0
LWPOLYLINE
  5
62F
100
AcDbEntity
  8
DEFAULT_2
100
AcDbPolyline
 62
8
  6
HIDDEN
 90
6
 70
0
 10
53.4802593678
 20
215.5380433301
 10
53.0028945908
 20
215.6183250203
 10
52.5472635494
 20
215.6986067104
 10
52.1493100503
 20
215.7788884005
 10
51.840427836
 20
215.8591700907
 10
51.6449839964
 20
215.9394517808
  0
LINE
  5
630
100
AcDbEntity
  8
0
100
AcDbLine
 62
7
  6
CONTINUOUS
 10
79.7783958684
 20
197.4394517808
 11
79.7783958684
 21
232.4394517808
  0
LWPOLYLINE
  5
631
100
AcDbEntity
  8
DEFAULT_2
100
AcDbPolyline
 62
8
  6
HIDDEN
 90
3
 70
0
 10
54.0555765193
 20
207.6522177383
 10
54.447842473
 20
207.7330688021
 10
54.7465487613
 20
207.8139198659
  0
LWPOLYLINE
  5
632
100
AcDbEntity
  8
DEFAULT_2
100
AcDbPolyline
 62
8
  6
HIDDEN
 90
3
 70
0
 10
53.9951364359
 20
209.4309411425
 10
54.3981000166
 20
209.5117922064
 10
54.7114834958
 20
209.5926432702
  0
LINE
  5
633
100
AcDbEntity
  8
DEFAULT_2
100
AcDbLine
 62
8
  6
HIDDEN
 10
53.5348311968
 20
209.3500900787
 11
53.9951364359
 21
209.4309411425
  0
LINE
  5
634
100
AcDbEntity
  8
DEFAULT_2
100
AcDbLine
 62
8
  6
HIDDEN
 10
53.2791853673
 20
209.3070840858
 11
53.5348311968
 21
209.3500900787
  0
LINE
  5
635
100
AcDbEntity
  8
DEFAULT_2
100
AcDbLine
 62
8
  6
HIDDEN
 10
53.0301431057
 20
209.2652000866
 11
53.2783958688
 21
209.306951781
  0
LWPOLYLINE
  5
636
100
AcDbEntity
  8
DEFAULT_2
100
AcDbPolyline
 62
8
  6
HIDDEN
 90
11
 70
0
 10
53.2775155116
 20
209.306812446
 10
53.5801291387
 20
209.3548653414
 10
53.9375631034
 20
209.4133984589
 10
54.2545405938
 20
209.4692688293
 10
54.52614801
 20
209.5230275
 10
54.7494758785
 20
209.5750578572
 10
54.9253448834
 20
209.6261279193
 10
55.0610934874
 20
209.6793142433
 10
55.1696099532
 20
209.7449322019
 10
55.256953513
 20
209.8551990914
 10
55.2783957467
 20
209.9545508724
  0
LWPOLYLINE
  5
637
100
AcDbEntity
  8
DEFAULT_2
100
AcDbPolyline
 62
8
  6
HIDDEN
 90
6
 70
0
 10
53.8634157876
 20
208.3015207463
 10
54.3562965757
 20
208.3791069532
 10
54.7697234045
 20
208.4566931601
 10
55.0732218543
 20
208.534279367
 10
55.24442052
 20
208.6118655739
 10
55.2783958677
 20
208.6644517808
  0
LWPOLYLINE
  5
638
100
AcDbEntity
  8
DEFAULT_2
100
AcDbPolyline
 62
8
  6
HIDDEN
 90
6
 70
0
 10
53.8262696814
 20
210.086003505
 10
54.3234703987
 20
210.1635897119
 10
54.743636832
 20
210.2411759188
 10
55.0557977734
 20
210.3187621256
 10
55.2369432905
 20
210.3963483325
 10
55.2783958677
 20
210.4544517808
  0
LINE
  5
639
100
AcDbEntity
  8
DEFAULT_2
100
AcDbLine
 62
8
  6
HIDDEN
 10
49.4354794879
 20
214.4394517808
 11
57.1213122475
 21
214.4394517808
  0
LINE
  5
63A
100
AcDbEntity
  8
DEFAULT_2
100
AcDbLine
 62
8
  6
HIDDEN
 10
53.8957669991
 20
211.2028320625
 11
54.3118867162
 21
211.2831137527
  0
LINE
  5
63B
100
AcDbEntity
  8
DEFAULT_2
100
AcDbLine
 62
8
  6
HIDDEN
 10
53.4309441285
 20
211.1225503724
 11
53.8957669991
 21
211.2028320625
  0
LWPOLYLINE
  5
63C
100
AcDbEntity
  8
DEFAULT_2
100
AcDbPolyline
 62
8
  6
HIDDEN
 90
10
 70
0
 10
53.7935397765
 20
211.1794292865
 10
54.1119090488
 20
211.2334693426
 10
54.3960310376
 20
211.2863427791
 10
54.6381624048
 20
211.3378955232
 10
54.8352832999
 20
211.3883671563
 10
54.9900273721
 20
211.4391831116
 10
55.1112165872
 20
211.4954373247
 10
55.209454475
 20
211.572347196
 10
55.2748964217
 20
211.7041126892
 10
55.278387105
 20
211.7452951034
  0
LINE
  5
63D
100
AcDbEntity
  8
DEFAULT_2
100
AcDbLine
 62
8
  6
HIDDEN
 10
52.9540870357
 20
211.0422686822
 11
53.4309441285
 21
211.1225503724
  0
LWPOLYLINE
  5
63E
100
AcDbEntity
  8
DEFAULT_2
100
AcDbPolyline
 62
8
  6
HIDDEN
 90
12
 70
0
 10
53.2780318228
 20
212.8868941631
 10
53.6359299621
 20
212.9438205541
 10
53.9428318626
 20
212.9942884114
 10
54.2206902951
 20
213.0430273335
 10
54.4660895754
 20
213.0904597117
 10
54.6785868012
 20
213.137430043
 10
54.8558343912
 20
213.1843551105
 10
54.9976242629
 20
213.2321236492
 10
55.110472682
 20
213.2850080748
 10
55.205056647
 20
213.3575541825
 10
55.2730666455
 20
213.4846664899
 10
55.2783869129
 20
213.5353042968
  0
LINE
  5
63F
100
AcDbEntity
  8
DEFAULT_2
100
AcDbLine
 62
8
  6
HIDDEN
 10
53.2781032235
 20
211.0969054637
 11
53.7935397765
 21
211.1794292865
  0
LWPOLYLINE
  5
640
100
AcDbEntity
  8
DEFAULT_2
100
AcDbPolyline
 62
8
  6
HIDDEN
 90
6
 70
0
 10
53.83266918
 20
211.8769517808
 10
54.3323571792
 20
211.9550767808
 10
54.7532798627
 20
212.0332017808
 10
55.0639805652
 20
212.1113267808
 10
55.2412398016
 20
212.1894517808
 10
55.2783957462
 20
212.2443524766
  0
LINE
  5
641
100
AcDbEntity
  8
DEFAULT_2
100
AcDbLine
 62
8
  6
HIDDEN
 10
55.5283958677
 20
215.9394517808
 11
51.0283958677
 21
215.9394517808
  0
LINE
  5
642
100
AcDbEntity
  8
0
100
AcDbLine
 62
7
  6
CONTINUOUS
 10
83.7783958677
 20
199.4394517808
 11
83.7783958677
 21
199.6394517808
  0
LINE
  5
643
100
AcDbEntity
  8
DEFAULT_2
100
AcDbLine
 62
8
  6
HIDDEN
 10
54.3118867162
 20
211.2831137527
 11
54.6464764413
 21
211.3633954428
  0
LWPOLYLINE
  5
644
100
AcDbEntity
  8
DEFAULT_2
100
AcDbPolyline
 62
8
  6
HIDDEN
 90
3
 70
0
 10
53.7614267702
 20
212.9690292456
 10
54.1956365438
 20
213.0493109358
 10
54.5574870651
 20
213.1295926259
  0
LINE
  5
645
100
AcDbEntity
  8
DEFAULT_2
100
AcDbLine
 62
8
  6
HIDDEN
 10
53.62371652
 20
214.7352264287
 11
54.0729869452
 21
214.8155081188
  0
LINE
  5
646
100
AcDbEntity
  8
DEFAULT_2
100
AcDbLine
 62
8
  6
HIDDEN
 10
52.6810418053
 20
214.5746630484
 11
53.62371652
 21
214.7352264287
  0
LWPOLYLINE
  5
647
100
AcDbEntity
  8
DEFAULT_2
100
AcDbPolyline
 62
8
  6
HIDDEN
 90
11
 70
0
 10
53.7313047177
 20
214.7492528973
 10
54.0227761323
 20
214.7979262657
 10
54.2869267996
 20
214.8453186458
 10
54.5196534769
 20
214.8916454375
 10
54.7189101157
 20
214.9373018779
 10
54.8851763928
 20
214.9832357851
 10
55.0184355366
 20
215.0304863123
 10
55.1237521072
 20
215.0829019627
 10
55.2098210343
 20
215.1527561564
 10
55.2709575296
 20
215.2656500619
 10
55.2783941667
 20
215.3248233378
  0
LWPOLYLINE
  5
648
100
AcDbEntity
  8
DEFAULT_2
100
AcDbPolyline
 62
8
  6
HIDDEN
 90
6
 70
0
 10
53.9247360925
 20
215.4707017808
 10
54.4131361085
 20
215.5488267808
 10
54.8167339858
 20
215.6269517808
 10
55.1053677876
 20
215.7050767808
 10
55.2574671468
 20
215.7832017808
 10
55.2783958677
 20
215.8244517808
  0
LINE
  5
649
100
AcDbEntity
  8
DEFAULT_2
100
AcDbLine
 62
8
  6
HIDDEN
 10
53.2782399491
 20
214.6769271034
 11
53.7313047177
 21
214.7492528973
  0
LWPOLYLINE
  5
64A
100
AcDbEntity
  8
DEFAULT_2
100
AcDbPolyline
 62
8
  6
HIDDEN
 90
6
 70
0
 10
53.878877479
 20
213.6738267808
 10
54.3730653798
 20
213.7519517808
 10
54.7854457333
 20
213.8300767808
 10
55.0852002653
 20
213.9082017808
 10
55.2499275269
 20
213.9863267808
 10
55.2783958677
 20
214.0344517808
  0
LINE
  5
64B
100
AcDbEntity
  8
DEFAULT_2
100
AcDbLine
 62
8
  6
HIDDEN
 10
57.2783958677
 20
218.4394517808
 11
49.2783958677
 21
218.4394517808
  0
LWPOLYLINE
  5
64C
100
AcDbEntity
  8
DEFAULT_2
100
AcDbPolyline
 62
8
  6
HIDDEN
 90
3
 70
0
 10
54.0729869452
 20
214.8155081188
 10
54.4595736956
 20
214.895789809
 10
54.7529797284
 20
214.9760714991
  0
LINE
  5
64D
100
AcDbEntity
  8
EDGEFEAT
100
AcDbLine
 62
7
  6
CONTINUOUS
 10
79.7783958684
 20
220.4394517808
 11
47.2783958677
 21
220.4394517808
  0
LINE
  5
64E
100
AcDbEntity
  8
0
100
AcDbLine
 62
7
  6
CONTINUOUS
 10
79.7783958684
 20
221.4394517808
 11
108.8434750982
 21
221.4394517808
  0
LINE
  5
64F
100
AcDbEntity
  8
0
100
AcDbLine
 62
7
  6
CONTINUOUS
 10
112.2783958677
 20
222.4394517808
 11
111.1783958677
 21
222.4394517808
  0
LINE
  5
650
100
AcDbEntity
  8
EDGEFEAT
100
AcDbLine
 62
7
  6
CONTINUOUS
 10
47.2783958677
 20
222.4394517808
 11
79.7783958684
 21
222.4394517808
  0
LINE
  5
651
100
AcDbEntity
  8
DEFAULT_2
100
AcDbLine
 62
8
  6
HIDDEN
 10
55.1783958677
 20
223.3394517808
 11
51.3783958677
 21
223.3394517808
  0
LINE
  5
652
100
AcDbEntity
  8
0
100
AcDbLine
 62
9
  6
CONTINUOUS
 10
108.9134690059
 20
223.4438150486
 11
109.6740705115
 21
223.4438150486
  0
LINE
  5
653
100
AcDbEntity
  8
0
100
AcDbLine
 62
7
  6
CONTINUOUS
 10
110.174051473
 20
223.9394517808
 11
108.9307770219
 21
223.9394517808
  0
LINE
  5
654
100
AcDbEntity
  8
DEFAULT_2
100
AcDbLine
 62
8
  6
HIDDEN
 10
49.3220302067
 20
224.4394517808
 11
57.2347615288
 21
224.4394517808
  0
LINE
  5
655
100
AcDbEntity
  8
0
100
AcDbLine
 62
9
  6
CONTINUOUS
 10
108.9742722721
 20
225.1849927803
 11
111.5825194633
 21
225.1849927803
  0
LINE
  5
656
100
AcDbEntity
  8
0
100
AcDbLine
 62
7
  6
CONTINUOUS
 10
47.2783958677
 20
229.4394517808
 11
79.7783958684
 21
229.4394517808
  0
LINE
  5
657
100
AcDbEntity
  8
0
100
AcDbLine
 62
7
  6
CONTINUOUS
 10
97.2783958677
 20
204.4394517808
 11
97.2783958677
 21
205.4394517808
  0
LINE
  5
658
100
AcDbEntity
  8
0
100
AcDbLine
 62
7
  6
CONTINUOUS
 10
95.7286298747
 20
199.7368338202
 11
95.7783958677
 21
205.4394517808
  0
LINE
  5
659
100
AcDbEntity
  8
0
100
AcDbLine
 62
7
  6
CONTINUOUS
 10
107.7042174915
 20
229.9394517808
 11
79.7783958684
 21
229.9394517808
  0
LINE
  5
65A
100
AcDbEntity
  8
0
100
AcDbLine
 62
7
  6
CONTINUOUS
 10
97.7042174915
 20
229.9394517808
 11
97.7783958677
 21
221.4394517808
  0
LINE
  5
65B
100
AcDbEntity
  8
0
100
AcDbLine
 62
7
  6
CONTINUOUS
 10
97.5033958677
 20
198.7394517808
 11
97.5033958677
 21
204.4394517808
  0
LINE
  5
65C
100
AcDbEntity
  8
0
100
AcDbLine
 62
9
  6
CONTINUOUS
 10
98.7783958677
 20
205.4394517808
 11
98.7783958677
 21
221.4394517808
  0
LINE
  5
65D
100
AcDbEntity
  8
0
100
AcDbLine
 62
7
  6
CONTINUOUS
 10
99.6169488136
 20
205.4394517808
 11
99.7565786982
 21
221.4394517808
  0
LINE
  5
65E
100
AcDbEntity
  8
0
100
AcDbLine
 62
7
  6
CONTINUOUS
 10
50.2783958677
 20
232.4394517808
 11
109.2783958677
 21
232.4394517808
  0
LINE
  5
65F
100
AcDbEntity
  8
0
100
AcDbLine
 62
7
  6
CONTINUOUS
 10
101.8281618607
 20
199.7368338202
 11
101.7783958677
 21
205.4394517808
  0
LINE
  5
660
100
AcDbEntity
  8
0
100
AcDbLine
 62
7
  6
CONTINUOUS
 10
100.0533958677
 20
198.7394517808
 11
100.0533958677
 21
204.4394517808
  0
LINE
  5
661
100
AcDbEntity
  8
0
100
AcDbLine
 62
7
  6
CONTINUOUS
 10
100.2783958677
 20
204.4394517808
 11
100.2783958677
 21
205.4394517808
  0
LINE
  5
662
100
AcDbEntity
  8
0
100
AcDbLine
 62
7
  6
CONTINUOUS
 10
101.7783958677
 20
197.4394517808
 11
101.7783958677
 21
196.4394517808
  0
LINE
  5
663
100
AcDbEntity
  8
0
100
AcDbLine
 62
9
  6
CONTINUOUS
 10
106.2783958677
 20
199.4394517808
 11
106.2783958677
 21
229.9394517808
  0
LINE
  5
664
100
AcDbEntity
  8
0
100
AcDbLine
 62
7
  6
CONTINUOUS
 10
107.7042174915
 20
229.9394517808
 11
107.7783958677
 21
221.4394517808
  0
LINE
  5
665
100
AcDbEntity
  8
0
100
AcDbLine
 62
9
  6
CONTINUOUS
 10
108.6783958677
 20
199.4394517808
 11
108.6783958677
 21
221.4394517808
  0
LINE
  5
666
100
AcDbEntity
  8
0
100
AcDbLine
 62
7
  6
CONTINUOUS
 10
109.4645876068
 20
199.4394517808
 11
109.6740705115
 21
223.4438150486
  0
LINE
  5
667
100
AcDbEntity
  8
0
100
AcDbLine
 62
7
  6
CONTINUOUS
 10
108.9742722721
 20
225.1849927803
 11
108.8434750982
 21
221.4394517808
  0
LINE
  5
668
100
AcDbEntity
  8
0
100
AcDbLine
 62
7
  6
CONTINUOUS
 10
111.6783958677
 20
222.4394517808
 11
111.5825194633
 21
225.1849927803
  0
LINE
  5
669
100
AcDbEntity
  8
0
100
AcDbLine
 62
7
  6
CONTINUOUS
 10
110.7783958677
 20
197.4394517808
 11
110.7783958677
 21
196.4394517808
  0
LINE
  5
66A
100
AcDbEntity
  8
0
100
AcDbLine
 62
7
  6
CONTINUOUS
 10
112.2783958677
 20
197.9394517808
 11
112.2783958677
 21
220.4394517808
  0
LINE
  5
66B
100
AcDbEntity
  8
0
100
AcDbLine
 62
7
  6
CONTINUOUS
 10
112.2783958677
 20
222.4394517808
 11
112.2783958677
 21
229.4394517808
  0
LINE
  5
66C
100
AcDbEntity
  8
0
100
AcDbLine
 62
7
  6
CONTINUOUS
 10
111.1783958677
 20
222.4394517808
 11
110.6291537733
 21
223.6465312251
  0
LINE
  5
66D
100
AcDbEntity
  8
0
100
AcDbLine
 62
7
  6
CONTINUOUS
 10
111.7783958677
 20
197.4394517808
 11
112.2783958677
 21
197.9394517808
  0
LINE
  5
66E
100
AcDbEntity
  8
0
100
AcDbLine
 62
7
  6
CONTINUOUS
 10
109.2783958677
 20
232.4394517808
 11
112.2783958677
 21
229.4394517808
  0
LINE
  5
66F
100
AcDbEntity
  8
0
100
AcDbLine
 62
7
  6
CONTINUOUS
 10
111.7424974828
 20
222.4394517808
 11
112.2783958677
 21
220.4394517808
  0
LINE
  5
670
100
AcDbEntity
  8
EDGEFEAT
100
AcDbLine
 62
7
  6
CONTINUOUS
 10
127.8796851117
 20
203.9368336752
 11
127.8972697237
 21
220.8068414679
  0
LINE
  5
671
100
AcDbEntity
  8
0
100
AcDbLine
 62
7
  6
CONTINUOUS
 10
127.8988390742
 20
222.3124166359
 11
127.9043406436
 21
227.5904129824
  0
LINE
  5
672
100
AcDbEntity
  8
EDGEFEAT
100
AcDbLine
 62
7
  6
CONTINUOUS
 10
127.8972697237
 20
220.8068414679
 11
128.2867138812
 21
222.1112045507
  0
LINE
  5
673
100
AcDbEntity
  8
0
100
AcDbLine
 62
7
  6
CONTINUOUS
 10
131.9427404578
 20
230.6885810225
 11
131.2177607762
 21
229.6130631186
  0
LINE
  5
674
100
AcDbEntity
  8
0
100
AcDbLine
 62
7
  6
CONTINUOUS
 10
127.9043406436
 20
227.5904129824
 11
128.6355023167
 21
228.6695451228
  0
LINE
  5
675
100
AcDbEntity
  8
0
100
AcDbLine
 62
7
  6
CONTINUOUS
 10
131.9427404578
 20
230.6885810225
 11
128.6342464802
 21
228.6685818426
  0
LINE
  5
676
100
AcDbEntity
  8
0
100
AcDbLine
 62
7
  6
CONTINUOUS
 10
131.2177607762
 20
229.6130631186
 11
127.9035381151
 21
227.5901204583
  0
LINE
  5
677
100
AcDbEntity
  8
EDGEFEAT
100
AcDbLine
 62
7
  6
CONTINUOUS
 10
128.3027795466
 20
203.5885171191
 11
127.8796851117
 21
203.9368336752
  0
LINE
  5
678
100
AcDbEntity
  8
0
100
AcDbLine
 62
7
  6
CONTINUOUS
 10
148.5251232464
 20
192.5728231181
 11
148.0060267242
 21
192.7930067181
  0
LINE
  5
679
100
AcDbEntity
  8
EDGEFEAT
100
AcDbLine
 62
7
  6
CONTINUOUS
 10
148.5696630796
 20
192.7389244025
 11
128.3027795466
 21
203.5885171191
  0
LINE
  5
67A
100
AcDbEntity
  8
EDGEFEAT
100
AcDbLine
 62
7
  6
CONTINUOUS
 10
148.3250293357
 20
192.9939358856
 11
127.8796851117
 21
203.9368336752
  0
LWPOLYLINE
  5
67B
100
AcDbEntity
  8
0
100
AcDbPolyline
 62
7
  6
CONTINUOUS
 90
4
 70
0
 10
148.0060267242
 20
192.7930067181
 10
147.6397976883
 20
193.0469176985
 10
147.4446521699
 20
193.3217544411
 10
147.4406939321
 20
193.3433022498
  0
LINE
  5
67C
100
AcDbEntity
  8
EDGEFEAT
100
AcDbLine
 62
7
  6
CONTINUOUS
 10
151.6020517798
 20
192.5044358825
 11
148.5696630796
 21
192.7389244025
  0
LINE
  5
67D
100
AcDbEntity
  8
EDGEFEAT
100
AcDbLine
 62
7
  6
CONTINUOUS
 10
151.6865253143
 20
192.7340899408
 11
148.3250293357
 21
192.9939358856
  0
LINE
  5
67E
100
AcDbEntity
  8
EDGEFEAT
100
AcDbLine
 62
7
  6
CONTINUOUS
 10
148.3250293357
 20
192.9939358856
 11
148.5696630796
 21
192.7389244025
  0
LINE
  5
67F
100
AcDbEntity
  8
EDGEFEAT
100
AcDbLine
 62
7
  6
CONTINUOUS
 10
190.6271503773
 20
201.1976600317
 11
151.6020517798
 21
192.5044358825
  0
LINE
  5
680
100
AcDbEntity
  8
EDGEFEAT
100
AcDbLine
 62
7
  6
CONTINUOUS
 10
190.9949374987
 20
201.4872360314
 11
151.6865253143
 21
192.7340899408
  0
LINE
  5
681
100
AcDbEntity
  8
0
100
AcDbLine
 62
7
  6
CONTINUOUS
 10
147.3863512199
 20
221.3558258246
 11
145.3487336852
 21
218.6228566688
  0
LINE
  5
682
100
AcDbEntity
  8
0
100
AcDbLine
 62
9
  6
CONTINUOUS
 10
149.4212639087
 20
221.7858352563
 11
149.419754026
 21
219.4867258638
  0
LINE
  5
683
100
AcDbEntity
  8
EDGEFEAT
100
AcDbLine
 62
7
  6
CONTINUOUS
 10
148.3250293357
 20
192.9939358856
 11
148.4196622201
 21
210.1330468453
  0
LINE
  5
684
100
AcDbEntity
  8
0
100
AcDbLine
 62
7
  6
CONTINUOUS
 10
148.4281084164
 20
211.6627507713
 11
148.4577145443
 21
217.024763293
  0
LINE
  5
685
100
AcDbEntity
  8
EDGEFEAT
100
AcDbLine
 62
7
  6
CONTINUOUS
 10
148.6692416356
 20
211.6446318196
 11
148.4196622201
 21
210.1330468453
  0
LWPOLYLINE
  5
686
100
AcDbEntity
  8
0
100
AcDbPolyline
 62
7
  6
CONTINUOUS
 90
5
 70
0
 10
147.9532102587
 20
218.5916681894
 10
147.9899842497
 20
218.4309956985
 10
148.0921120261
 20
218.2802558371
 10
148.2574230195
 20
218.135664236
 10
148.4828289967
 20
217.9999165002
  0
LINE
  5
687
100
AcDbEntity
  8
EDGEFEAT
100
AcDbLine
 62
7
  6
CONTINUOUS
 10
151.793814687
 20
209.8789130707
 11
151.7224775013
 21
211.4053478217
  0
LINE
  5
688
100
AcDbEntity
  8
EDGEFEAT
100
AcDbLine
 62
7
  6
CONTINUOUS
 10
151.6865253143
 20
192.7340899408
 11
151.793814687
 21
209.8789130707
  0
LINE
  5
689
100
AcDbEntity
  8
0
100
AcDbLine
 62
7
  6
CONTINUOUS
 10
151.8033905183
 20
211.4091292522
 11
151.8369563323
 21
216.7729405097
  0
LINE
  5
68A
100
AcDbEntity
  8
EDGEFEAT
100
AcDbLine
 62
7
  6
CONTINUOUS
 10
127.8988390742
 20
222.3124166359
 11
148.4281084164
 21
211.6627507713
  0
LINE
  5
68B
100
AcDbEntity
  8
EDGEFEAT
100
AcDbLine
 62
7
  6
CONTINUOUS
 10
148.4196622201
 20
210.1330468453
 11
127.8972697237
 21
220.8068414679
  0
LINE
  5
68C
100
AcDbEntity
  8
0
100
AcDbLine
 62
9
  6
CONTINUOUS
 10
153.9402456499
 20
221.4516038116
 11
153.9071392377
 21
219.1536383368
  0
LINE
  5
68D
100
AcDbEntity
  8
EDGEFEAT
100
AcDbLine
 62
7
  6
CONTINUOUS
 10
151.793814687
 20
209.8789130707
 11
148.4196622201
 21
210.1330468453
  0
LINE
  5
68E
100
AcDbEntity
  8
EDGEFEAT
100
AcDbLine
 62
7
  6
CONTINUOUS
 10
191.2459275334
 20
218.4041436436
 11
151.793814687
 21
209.8789130707
  0
LINE
  5
68F
100
AcDbEntity
  8
EDGEFEAT
100
AcDbLine
 62
7
  6
CONTINUOUS
 10
151.8033905183
 20
211.4091292522
 11
148.4281084164
 21
211.6627507713
  0
LINE
  5
690
100
AcDbEntity
  8
0
100
AcDbLine
 62
7
  6
CONTINUOUS
 10
127.9035381151
 20
227.5901204583
 11
148.4577145443
 21
217.024763293
  0
LWPOLYLINE
  5
691
100
AcDbEntity
  8
0
100
AcDbPolyline
 62
7
  6
CONTINUOUS
 90
4
 70
0
 10
154.4421144647
 20
218.5519085317
 10
154.4132134244
 20
218.7019119881
 10
154.2362067281
 20
218.9368708259
 10
153.9071392377
 20
219.1536383368
  0
LINE
  5
692
100
AcDbEntity
  8
EDGEFEAT
100
AcDbLine
 62
7
  6
CONTINUOUS
 10
151.6020517798
 20
192.5044358825
 11
151.6865253143
 21
192.7340899408
  0
LINE
  5
693
100
AcDbEntity
  8
EDGEFEAT
100
AcDbLine
 62
7
  6
CONTINUOUS
 10
151.8033905183
 20
211.4091292522
 11
191.2683276046
 21
219.9139244437
  0
LWPOLYLINE
  5
694
100
AcDbEntity
  8
0
100
AcDbPolyline
 62
7
  6
CONTINUOUS
 90
13
 70
0
 10
148.4828289967
 20
217.9999165002
 10
148.9468627856
 20
217.8112714036
 10
149.5242196078
 20
217.660995715
 10
150.1858918177
 20
217.5566901565
 10
150.8985707116
 20
217.5036354536
 10
151.6263328896
 20
217.5045193489
 10
152.3324846734
 20
217.5592953888
 10
152.981440132
 20
217.6651860347
 10
153.5405396667
 20
217.8168278111
 10
153.981712434
 20
218.0065509282
 10
154.282891318
 20
218.2247773588
 10
154.4291072402
 20
218.460513754
 10
154.4421144647
 20
218.5519085317
  0
LINE
  5
695
100
AcDbEntity
  8
0
100
AcDbLine
 62
7
  6
CONTINUOUS
 10
131.2177607762
 20
229.6130631186
 11
147.3863512199
 21
221.3558258246
  0
LINE
  5
696
100
AcDbEntity
  8
0
100
AcDbLine
 62
7
  6
CONTINUOUS
 10
155.2799218819
 20
220.7714741601
 11
156.5882361749
 21
217.7870599987
  0
LINE
  5
697
100
AcDbEntity
  8
0
100
AcDbLine
 62
7
  6
CONTINUOUS
 10
151.8369563323
 20
216.7729405097
 11
148.4577145443
 21
217.024763293
  0
LINE
  5
698
100
AcDbEntity
  8
0
100
AcDbLine
 62
7
  6
CONTINUOUS
 10
155.2799218819
 20
220.7714741601
 11
153.9402456499
 21
221.4516038116
  0
LINE
  5
699
100
AcDbEntity
  8
0
100
AcDbLine
 62
7
  6
CONTINUOUS
 10
156.5882361749
 20
217.7870599987
 11
153.9071392377
 21
219.1536383368
  0
LINE
  5
69A
100
AcDbEntity
  8
0
100
AcDbLine
 62
7
  6
CONTINUOUS
 10
151.8369563323
 20
216.7729405097
 11
191.3480753769
 21
225.2062463099
  0
LWPOLYLINE
  5
69B
100
AcDbEntity
  8
0
100
AcDbPolyline
 62
7
  6
CONTINUOUS
 90
12
 70
0
 10
153.9402456499
 20
221.4516038116
 10
153.6569616226
 20
221.5754622027
 10
153.3243029276
 20
221.6849387101
 10
152.9484085125
 20
221.7780054901
 10
152.5379090298
 20
221.8525503394
 10
152.0997552624
 20
221.9073049626
 10
151.6444635268
 20
221.9409622815
 10
151.1795410736
 20
221.9529708361
 10
150.7161365079
 20
221.943042771
 10
150.2620962422
 20
221.9113581767
 10
149.8278030982
 20
221.8586276278
 10
149.4212639087
 20
221.7858352563
  0
LWPOLYLINE
  5
69C
100
AcDbEntity
  8
0
100
AcDbPolyline
 62
7
  6
CONTINUOUS
 90
11
 70
0
 10
154.5585066073
 20
193.1630152436
 10
154.4961167145
 20
193.0579317728
 10
154.1591962698
 20
192.8029166388
 10
153.6655812906
 20
192.5811204532
 10
153.0399546698
 20
192.4037493046
 10
152.3137319968
 20
192.2797833713
 10
151.5234770997
 20
192.2155090422
 10
150.7090377969
 20
192.214189715
 10
149.9115048279
 20
192.2758944172
 10
149.1711034496
 20
192.3974933551
 10
148.5251232464
 20
192.5728231181
  0
LWPOLYLINE
  5
69D
100
AcDbEntity
  8
0
100
AcDbPolyline
 62
7
  6
CONTINUOUS
 90
8
 70
0
 10
149.419754026
 20
219.4867258638
 10
149.0520836765
 20
219.3956254428
 10
148.7281018811
 20
219.2879215596
 10
148.4538769794
 20
219.1655876828
 10
148.2357022162
 20
219.0314259609
 10
148.0773590725
 20
218.8877063601
 10
147.9826885286
 20
218.737875521
 10
147.9532102587
 20
218.5916681894
  0
LINE
  5
69E
100
AcDbEntity
  8
0
100
AcDbLine
 62
7
  6
CONTINUOUS
 10
149.419754026
 20
219.4867258638
 11
145.3487336852
 21
218.6228566688
  0
LINE
  5
69F
100
AcDbEntity
  8
0
100
AcDbLine
 62
7
  6
CONTINUOUS
 10
155.2799218819
 20
220.7714741601
 11
188.0370345031
 21
227.7220025233
  0
LINE
  5
6A0
100
AcDbEntity
  8
0
100
AcDbLine
 62
7
  6
CONTINUOUS
 10
147.3863512199
 20
221.3558258246
 11
149.4212639087
 21
221.7858352563
  0
LINE
  5
6A1
100
AcDbEntity
  8
0
100
AcDbLine
 62
7
  6
CONTINUOUS
 10
188.0370345031
 20
227.7220025233
 11
188.6544124474
 21
228.8039032408
  0
LINE
  5
6A2
100
AcDbEntity
  8
0
100
AcDbLine
 62
7
  6
CONTINUOUS
 10
172.1233812769
 20
236.8456118231
 11
170.1601628207
 21
236.4385663501
  0
LINE
  5
6A3
100
AcDbEntity
  8
0
100
AcDbLine
 62
7
  6
CONTINUOUS
 10
167.6990357467
 20
236.7555984704
 11
166.4851493641
 21
236.5043051818
  0
LINE
  5
6A4
100
AcDbEntity
  8
0
100
AcDbLine
 62
7
  6
CONTINUOUS
 10
164.4385872174
 20
237.3991569136
 11
131.9427404578
 21
230.6885810225
  0
LINE
  5
6A5
100
AcDbEntity
  8
0
100
AcDbLine
 62
7
  6
CONTINUOUS
 10
191.9581705917
 20
226.2939940719
 11
191.3468544531
 21
225.2066901172
  0
LINE
  5
6A6
100
AcDbEntity
  8
0
100
AcDbLine
 62
7
  6
CONTINUOUS
 10
167.6990357467
 20
236.7555984704
 11
170.6599158054
 21
236.5421830359
  0
LWPOLYLINE
  5
6A7
100
AcDbEntity
  8
0
100
AcDbPolyline
 62
7
  6
CONTINUOUS
 90
12
 70
0
 10
165.7525586262
 20
236.7563303114
 10
166.0307651373
 20
236.6389367375
 10
166.3569599665
 20
236.5350754753
 10
166.7251197949
 20
236.4467032215
 10
167.1267597056
 20
236.3758571519
 10
167.5550204286
 20
236.3237701641
 10
167.999543615
 20
236.2917069713
 10
168.4529049375
 20
236.2802063298
 10
168.9041313593
 20
236.289548275
 10
169.3454822703
 20
236.3195582142
 10
169.7667732071
 20
236.3695491857
 10
170.1601628207
 20
236.4385663501
  0
LINE
  5
6A8
100
AcDbEntity
  8
0
100
AcDbLine
 62
7
  6
CONTINUOUS
 10
164.4385872174
 20
237.3991569136
 11
165.7525586262
 21
236.7563303114
  0
LINE
  5
6A9
100
AcDbEntity
  8
EDGEFEAT
100
AcDbLine
 62
7
  6
CONTINUOUS
 10
191.8565354895
 20
219.5029334134
 11
191.2459275334
 21
218.4041436436
  0
LINE
  5
6AA
100
AcDbEntity
  8
EDGEFEAT
100
AcDbLine
 62
7
  6
CONTINUOUS
 10
191.8790927873
 20
221.0101683545
 11
191.2683276046
 21
219.9139244437
  0
LINE
  5
6AB
100
AcDbEntity
  8
0
100
AcDbLine
 62
7
  6
CONTINUOUS
 10
188.6544124474
 20
228.8039032408
 11
172.1233812769
 21
236.8456118231
  0
LINE
  5
6AC
100
AcDbEntity
  8
0
100
AcDbLine
 62
7
  6
CONTINUOUS
 10
191.3480753769
 20
225.2062463099
 11
188.0370345031
 21
227.7220025233
  0
LINE
  5
6AD
100
AcDbEntity
  8
0
100
AcDbLine
 62
7
  6
CONTINUOUS
 10
191.9590090169
 20
226.292874979
 11
188.6544124474
 21
228.8039032408
  0
LINE
  5
6AE
100
AcDbEntity
  8
EDGEFEAT
100
AcDbLine
 62
7
  6
CONTINUOUS
 10
190.9949374987
 20
201.4872360314
 11
191.2459275334
 21
218.4041436436
  0
LINE
  5
6AF
100
AcDbEntity
  8
0
100
AcDbLine
 62
7
  6
CONTINUOUS
 10
191.2683276046
 20
219.9139244437
 11
191.3468544531
 21
225.2066901172
  0
LINE
  5
6B0
100
AcDbEntity
  8
EDGEFEAT
100
AcDbLine
 62
7
  6
CONTINUOUS
 10
191.6037817995
 20
202.6144214367
 11
191.8565354895
 21
219.5029334134
  0
LINE
  5
6B1
100
AcDbEntity
  8
0
100
AcDbLine
 62
7
  6
CONTINUOUS
 10
191.8790927873
 20
221.0101683545
 11
191.9581705917
 21
226.2939940719
  0
LWPOLYLINE
  5
6B2
100
AcDbEntity
  8
0
100
AcDbPolyline
 62
7
  6
CONTINUOUS
 90
8
 70
0
 10
189.2894828943
 20
200.8996814568
 10
189.2763443317
 20
200.8816925557
 10
188.9185903797
 20
200.6536386952
 10
188.4082496853
 20
200.4634791561
 10
187.7749561296
 20
200.3223474977
 10
187.0556034888
 20
200.2385212093
 10
186.2921809489
 20
200.2169232927
 10
186.2378756542
 20
200.2199059609
  0
LINE
  5
6B3
100
AcDbEntity
  8
EDGEFEAT
100
AcDbLine
 62
7
  6
CONTINUOUS
 10
190.9949374987
 20
201.4872360314
 11
190.6271503773
 21
201.1976600317
  0
LINE
  5
6B4
100
AcDbEntity
  8
EDGEFEAT
100
AcDbLine
 62
7
  6
CONTINUOUS
 10
191.8565354895
 20
219.5029334134
 11
191.5763503372
 21
220.4667851086
  0
LINE
  5
6B5
100
AcDbEntity
  8
EDGEFEAT
100
AcDbLine
 62
7
  6
CONTINUOUS
 10
190.9162692574
 20
219.8380549666
 11
191.2459275334
 21
218.4041436436
  0
LINE
  5
6B6
100
AcDbEntity
  8
EDGEFEAT
100
AcDbLine
 62
7
  6
CONTINUOUS
 10
191.6037817995
 20
202.6144214367
 11
190.9949374987
 21
201.4872360314
  0
CIRCLE
  5
6B7
100
AcDbEntity
  8
0
100
AcDbCircle
 62
7
  6
CONTINUOUS
 10
86.1783377761
 20
34.8664854626
 40
2.5696458958
  0
CIRCLE
  5
6B8
100
AcDbEntity
  8
0
100
AcDbCircle
 62
7
  6
CONTINUOUS
 10
86.1783377761
 20
34.8664854626
 40
1.2848229479
  0
ARC
  5
6B9
100
AcDbEntity
  8
0
100
AcDbCircle
 62
7
  6
CONTINUOUS
 10
53.2783958677
 20
98.7929793243
 40
6.7138082609
100
AcDbArc
 50
0.0
 51
90.0
  0
ARC
  5
6BA
100
AcDbEntity
  8
0
100
AcDbCircle
 62
7
  6
CONTINUOUS
 10
53.2783958677
 20
98.7929793243
 40
6.5043253562
100
AcDbArc
 50
0.0
 51
90.0
  0
ARC
  5
6BB
100
AcDbEntity
  8
0
100
AcDbCircle
 62
9
  6
CONTINUOUS
 10
53.2783958677
 20
98.7929793243
 40
5.5492420944
100
AcDbArc
 50
0.0
 51
90.0
  0
ARC
  5
6BC
100
AcDbEntity
  8
0
100
AcDbCircle
 62
7
  6
CONTINUOUS
 10
53.2783958677
 20
98.7929793243
 40
5.0
100
AcDbArc
 50
0.0
 51
90.0
  0
CIRCLE
  5
6BD
100
AcDbEntity
  8
0
100
AcDbCircle
 62
7
  6
CONTINUOUS
 10
53.2783958677
 20
98.7929793243
 40
4.0349074712
  0
CIRCLE
  5
6BE
100
AcDbEntity
  8
0
100
AcDbCircle
 62
7
  6
CONTINUOUS
 10
53.2783958677
 20
98.7929793243
 40
4.0
  0
CIRCLE
  5
6BF
100
AcDbEntity
  8
0
100
AcDbCircle
 62
7
  6
CONTINUOUS
 10
53.2783958677
 20
98.7929793243
 40
2.25
  0
ARC
  5
6C0
100
AcDbEntity
  8
0
100
AcDbCircle
 62
7
  6
CONTINUOUS
 10
53.8270500073
 20
99.0380373412
 40
2.1008947115
100
AcDbArc
 50
195.9776981924
 51
204.1151987707
  0
ARC
  5
6C1
100
AcDbEntity
  8
0
100
AcDbCircle
 62
7
  6
CONTINUOUS
 10
53.2783827902
 20
98.7929354349
 40
2.0000279747
100
AcDbArc
 50
23.1295007291
 51
123.6861417292
  0
ARC
  5
6C2
100
AcDbEntity
  8
0
100
AcDbCircle
 62
9
  6
CONTINUOUS
 10
53.286246179
 20
98.7842809986
 40
1.8115511009
100
AcDbArc
 50
123.7583308821
 51
141.7339100188
  0
ARC
  5
6C3
100
AcDbEntity
  8
0
100
AcDbCircle
 62
9
  6
CONTINUOUS
 10
53.2783958677
 20
98.7929793243
 40
1.8
100
AcDbArc
 50
346.3041938786
 51
18.5962703598
  0
ARC
  5
6C4
100
AcDbEntity
  8
0
100
AcDbCircle
 62
9
  6
CONTINUOUS
 10
53.2784100623
 20
98.7929974371
 40
1.7999647623
100
AcDbArc
 50
22.7047672422
 51
123.7051330753
  0
ARC
  5
6C5
100
AcDbEntity
  8
0
100
AcDbCircle
 62
9
  6
CONTINUOUS
 10
53.2782893868
 20
98.793038493
 40
1.7998812923
100
AcDbArc
 50
141.7959250039
 51
163.9114848846
  0
ARC
  5
6C6
100
AcDbEntity
  8
0
100
AcDbCircle
 62
9
  6
CONTINUOUS
 10
53.2820947041
 20
98.7941154668
 40
1.7961319727
100
AcDbArc
 50
18.5995472877
 51
22.717234195
  0
ARC
  5
6C7
100
AcDbEntity
  8
0
100
AcDbCircle
 62
9
  6
CONTINUOUS
 10
53.2830052025
 20
98.7919390796
 40
1.7952754312
100
AcDbArc
 50
342.6629845085
 51
346.3016192616
  0
ARC
  5
6C8
100
AcDbEntity
  8
0
100
AcDbCircle
 62
9
  6
CONTINUOUS
 10
53.2783958677
 20
98.7929793243
 40
1.7
100
AcDbArc
 50
346.3041938781
 51
163.909211635
  0
ARC
  5
6C9
100
AcDbEntity
  8
0
100
AcDbCircle
 62
9
  6
CONTINUOUS
 10
53.2831827699
 20
98.7918805961
 40
1.6950890651
100
AcDbArc
 50
342.9233627451
 51
346.3019666209
  0
ARC
  5
6CA
100
AcDbEntity
  8
0
100
AcDbCircle
 62
7
  6
CONTINUOUS
 10
53.2783958677
 20
98.7929793243
 40
1.5
100
AcDbArc
 50
204.1340782126
 51
16.8156417848
  0
ARC
  5
6CB
100
AcDbEntity
  8
0
100
AcDbCircle
 62
7
  6
CONTINUOUS
 10
53.2783958677
 20
98.7929793243
 40
1.5
100
AcDbArc
 50
17.0112271965
 51
194.1341345308
  0
ARC
  5
6CC
100
AcDbEntity
  8
EDGEFEAT
100
AcDbCircle
 62
9
  6
CONTINUOUS
 10
53.3539863222
 20
113.1409161342
 40
11.4313781794
100
AcDbArc
 50
54.276979726
 51
54.5836336263
  0
ARC
  5
6CD
100
AcDbEntity
  8
EDGEFEAT
100
AcDbCircle
 62
9
  6
CONTINUOUS
 10
53.8816847705
 20
114.6043188431
 40
9.5943616762
100
AcDbArc
 50
51.8505449256
 51
52.0865956804
  0
ARC
  5
6CE
100
AcDbEntity
  8
0
100
AcDbCircle
 62
7
  6
CONTINUOUS
 10
50.8783958677
 20
106.2929793243
 40
2.5
100
AcDbArc
 50
180.0
 51
270.0
  0
ARC
  5
6CF
100
AcDbEntity
  8
0
100
AcDbCircle
 62
9
  6
CONTINUOUS
 10
50.8783958677
 20
106.2929793243
 40
1.9507579056
100
AcDbArc
 50
180.0
 51
270.0
  0
ARC
  5
6D0
100
AcDbEntity
  8
0
100
AcDbCircle
 62
7
  6
CONTINUOUS
 10
50.8783958677
 20
106.2929793243
 40
0.9956746438
100
AcDbArc
 50
180.0
 51
270.0
  0
ARC
  5
6D1
100
AcDbEntity
  8
0
100
AcDbCircle
 62
7
  6
CONTINUOUS
 10
50.8783958677
 20
106.2929793243
 40
0.7861917391
100
AcDbArc
 50
180.0
 51
270.0
  0
ARC
  5
6D2
100
AcDbEntity
  8
0
100
AcDbCircle
 62
7
  6
CONTINUOUS
 10
60.7783958677
 20
96.3929793243
 40
2.5
100
AcDbArc
 50
180.0
 51
270.0
  0
ARC
  5
6D3
100
AcDbEntity
  8
0
100
AcDbCircle
 62
9
  6
CONTINUOUS
 10
60.7783958677
 20
96.3929793243
 40
1.9507579056
100
AcDbArc
 50
180.0
 51
270.0
  0
ARC
  5
6D4
100
AcDbEntity
  8
0
100
AcDbCircle
 62
7
  6
CONTINUOUS
 10
60.7783958677
 20
96.3929793243
 40
0.9956746438
100
AcDbArc
 50
180.0
 51
270.0
  0
ARC
  5
6D5
100
AcDbEntity
  8
0
100
AcDbCircle
 62
7
  6
CONTINUOUS
 10
60.7783958677
 20
96.3929793243
 40
0.7861917391
100
AcDbArc
 50
180.0
 51
270.0
  0
ARC
  5
6D6
100
AcDbEntity
  8
EDGEFEAT
100
AcDbCircle
 62
9
  6
CONTINUOUS
 10
68.2028054133
 20
113.1409161342
 40
11.4313781794
100
AcDbArc
 50
125.4163663737
 51
125.723020274
  0
ARC
  5
6D7
100
AcDbEntity
  8
EDGEFEAT
100
AcDbCircle
 62
9
  6
CONTINUOUS
 10
67.6751069649
 20
114.6043188431
 40
9.5943616762
100
AcDbArc
 50
127.9134043196
 51
128.1494550744
  0
ARC
  5
6D8
100
AcDbEntity
  8
EDGEFEAT
100
AcDbCircle
 62
9
  6
CONTINUOUS
 10
60.7783958677
 20
112.2929793243
 40
1.0997383058
100
AcDbArc
 50
180.0
 51
360.0
  0
ARC
  5
6D9
100
AcDbEntity
  8
EDGEFEAT
100
AcDbCircle
 62
7
  6
CONTINUOUS
 10
60.7783958677
 20
112.2929793243
 40
0.7997659918
100
AcDbArc
 50
180.0
 51
360.0
  0
ARC
  5
6DA
100
AcDbEntity
  8
0
100
AcDbCircle
 62
7
  6
CONTINUOUS
 10
60.7783958677
 20
112.2929793243
 40
0.75
100
AcDbArc
 50
180.0
 51
360.0
  0
ARC
  5
6DB
100
AcDbEntity
  8
EDGEFEAT
100
AcDbCircle
 62
7
  6
CONTINUOUS
 10
61.8283033404
 20
116.1645478274
 40
0.2999074784
100
AcDbArc
 50
108.5417182683
 51
180.0111436278
  0
ARC
  5
6DC
100
AcDbEntity
  8
EDGEFEAT
100
AcDbCircle
 62
7
  6
CONTINUOUS
 10
59.728488395
 20
116.1645478274
 40
0.2999074784
100
AcDbArc
 50
359.9888563722
 51
71.4582817317
  0
ARC
  5
6DD
100
AcDbEntity
  8
EDGEFEAT
100
AcDbCircle
 62
9
  6
CONTINUOUS
 10
53.3539863222
 20
125.4450425143
 40
11.4313781794
100
AcDbArc
 50
305.4163663737
 51
305.723020274
  0
ARC
  5
6DE
100
AcDbEntity
  8
EDGEFEAT
100
AcDbCircle
 62
9
  6
CONTINUOUS
 10
53.8816847718
 20
123.9816398038
 40
9.5943616741
100
AcDbArc
 50
307.9134043196
 51
308.1494550744
  0
ARC
  5
6DF
100
AcDbEntity
  8
0
100
AcDbCircle
 62
7
  6
CONTINUOUS
 10
53.2783958677
 20
139.7929793243
 40
6.7138082609
100
AcDbArc
 50
270.0
 51
360.0
  0
ARC
  5
6E0
100
AcDbEntity
  8
0
100
AcDbCircle
 62
7
  6
CONTINUOUS
 10
53.2783958677
 20
139.7929793243
 40
6.5043253562
100
AcDbArc
 50
270.0
 51
360.0
  0
ARC
  5
6E1
100
AcDbEntity
  8
0
100
AcDbCircle
 62
9
  6
CONTINUOUS
 10
53.2783958677
 20
139.7929793243
 40
5.5492420944
100
AcDbArc
 50
270.0
 51
360.0
  0
ARC
  5
6E2
100
AcDbEntity
  8
0
100
AcDbCircle
 62
7
  6
CONTINUOUS
 10
53.2783958677
 20
139.7929793243
 40
5.0
100
AcDbArc
 50
270.0
 51
360.0
  0
CIRCLE
  5
6E3
100
AcDbEntity
  8
0
100
AcDbCircle
 62
7
  6
CONTINUOUS
 10
53.2783958677
 20
139.7929793243
 40
4.2007179592
  0
CIRCLE
  5
6E4
100
AcDbEntity
  8
0
100
AcDbCircle
 62
7
  6
CONTINUOUS
 10
53.2783958677
 20
139.7929793243
 40
4.0
  0
ARC
  5
6E5
100
AcDbEntity
  8
0
100
AcDbCircle
 62
7
  6
CONTINUOUS
 10
50.8783958677
 20
132.2929793243
 40
2.5
100
AcDbArc
 50
90.0
 51
180.0
  0
CIRCLE
  5
6E6
100
AcDbEntity
  8
0
100
AcDbCircle
 62
7
  6
CONTINUOUS
 10
53.2783958677
 20
139.7929793243
 40
2.15
  0
ARC
  5
6E7
100
AcDbEntity
  8
0
100
AcDbCircle
 62
9
  6
CONTINUOUS
 10
50.8783958677
 20
132.2929793243
 40
1.9507579056
100
AcDbArc
 50
90.0
 51
180.0
  0
ARC
  5
6E8
100
AcDbEntity
  8
0
100
AcDbCircle
 62
7
  6
CONTINUOUS
 10
50.8783958677
 20
132.2929793243
 40
0.9956746438
100
AcDbArc
 50
90.0
 51
180.0
  0
ARC
  5
6E9
100
AcDbEntity
  8
0
100
AcDbCircle
 62
7
  6
CONTINUOUS
 10
50.8783958677
 20
132.2929793243
 40
0.7861917391
100
AcDbArc
 50
90.0
 51
180.0
  0
ARC
  5
6EA
100
AcDbEntity
  8
EDGEFEAT
100
AcDbCircle
 62
9
  6
CONTINUOUS
 10
68.2283560674
 20
125.4808561692
 40
11.4753719193
100
AcDbArc
 50
234.3799474434
 51
234.5832925803
  0
ARC
  5
6EB
100
AcDbEntity
  8
EDGEFEAT
100
AcDbCircle
 62
9
  6
CONTINUOUS
 10
67.6523333431
 20
123.9524932229
 40
9.5573730587
100
AcDbArc
 50
231.7310102738
 51
232.086939398
  0
ARC
  5
6EC
100
AcDbEntity
  8
EDGEFEAT
100
AcDbCircle
 62
9
  6
CONTINUOUS
 10
60.7783958677
 20
119.2929793243
 40
3.3497545699
100
AcDbArc
 50
289.1661706759
 51
70.8338293267
  0
ARC
  5
6ED
100
AcDbEntity
  8
EDGEFEAT
100
AcDbCircle
 62
9
  6
CONTINUOUS
 10
60.7783958677
 20
119.2929793243
 40
3.3497545699
100
AcDbArc
 50
109.1661706697
 51
250.8338293204
  0
ARC
  5
6EE
100
AcDbEntity
  8
EDGEFEAT
100
AcDbCircle
 62
7
  6
CONTINUOUS
 10
60.7783958677
 20
119.2929793243
 40
3.049765993
100
AcDbArc
 50
289.1661723217
 51
70.8338276783
  0
ARC
  5
6EF
100
AcDbEntity
  8
EDGEFEAT
100
AcDbCircle
 62
7
  6
CONTINUOUS
 10
60.7783958677
 20
119.2929793243
 40
3.049765993
100
AcDbArc
 50
109.1661723217
 51
250.8338276783
  0
ARC
  5
6F0
100
AcDbEntity
  8
EDGEFEAT
100
AcDbCircle
 62
7
  6
CONTINUOUS
 10
60.7783958677
 20
119.2929793243
 40
3.0
100
AcDbArc
 50
288.5528618955
 51
71.4471381045
  0
ARC
  5
6F1
100
AcDbEntity
  8
EDGEFEAT
100
AcDbCircle
 62
7
  6
CONTINUOUS
 10
60.7783958677
 20
119.2929793243
 40
3.0
100
AcDbArc
 50
108.5528618955
 51
251.4471381045
  0
CIRCLE
  5
6F2
100
AcDbEntity
  8
0
100
AcDbCircle
 62
7
  6
CONTINUOUS
 10
60.7783958677
 20
119.2929793243
 40
1.5
  0
CIRCLE
  5
6F3
100
AcDbEntity
  8
0
100
AcDbCircle
 62
7
  6
CONTINUOUS
 10
60.7783958677
 20
119.2929793243
 40
1.275
  0
ARC
  5
6F4
100
AcDbEntity
  8
EDGEFEAT
100
AcDbCircle
 62
9
  6
CONTINUOUS
 10
60.7783958677
 20
126.2929793243
 40
1.0997383058
100
AcDbArc
 50
0.0
 51
180.0
  0
CIRCLE
  5
6F5
100
AcDbEntity
  8
EDGEFEAT
100
AcDbCircle
 62
9
  6
CONTINUOUS
 10
60.7783958677
 20
119.2929793243
 40
0.974993804
  0
ARC
  5
6F6
100
AcDbEntity
  8
EDGEFEAT
100
AcDbCircle
 62
7
  6
CONTINUOUS
 10
60.7783958677
 20
126.2929793243
 40
0.7997659918
100
AcDbArc
 50
0.0
 51
180.0
  0
ARC
  5
6F7
100
AcDbEntity
  8
0
100
AcDbCircle
 62
7
  6
CONTINUOUS
 10
60.7783958677
 20
126.2929793243
 40
0.75
100
AcDbArc
 50
0.0
 51
180.0
  0
ARC
  5
6F8
100
AcDbEntity
  8
EDGEFEAT
100
AcDbCircle
 62
7
  6
CONTINUOUS
 10
61.8283033404
 20
122.4214108211
 40
0.2999074784
100
AcDbArc
 50
179.9888563722
 51
251.4582817317
  0
ARC
  5
6F9
100
AcDbEntity
  8
EDGEFEAT
100
AcDbCircle
 62
7
  6
CONTINUOUS
 10
59.728488395
 20
122.4214108211
 40
0.2999074784
100
AcDbArc
 50
288.5417182683
 51
0.0111436278
  0
ARC
  5
6FA
100
AcDbEntity
  8
0
100
AcDbCircle
 62
7
  6
CONTINUOUS
 10
60.7783958677
 20
142.1929793243
 40
2.5
100
AcDbArc
 50
90.0
 51
180.0
  0
ARC
  5
6FB
100
AcDbEntity
  8
0
100
AcDbCircle
 62
9
  6
CONTINUOUS
 10
60.7783958677
 20
142.1929793243
 40
1.9507579056
100
AcDbArc
 50
90.0
 51
180.0
  0
ARC
  5
6FC
100
AcDbEntity
  8
0
100
AcDbCircle
 62
7
  6
CONTINUOUS
 10
60.7783958677
 20
142.1929793243
 40
0.9956746438
100
AcDbArc
 50
90.0
 51
180.0
  0
ARC
  5
6FD
100
AcDbEntity
  8
0
100
AcDbCircle
 62
7
  6
CONTINUOUS
 10
60.7783958677
 20
142.1929793243
 40
0.7861917391
100
AcDbArc
 50
90.0
 51
180.0
  0
ARC
  5
6FE
100
AcDbEntity
  8
EDGEFEAT
100
AcDbCircle
 62
9
  6
CONTINUOUS
 10
91.328435668
 20
113.1051024793
 40
11.4753719193
100
AcDbArc
 50
54.3799474434
 51
54.5832925803
  0
ARC
  5
6FF
100
AcDbEntity
  8
EDGEFEAT
100
AcDbCircle
 62
9
  6
CONTINUOUS
 10
106.2028054133
 20
113.1409161342
 40
11.4313781794
100
AcDbArc
 50
125.4163663737
 51
125.723020274
  0
ARC
  5
700
100
AcDbEntity
  8
EDGEFEAT
100
AcDbCircle
 62
9
  6
CONTINUOUS
 10
105.6751069636
 20
114.6043188447
 40
9.5943616741
100
AcDbArc
 50
127.9134043196
 51
128.1494550744
  0
ARC
  5
701
100
AcDbEntity
  8
EDGEFEAT
100
AcDbCircle
 62
9
  6
CONTINUOUS
 10
91.9044583923
 20
114.6334654257
 40
9.5573730587
100
AcDbArc
 50
51.7310102738
 51
52.086939398
  0
ARC
  5
702
100
AcDbEntity
  8
0
100
AcDbCircle
 62
7
  6
CONTINUOUS
 10
106.2783958677
 20
98.7929793243
 40
6.7138082609
100
AcDbArc
 50
90.0
 51
180.0
  0
ARC
  5
703
100
AcDbEntity
  8
0
100
AcDbCircle
 62
7
  6
CONTINUOUS
 10
106.2783958677
 20
98.7929793243
 40
6.5043253562
100
AcDbArc
 50
90.0
 51
180.0
  0
ARC
  5
704
100
AcDbEntity
  8
0
100
AcDbCircle
 62
9
  6
CONTINUOUS
 10
106.2783958677
 20
98.7929793243
 40
5.5492420944
100
AcDbArc
 50
90.0
 51
180.0
  0
ARC
  5
705
100
AcDbEntity
  8
0
100
AcDbCircle
 62
7
  6
CONTINUOUS
 10
106.2783958677
 20
98.7929793243
 40
5.0
100
AcDbArc
 50
90.0
 51
180.0
  0
CIRCLE
  5
706
100
AcDbEntity
  8
0
100
AcDbCircle
 62
7
  6
CONTINUOUS
 10
106.2783958677
 20
98.7929793243
 40
4.2007179592
  0
CIRCLE
  5
707
100
AcDbEntity
  8
0
100
AcDbCircle
 62
7
  6
CONTINUOUS
 10
106.2783958677
 20
98.7929793243
 40
4.0
  0
ARC
  5
708
100
AcDbEntity
  8
0
100
AcDbCircle
 62
7
  6
CONTINUOUS
 10
98.7783958677
 20
96.3929793243
 40
2.5
100
AcDbArc
 50
270.0
 51
360.0
  0
ARC
  5
709
100
AcDbEntity
  8
0
100
AcDbCircle
 62
7
  6
CONTINUOUS
 10
108.6783958677
 20
106.2929793243
 40
2.5
100
AcDbArc
 50
270.0
 51
360.0
  0
CIRCLE
  5
70A
100
AcDbEntity
  8
0
100
AcDbCircle
 62
7
  6
CONTINUOUS
 10
106.2783958677
 20
98.7929793243
 40
2.15
  0
ARC
  5
70B
100
AcDbEntity
  8
0
100
AcDbCircle
 62
9
  6
CONTINUOUS
 10
98.7783958677
 20
96.3929793243
 40
1.9507579056
100
AcDbArc
 50
270.0
 51
360.0
  0
ARC
  5
70C
100
AcDbEntity
  8
0
100
AcDbCircle
 62
9
  6
CONTINUOUS
 10
108.6783958677
 20
106.2929793243
 40
1.9507579056
100
AcDbArc
 50
270.0
 51
360.0
  0
ARC
  5
70D
100
AcDbEntity
  8
EDGEFEAT
100
AcDbCircle
 62
9
  6
CONTINUOUS
 10
98.7783958677
 20
112.2929793243
 40
1.0997383058
100
AcDbArc
 50
180.0
 51
360.0
  0
ARC
  5
70E
100
AcDbEntity
  8
0
100
AcDbCircle
 62
7
  6
CONTINUOUS
 10
98.7783958677
 20
96.3929793243
 40
0.9956746438
100
AcDbArc
 50
270.0
 51
360.0
  0
ARC
  5
70F
100
AcDbEntity
  8
0
100
AcDbCircle
 62
7
  6
CONTINUOUS
 10
108.6783958677
 20
106.2929793243
 40
0.9956746438
100
AcDbArc
 50
270.0
 51
360.0
  0
ARC
  5
710
100
AcDbEntity
  8
EDGEFEAT
100
AcDbCircle
 62
7
  6
CONTINUOUS
 10
98.7783958677
 20
112.2929793243
 40
0.7997659918
100
AcDbArc
 50
180.0
 51
360.0
  0
ARC
  5
711
100
AcDbEntity
  8
0
100
AcDbCircle
 62
7
  6
CONTINUOUS
 10
108.6783958677
 20
106.2929793243
 40
0.7861917391
100
AcDbArc
 50
270.0
 51
360.0
  0
ARC
  5
712
100
AcDbEntity
  8
0
100
AcDbCircle
 62
7
  6
CONTINUOUS
 10
98.7783958677
 20
96.3929793243
 40
0.7861917391
100
AcDbArc
 50
270.0
 51
360.0
  0
ARC
  5
713
100
AcDbEntity
  8
0
100
AcDbCircle
 62
7
  6
CONTINUOUS
 10
98.7783958677
 20
112.2929793243
 40
0.75
100
AcDbArc
 50
180.0
 51
360.0
  0
ARC
  5
714
100
AcDbEntity
  8
EDGEFEAT
100
AcDbCircle
 62
7
  6
CONTINUOUS
 10
97.728488395
 20
116.1645478274
 40
0.2999074784
100
AcDbArc
 50
359.9888563722
 51
71.4582817317
  0
ARC
  5
715
100
AcDbEntity
  8
EDGEFEAT
100
AcDbCircle
 62
7
  6
CONTINUOUS
 10
99.8283033404
 20
116.1645478274
 40
0.2999074784
100
AcDbArc
 50
108.5417182683
 51
180.0111436278
  0
ARC
  5
716
100
AcDbEntity
  8
EDGEFEAT
100
AcDbCircle
 62
9
  6
CONTINUOUS
 10
91.3539863222
 20
125.4450425143
 40
11.4313781794
100
AcDbArc
 50
305.4163663737
 51
305.723020274
  0
ARC
  5
717
100
AcDbEntity
  8
EDGEFEAT
100
AcDbCircle
 62
9
  6
CONTINUOUS
 10
91.8816847705
 20
123.9816398055
 40
9.5943616762
100
AcDbArc
 50
307.9134043196
 51
308.1494550744
  0
ARC
  5
718
100
AcDbEntity
  8
EDGEFEAT
100
AcDbCircle
 62
9
  6
CONTINUOUS
 10
98.7783958677
 20
119.2929793243
 40
3.3497545699
100
AcDbArc
 50
109.1661706759
 51
250.8338293267
  0
ARC
  5
719
100
AcDbEntity
  8
EDGEFEAT
100
AcDbCircle
 62
9
  6
CONTINUOUS
 10
98.7783958677
 20
119.2929793243
 40
3.3497545699
100
AcDbArc
 50
289.1661706697
 51
70.8338293204
  0
ARC
  5
71A
100
AcDbEntity
  8
EDGEFEAT
100
AcDbCircle
 62
7
  6
CONTINUOUS
 10
98.7783958677
 20
119.2929793243
 40
3.049765993
100
AcDbArc
 50
109.1661723217
 51
250.8338276783
  0
ARC
  5
71B
100
AcDbEntity
  8
EDGEFEAT
100
AcDbCircle
 62
7
  6
CONTINUOUS
 10
98.7783958677
 20
119.2929793243
 40
3.049765993
100
AcDbArc
 50
289.1661723217
 51
70.8338276783
  0
ARC
  5
71C
100
AcDbEntity
  8
EDGEFEAT
100
AcDbCircle
 62
7
  6
CONTINUOUS
 10
98.7783958677
 20
119.2929793243
 40
3.0
100
AcDbArc
 50
288.5528618955
 51
71.4471381045
  0
ARC
  5
71D
100
AcDbEntity
  8
EDGEFEAT
100
AcDbCircle
 62
7
  6
CONTINUOUS
 10
98.7783958677
 20
119.2929793243
 40
3.0
100
AcDbArc
 50
108.5528618955
 51
251.4471381045
  0
CIRCLE
  5
71E
100
AcDbEntity
  8
0
100
AcDbCircle
 62
7
  6
CONTINUOUS
 10
98.7783958677
 20
119.2929793243
 40
1.5
  0
CIRCLE
  5
71F
100
AcDbEntity
  8
0
100
AcDbCircle
 62
7
  6
CONTINUOUS
 10
98.7783958677
 20
119.2929793243
 40
1.275
  0
ARC
  5
720
100
AcDbEntity
  8
EDGEFEAT
100
AcDbCircle
 62
9
  6
CONTINUOUS
 10
98.7783958677
 20
126.2929793243
 40
1.0997383058
100
AcDbArc
 50
0.0
 51
180.0
  0
CIRCLE
  5
721
100
AcDbEntity
  8
EDGEFEAT
100
AcDbCircle
 62
9
  6
CONTINUOUS
 10
98.7783958677
 20
119.2929793243
 40
0.974993804
  0
ARC
  5
722
100
AcDbEntity
  8
EDGEFEAT
100
AcDbCircle
 62
7
  6
CONTINUOUS
 10
98.7783958677
 20
126.2929793243
 40
0.7997659918
100
AcDbArc
 50
0.0
 51
180.0
  0
ARC
  5
723
100
AcDbEntity
  8
0
100
AcDbCircle
 62
7
  6
CONTINUOUS
 10
98.7783958677
 20
126.2929793243
 40
0.75
100
AcDbArc
 50
0.0
 51
180.0
  0
ARC
  5
724
100
AcDbEntity
  8
EDGEFEAT
100
AcDbCircle
 62
7
  6
CONTINUOUS
 10
97.728488395
 20
122.4214108211
 40
0.2999074784
100
AcDbArc
 50
288.5417182683
 51
0.0111436278
  0
ARC
  5
725
100
AcDbEntity
  8
EDGEFEAT
100
AcDbCircle
 62
7
  6
CONTINUOUS
 10
99.8283033404
 20
122.4214108211
 40
0.2999074784
100
AcDbArc
 50
179.9888563722
 51
251.4582817317
  0
ARC
  5
726
100
AcDbEntity
  8
0
100
AcDbCircle
 62
7
  6
CONTINUOUS
 10
98.7783958677
 20
142.1929793243
 40
2.5
100
AcDbArc
 50
0.0
 51
90.0
  0
ARC
  5
727
100
AcDbEntity
  8
0
100
AcDbCircle
 62
9
  6
CONTINUOUS
 10
98.7783958677
 20
142.1929793243
 40
1.9507579056
100
AcDbArc
 50
0.0
 51
90.0
  0
ARC
  5
728
100
AcDbEntity
  8
0
100
AcDbCircle
 62
7
  6
CONTINUOUS
 10
98.7783958677
 20
142.1929793243
 40
0.9956746438
100
AcDbArc
 50
0.0
 51
90.0
  0
ARC
  5
729
100
AcDbEntity
  8
0
100
AcDbCircle
 62
7
  6
CONTINUOUS
 10
98.7783958677
 20
142.1929793243
 40
0.7861917391
100
AcDbArc
 50
0.0
 51
90.0
  0
ARC
  5
72A
100
AcDbEntity
  8
EDGEFEAT
100
AcDbCircle
 62
9
  6
CONTINUOUS
 10
106.2028054159
 20
125.445042518
 40
11.4313781839
100
AcDbArc
 50
234.276979726
 51
234.5836336263
  0
ARC
  5
72B
100
AcDbEntity
  8
EDGEFEAT
100
AcDbCircle
 62
9
  6
CONTINUOUS
 10
105.6751069595
 20
123.9816397986
 40
9.5943616675
100
AcDbArc
 50
231.8505449254
 51
232.0865956804
  0
ARC
  5
72C
100
AcDbEntity
  8
0
100
AcDbCircle
 62
7
  6
CONTINUOUS
 10
106.2783958677
 20
139.7929793243
 40
6.7138082609
100
AcDbArc
 50
180.0
 51
270.0
  0
ARC
  5
72D
100
AcDbEntity
  8
0
100
AcDbCircle
 62
7
  6
CONTINUOUS
 10
106.2783958677
 20
139.7929793243
 40
6.5043253562
100
AcDbArc
 50
180.0
 51
270.0
  0
ARC
  5
72E
100
AcDbEntity
  8
0
100
AcDbCircle
 62
9
  6
CONTINUOUS
 10
106.2783958677
 20
139.7929793243
 40
5.5492420944
100
AcDbArc
 50
180.0
 51
270.0
  0
ARC
  5
72F
100
AcDbEntity
  8
0
100
AcDbCircle
 62
7
  6
CONTINUOUS
 10
106.2783958677
 20
139.7929793243
 40
5.0
100
AcDbArc
 50
180.0
 51
270.0
  0
CIRCLE
  5
730
100
AcDbEntity
  8
0
100
AcDbCircle
 62
7
  6
CONTINUOUS
 10
106.2783958677
 20
139.7929793243
 40
4.0349074712
  0
CIRCLE
  5
731
100
AcDbEntity
  8
0
100
AcDbCircle
 62
7
  6
CONTINUOUS
 10
106.2783958677
 20
139.7929793243
 40
4.0
  0
CIRCLE
  5
732
100
AcDbEntity
  8
0
100
AcDbCircle
 62
7
  6
CONTINUOUS
 10
106.2783958677
 20
139.7929793243
 40
2.25
  0
ARC
  5
733
100
AcDbEntity
  8
0
100
AcDbCircle
 62
7
  6
CONTINUOUS
 10
106.8270500073
 20
140.0380373412
 40
2.1008947116
100
AcDbArc
 50
195.9776981923
 51
204.1151987706
  0
ARC
  5
734
100
AcDbEntity
  8
0
100
AcDbCircle
 62
7
  6
CONTINUOUS
 10
106.2783830953
 20
139.7929364587
 40
2.0000285835
100
AcDbArc
 50
23.1294771904
 51
123.6861652682
  0
ARC
  5
735
100
AcDbEntity
  8
0
100
AcDbCircle
 62
9
  6
CONTINUOUS
 10
106.286246179
 20
139.7842809986
 40
1.8115511009
100
AcDbArc
 50
123.7583308821
 51
141.7339100195
  0
ARC
  5
736
100
AcDbEntity
  8
0
100
AcDbCircle
 62
9
  6
CONTINUOUS
 10
106.2783958677
 20
139.7929793243
 40
1.8
100
AcDbArc
 50
346.3041938786
 51
18.5962703598
  0
ARC
  5
737
100
AcDbEntity
  8
0
100
AcDbCircle
 62
9
  6
CONTINUOUS
 10
106.2784100623
 20
139.7929974371
 40
1.7999647623
100
AcDbArc
 50
22.7047672423
 51
123.7051330754
  0
ARC
  5
738
100
AcDbEntity
  8
0
100
AcDbCircle
 62
9
  6
CONTINUOUS
 10
106.2782893868
 20
139.793038493
 40
1.7998812923
100
AcDbArc
 50
141.7959250047
 51
163.9114848844
  0
ARC
  5
739
100
AcDbEntity
  8
0
100
AcDbCircle
 62
9
  6
CONTINUOUS
 10
106.2820947041
 20
139.7941154668
 40
1.7961319727
100
AcDbArc
 50
18.5995472877
 51
22.7172341952
  0
ARC
  5
73A
100
AcDbEntity
  8
0
100
AcDbCircle
 62
9
  6
CONTINUOUS
 10
106.2830052025
 20
139.7919390796
 40
1.7952754311
100
AcDbArc
 50
342.6629845086
 51
346.3016192617
  0
ARC
  5
73B
100
AcDbEntity
  8
0
100
AcDbCircle
 62
9
  6
CONTINUOUS
 10
106.2783958677
 20
139.7929793243
 40
1.7
100
AcDbArc
 50
346.3041938783
 51
163.9092116357
  0
ARC
  5
73C
100
AcDbEntity
  8
0
100
AcDbCircle
 62
9
  6
CONTINUOUS
 10
106.2831827699
 20
139.7918805961
 40
1.6950890651
100
AcDbArc
 50
342.9233627453
 51
346.3019666211
  0
ARC
  5
73D
100
AcDbEntity
  8
0
100
AcDbCircle
 62
7
  6
CONTINUOUS
 10
106.2783958677
 20
139.7929793243
 40
1.5
100
AcDbArc
 50
204.1340782125
 51
16.8156417848
  0
ARC
  5
73E
100
AcDbEntity
  8
0
100
AcDbCircle
 62
7
  6
CONTINUOUS
 10
106.2783958677
 20
139.7929793243
 40
1.5
100
AcDbArc
 50
17.0112271965
 51
194.1341345307
  0
ARC
  5
73F
100
AcDbEntity
  8
0
100
AcDbCircle
 62
7
  6
CONTINUOUS
 10
108.6783958677
 20
132.2929793243
 40
2.5
100
AcDbArc
 50
0.0
 51
90.0
  0
ARC
  5
740
100
AcDbEntity
  8
0
100
AcDbCircle
 62
9
  6
CONTINUOUS
 10
108.6783958677
 20
132.2929793243
 40
1.9507579056
100
AcDbArc
 50
0.0
 51
90.0
  0
ARC
  5
741
100
AcDbEntity
  8
0
100
AcDbCircle
 62
7
  6
CONTINUOUS
 10
108.6783958677
 20
132.2929793243
 40
0.9956746438
100
AcDbArc
 50
0.0
 51
90.0
  0
ARC
  5
742
100
AcDbEntity
  8
0
100
AcDbCircle
 62
7
  6
CONTINUOUS
 10
108.6783958677
 20
132.2929793243
 40
0.7861917391
100
AcDbArc
 50
0.0
 51
90.0
  0
ARC
  5
743
100
AcDbEntity
  8
0
100
AcDbCircle
 62
7
  6
CONTINUOUS
 10
171.2315316927
 20
94.7929793243
 40
1.3049185167
100
AcDbArc
 50
272.0
 51
88.0
  0
ARC
  5
744
100
AcDbEntity
  8
0
100
AcDbCircle
 62
7
  6
CONTINUOUS
 10
169.5315316927
 20
94.897323719
 40
0.5
100
AcDbArc
 50
294.4663588587
 51
89.5
  0
ARC
  5
745
100
AcDbEntity
  8
DEFAULT_2
100
AcDbCircle
 62
8
  6
HIDDEN
 10
144.8315316927
 20
118.3179793243
 40
0.3
100
AcDbArc
 50
180.0
 51
270.0
  0
ARC
  5
746
100
AcDbEntity
  8
0
100
AcDbCircle
 62
7
  6
CONTINUOUS
 10
145.8315316927
 20
111.1932247543
 40
0.3
100
AcDbArc
 50
90.5
 51
180.0
  0
ARC
  5
747
100
AcDbEntity
  8
EDGEFEAT
100
AcDbCircle
 62
8
  6
HIDDEN
 10
144.8315316927
 20
120.2679793243
 40
0.3
100
AcDbArc
 50
90.0
 51
180.0
  0
ARC
  5
748
100
AcDbEntity
  8
EDGEFEAT
100
AcDbCircle
 62
8
  6
HIDDEN
 10
145.8315316927
 20
127.3927338942
 40
0.3
100
AcDbArc
 50
180.0
 51
269.5
  0
ARC
  5
749
100
AcDbEntity
  8
0
100
AcDbCircle
 62
7
  6
CONTINUOUS
 10
110.2783958677
 20
225.1394517808
 40
1.3049185167
100
AcDbArc
 50
2.0
 51
178.0
  0
ARC
  5
74A
100
AcDbEntity
  8
0
100
AcDbCircle
 62
7
  6
CONTINUOUS
 10
110.174051473
 20
223.4394517808
 40
0.5
100
AcDbArc
 50
24.4663588587
 51
179.5
  0
ARC
  5
74B
100
AcDbEntity
  8
0
100
AcDbCircle
 62
7
  6
CONTINUOUS
 10
95.4286412978
 20
199.7394517808
 40
0.3
100
AcDbArc
 50
270.0
 51
359.5
  0
ARC
  5
74C
100
AcDbEntity
  8
0
100
AcDbCircle
 62
7
  6
CONTINUOUS
 10
102.1281504376
 20
199.7394517808
 40
0.3
100
AcDbArc
 50
180.5
 51
270.0
  0
ARC
  5
74D
100
AcDbEntity
  8
0
100
AcDbCircle
 62
7
  6
CONTINUOUS
 10
97.8033958677
 20
198.7394517808
 40
0.3
100
AcDbArc
 50
180.0
 51
270.0000008118
  0
ARC
  5
74E
100
AcDbEntity
  8
0
100
AcDbCircle
 62
7
  6
CONTINUOUS
 10
99.7533958677
 20
198.7394517808
 40
0.3
100
AcDbArc
 50
269.9999991882
 51
360.0
  0
SPLINE
  5
74F
100
AcDbEntity
  8
EDGEFEAT
100
AcDbSpline
 62
7
  6
CONTINUOUS
 70
0
 71
3
 72
9
 73
5
 74
0
 42
0.0000001
 43
0.0000001
 44
0.0000000001
 40
0.0
 40
0.0
 40
0.0
 40
0.0
 40
0.5000829329
 40
1.0
 40
1.0
 40
1.0
 40
1.0
 10
99.743301
 20
116.3968172504
 30
0.0
 10
99.6949957548
 20
116.3724278127
 30
0.0
 10
99.6100267402
 20
116.2957383687
 30
0.0
 10
99.5786352252
 20
116.185601405
 30
0.0
 10
99.5781724315
 20
116.1315081053
 30
0.0
  0
SPLINE
  5
750
100
AcDbEntity
  8
EDGEFEAT
100
AcDbSpline
 62
7
  6
CONTINUOUS
 70
0
 71
3
 72
9
 73
5
 74
0
 42
0.0000001
 43
0.0000001
 44
0.0000000001
 40
0.0
 40
0.0
 40
0.0
 40
0.0
 40
0.4999170671
 40
1.0
 40
1.0
 40
1.0
 40
1.0
 10
99.5781724315
 20
122.4544505432
 30
0.0
 10
99.5786352252
 20
122.4003572435
 30
0.0
 10
99.6100267402
 20
122.2902202798
 30
0.0
 10
99.6949957548
 20
122.2135308358
 30
0.0
 10
99.743301
 20
122.1891413981
 30
0.0
  0
SPLINE
  5
751
100
AcDbEntity
  8
EDGEFEAT
100
AcDbSpline
 62
7
  6
CONTINUOUS
 70
0
 71
3
 72
9
 73
5
 74
0
 42
0.0000001
 43
0.0000001
 44
0.0000000001
 40
0.0
 40
0.0
 40
0.0
 40
0.0
 40
0.4999170671
 40
1.0
 40
1.0
 40
1.0
 40
1.0
 10
97.7795899567
 20
122.174564069
 30
0.0
 10
97.8305329459
 20
122.1927605274
 30
0.0
 10
97.9242589426
 20
122.2585709789
 30
0.0
 10
97.9688014277
 20
122.3640080278
 30
0.0
 10
97.9759799214
 20
122.4176430035
 30
0.0
  0
SPLINE
  5
752
100
AcDbEntity
  8
EDGEFEAT
100
AcDbSpline
 62
7
  6
CONTINUOUS
 70
0
 71
3
 72
9
 73
5
 74
0
 42
0.0000001
 43
0.0000001
 44
0.0000000001
 40
0.0
 40
0.0
 40
0.0
 40
0.0
 40
0.4999170671
 40
1.0
 40
1.0
 40
1.0
 40
1.0
 10
97.9786193039
 20
116.1315081053
 30
0.0
 10
97.9781565102
 20
116.185601405
 30
0.0
 10
97.9467649952
 20
116.2957383687
 30
0.0
 10
97.8617959806
 20
116.3724278127
 30
0.0
 10
97.8134907354
 20
116.3968172504
 30
0.0
  0
SPLINE
  5
753
100
AcDbEntity
  8
EDGEFEAT
100
AcDbSpline
 62
7
  6
CONTINUOUS
 70
0
 71
3
 72
9
 73
5
 74
0
 42
0.0000001
 43
0.0000001
 44
0.0000000001
 40
0.0
 40
0.0
 40
0.0
 40
0.0
 40
0.5000829329
 40
1.0
 40
1.0
 40
1.0
 40
1.0
 10
59.8134907354
 20
122.1891413981
 30
0.0
 10
59.8617959806
 20
122.2135308358
 30
0.0
 10
59.9467649952
 20
122.2902202798
 30
0.0
 10
59.9781565102
 20
122.4003572435
 30
0.0
 10
59.9786193039
 20
122.4544505432
 30
0.0
  0
SPLINE
  5
754
100
AcDbEntity
  8
EDGEFEAT
100
AcDbSpline
 62
7
  6
CONTINUOUS
 70
0
 71
3
 72
9
 73
5
 74
0
 42
0.0000001
 43
0.0000001
 44
0.0000000001
 40
0.0
 40
0.0
 40
0.0
 40
0.0
 40
0.4999170671
 40
1.0
 40
1.0
 40
1.0
 40
1.0
 10
59.9786193039
 20
116.1315081053
 30
0.0
 10
59.9781565102
 20
116.185601405
 30
0.0
 10
59.9467649952
 20
116.2957383687
 30
0.0
 10
59.8617959806
 20
116.3724278127
 30
0.0
 10
59.8134907354
 20
116.3968172504
 30
0.0
  0
SPLINE
  5
755
100
AcDbEntity
  8
EDGEFEAT
100
AcDbSpline
 62
7
  6
CONTINUOUS
 70
0
 71
3
 72
9
 73
5
 74
0
 42
0.0000001
 43
0.0000001
 44
0.0000000001
 40
0.0
 40
0.0
 40
0.0
 40
0.0
 40
0.4999170671
 40
1.0
 40
1.0
 40
1.0
 40
1.0
 10
61.7772017787
 20
116.4113945795
 30
0.0
 10
61.7262587895
 20
116.3931981211
 30
0.0
 10
61.6325327928
 20
116.3273876696
 30
0.0
 10
61.5879903077
 20
116.2219506207
 30
0.0
 10
61.580811814
 20
116.1683156451
 30
0.0
  0
SPLINE
  5
756
100
AcDbEntity
  8
EDGEFEAT
100
AcDbSpline
 62
7
  6
CONTINUOUS
 70
0
 71
3
 72
9
 73
5
 74
0
 42
0.0000001
 43
0.0000001
 44
0.0000000001
 40
0.0
 40
0.0
 40
0.0
 40
0.0
 40
0.4999170671
 40
1.0
 40
1.0
 40
1.0
 40
1.0
 10
61.5781724315
 20
122.4544505432
 30
0.0
 10
61.5786352252
 20
122.4003572435
 30
0.0
 10
61.6100267402
 20
122.2902202798
 30
0.0
 10
61.6949957548
 20
122.2135308358
 30
0.0
 10
61.743301
 20
122.1891413981
 30
0.0
  0
SPLINE
  5
757
100
AcDbEntity
  8
0
100
AcDbSpline
 62
7
  6
CONTINUOUS
 70
0
 71
3
 72
17
 73
13
 74
0
 42
0.0000001
 43
0.0000001
 44
0.0000000001
 40
0.0
 40
0.0
 40
0.0
 40
0.0
 40
0.0609435469
 40
0.1235287497
 40
0.1861349903
 40
0.248743934
 40
0.3739611499
 40
0.4991710545
 40
0.6243772108
 40
0.7495828226
 40
0.8747893299
 40
1.0
 40
1.0
 40
1.0
 40
1.0
 10
107.9032878521
 20
139.2932533602
 30
0.0
 10
107.8814154724
 20
139.2999800818
 30
0.0
 10
107.8346797183
 20
139.2677139377
 30
0.0
 10
107.7894312009
 20
139.2195328125
 30
0.0
 10
107.7433513054
 20
139.164776223
 30
0.0
 10
107.6847702892
 20
139.0916534572
 30
0.0
 10
107.6109998553
 20
138.9999229033
 30
0.0
 10
107.5185079218
 20
138.8934371538
 30
0.0
 10
107.4202442677
 20
138.7921250432
 30
0.0
 10
107.3158472308
 20
138.6971488828
 30
0.0
 10
107.2053784764
 20
138.6092959445
 30
0.0
 10
107.1279217382
 20
138.5558390002
 30
0.0
 10
107.0883501539
 20
138.5304524714
 30
0.0
  0
SPLINE
  5
758
100
AcDbEntity
  8
0
100
AcDbSpline
 62
7
  6
CONTINUOUS
 70
0
 71
3
 72
9
 73
5
 74
0
 42
0.0000001
 43
0.0000001
 44
0.0000000001
 40
0.0
 40
0.0
 40
0.0
 40
0.0
 40
0.2508547207
 40
1.0
 40
1.0
 40
1.0
 40
1.0
 10
108.1176484379
 20
140.5785682644
 30
0.0
 10
108.1416379611
 20
140.5224030234
 30
0.0
 10
108.2248224296
 20
140.2934532481
 30
0.0
 10
108.2568396917
 20
140.0454419434
 30
0.0
 10
108.2472873239
 20
139.8633026815
 30
0.0
  0
SPLINE
  5
759
100
AcDbEntity
  8
0
100
AcDbSpline
 62
7
  6
CONTINUOUS
 70
0
 71
3
 72
14
 73
10
 74
0
 42
0.0000001
 43
0.0000001
 44
0.0000000001
 40
0.0
 40
0.0
 40
0.0
 40
0.0
 40
0.2503272882
 40
0.5005941447
 40
0.6257941861
 40
0.7509689553
 40
0.8760199975
 40
0.9385537772
 40
1.0
 40
1.0
 40
1.0
 40
1.0
 10
108.2472873239
 20
139.8633026815
 30
0.0
 10
108.2443122312
 20
139.8065752617
 30
0.0
 10
108.2318630298
 20
139.6933621728
 30
0.0
 10
108.1984663406
 20
139.5548324231
 30
0.0
 10
108.1587432618
 20
139.4481865408
 30
0.0
 10
108.1216689277
 20
139.3715368964
 30
0.0
 10
108.0812784079
 20
139.3118612492
 30
0.0
 10
108.0423945707
 20
139.2722894158
 30
0.0
 10
108.0121973366
 20
139.2597588894
 30
0.0
 10
107.9988697335
 20
139.2638577153
 30
0.0
  0
SPLINE
  5
75A
100
AcDbEntity
  8
0
100
AcDbSpline
 62
7
  6
CONTINUOUS
 70
0
 71
3
 72
17
 73
13
 74
0
 42
0.0000001
 43
0.0000001
 44
0.0000000001
 40
0.0
 40
0.0
 40
0.0
 40
0.0
 40
0.0609435469
 40
0.1235287497
 40
0.1861349903
 40
0.248743934
 40
0.3739611499
 40
0.4991710545
 40
0.6243772108
 40
0.7495828226
 40
0.8747893299
 40
1.0
 40
1.0
 40
1.0
 40
1.0
 10
54.9032878521
 20
98.2932533602
 30
0.0
 10
54.8814154724
 20
98.2999800818
 30
0.0
 10
54.8346797183
 20
98.2677139376
 30
0.0
 10
54.7894312009
 20
98.2195328125
 30
0.0
 10
54.7433513054
 20
98.164776223
 30
0.0
 10
54.6847702892
 20
98.0916534572
 30
0.0
 10
54.6109998553
 20
97.9999229033
 30
0.0
 10
54.5185079218
 20
97.8934371538
 30
0.0
 10
54.4202442677
 20
97.7921250432
 30
0.0
 10
54.3158472308
 20
97.6971488828
 30
0.0
 10
54.2053784764
 20
97.6092959445
 30
0.0
 10
54.1279217382
 20
97.5558390002
 30
0.0
 10
54.0883501539
 20
97.5304524714
 30
0.0
  0
SPLINE
  5
75B
100
AcDbEntity
  8
0
100
AcDbSpline
 62
7
  6
CONTINUOUS
 70
0
 71
3
 72
9
 73
5
 74
0
 42
0.0000001
 43
0.0000001
 44
0.0000000001
 40
0.0
 40
0.0
 40
0.0
 40
0.0
 40
0.2508547207
 40
1.0
 40
1.0
 40
1.0
 40
1.0
 10
55.1176484379
 20
99.5785682644
 30
0.0
 10
55.1416379611
 20
99.5224030234
 30
0.0
 10
55.2248224296
 20
99.2934532481
 30
0.0
 10
55.2568396917
 20
99.0454419434
 30
0.0
 10
55.2472873239
 20
98.8633026815
 30
0.0
  0
SPLINE
  5
75C
100
AcDbEntity
  8
0
100
AcDbSpline
 62
7
  6
CONTINUOUS
 70
0
 71
3
 72
14
 73
10
 74
0
 42
0.0000001
 43
0.0000001
 44
0.0000000001
 40
0.0
 40
0.0
 40
0.0
 40
0.0
 40
0.2503272882
 40
0.5005941447
 40
0.6257941861
 40
0.7509689553
 40
0.8760199975
 40
0.9385537772
 40
1.0
 40
1.0
 40
1.0
 40
1.0
 10
55.2472873239
 20
98.8633026815
 30
0.0
 10
55.2443122312
 20
98.8065752617
 30
0.0
 10
55.2318630298
 20
98.6933621727
 30
0.0
 10
55.1984663405
 20
98.5548324231
 30
0.0
 10
55.1587432617
 20
98.4481865408
 30
0.0
 10
55.1216689277
 20
98.3715368964
 30
0.0
 10
55.0812784079
 20
98.3118612492
 30
0.0
 10
55.0423945707
 20
98.2722894157
 30
0.0
 10
55.0121973366
 20
98.2597588894
 30
0.0
 10
54.9988697335
 20
98.2638577152
 30
0.0
  0
SPLINE
  5
75D
100
AcDbEntity
  8
0
100
AcDbSpline
 62
7
  6
CONTINUOUS
 70
0
 71
3
 72
17
 73
13
 74
0
 42
0.0000001
 43
0.0000001
 44
0.0000000001
 40
0.0
 40
0.0
 40
0.0
 40
0.0
 40
0.0306357793
 40
0.0618946074
 40
0.1244016737
 40
0.1869693217
 40
0.2495488234
 40
0.3746389922
 40
0.4997611111
 40
0.6248982146
 40
0.7500449475
 40
1.0
 40
1.0
 40
1.0
 40
1.0
 10
104.5489009451
 20
140.2918253053
 30
0.0
 10
104.535037064
 20
140.2958241267
 30
0.0
 10
104.5164253557
 20
140.3243370573
 30
0.0
 10
104.5057737096
 20
140.3807252992
 30
0.0
 10
104.5054047447
 20
140.4555473166
 30
0.0
 10
104.5176383789
 20
140.5430081801
 30
0.0
 10
104.5450068094
 20
140.6578629537
 30
0.0
 10
104.5965047876
 20
140.7964675294
 30
0.0
 10
104.6791416024
 20
140.9532123127
 30
0.0
 10
104.7795920057
 20
141.0992226893
 30
0.0
 10
104.9340367359
 20
141.2775711832
 30
0.0
 10
105.0711232188
 20
141.3918389414
 30
0.0
 10
105.1690801891
 20
141.4571363857
 30
0.0
  0
SPLINE
  5
75E
100
AcDbEntity
  8
0
100
AcDbSpline
 62
7
  6
CONTINUOUS
 70
0
 71
3
 72
15
 73
11
 74
0
 42
0.0000001
 43
0.0000001
 44
0.0000000001
 40
0.0
 40
0.0
 40
0.0
 40
0.0
 40
0.2503263576
 40
0.375522675
 40
0.5007203689
 40
0.6259205703
 40
0.7511214583
 40
0.8762834535
 40
0.9388291876
 40
1.0
 40
1.0
 40
1.0
 40
1.0
 10
104.8073151438
 20
139.4597383958
 30
0.0
 10
104.7882631461
 20
139.5262406513
 30
0.0
 10
104.7645559176
 20
139.6274678015
 30
0.0
 10
104.7417868234
 20
139.7639849614
 30
0.0
 10
104.7285333941
 20
139.8669254336
 30
0.0
 10
104.7179438551
 20
139.9702849544
 30
0.0
 10
104.7083454442
 20
140.0732506068
 30
0.0
 10
104.6973539578
 20
140.1602298938
 30
0.0
 10
104.6818092288
 20
140.22511136
 30
0.0
 10
104.6612263669
 20
140.2594267799
 30
0.0
 10
104.6449839964
 20
140.2641116397
 30
0.0
  0
SPLINE
  5
75F
100
AcDbEntity
  8
0
100
AcDbSpline
 62
7
  6
CONTINUOUS
 70
0
 71
3
 72
17
 73
13
 74
0
 42
0.0000001
 43
0.0000001
 44
0.0000000001
 40
0.0
 40
0.0
 40
0.0
 40
0.0
 40
0.0306357793
 40
0.0618946074
 40
0.1244016737
 40
0.1869693217
 40
0.2495488234
 40
0.3746389922
 40
0.4997611111
 40
0.6248982146
 40
0.7500449475
 40
1.0
 40
1.0
 40
1.0
 40
1.0
 10
51.5489009451
 20
99.2918253053
 30
0.0
 10
51.535037064
 20
99.2958241267
 30
0.0
 10
51.5164253557
 20
99.3243370572
 30
0.0
 10
51.5057737096
 20
99.3807252992
 30
0.0
 10
51.5054047447
 20
99.4555473166
 30
0.0
 10
51.5176383788
 20
99.5430081801
 30
0.0
 10
51.5450068094
 20
99.6578629537
 30
0.0
 10
51.5965047876
 20
99.7964675294
 30
0.0
 10
51.6791416024
 20
99.9532123126
 30
0.0
 10
51.7795920057
 20
100.0992226893
 30
0.0
 10
51.9340367359
 20
100.2775711832
 30
0.0
 10
52.0711232188
 20
100.3918389414
 30
0.0
 10
52.1690801891
 20
100.4571363857
 30
0.0
  0
SPLINE
  5
760
100
AcDbEntity
  8
0
100
AcDbSpline
 62
7
  6
CONTINUOUS
 70
0
 71
3
 72
15
 73
11
 74
0
 42
0.0000001
 43
0.0000001
 44
0.0000000001
 40
0.0
 40
0.0
 40
0.0
 40
0.0
 40
0.2503263576
 40
0.375522675
 40
0.5007203689
 40
0.6259205703
 40
0.7511214583
 40
0.8762834535
 40
0.9388291876
 40
1.0
 40
1.0
 40
1.0
 40
1.0
 10
51.8073151438
 20
98.4597383958
 30
0.0
 10
51.7882631461
 20
98.5262406513
 30
0.0
 10
51.7645559176
 20
98.6274678015
 30
0.0
 10
51.7417868234
 20
98.7639849614
 30
0.0
 10
51.7285333941
 20
98.8669254336
 30
0.0
 10
51.7179438551
 20
98.9702849544
 30
0.0
 10
51.7083454442
 20
99.0732506068
 30
0.0
 10
51.6973539578
 20
99.1602298938
 30
0.0
 10
51.6818092288
 20
99.22511136
 30
0.0
 10
51.6612263669
 20
99.2594267799
 30
0.0
 10
51.6449839964
 20
99.2641116397
 30
0.0
  0
ENDSEC
  0
SECTION
  2
OBJECTS
  0
DICTIONARY
  5
C
100
AcDbDictionary
280
0
281
1
  3
ACAD_GROUP
350
D
  3
ACAD_MLINESTYLE
350
17
  3
ACAD_LAYOUT
350
1A
  3
ACAD_PLOTSETTINGS
350
19
  3
ACAD_PLOTSTYLENAME
350
E
  3
ACAD_TABLESTYLE
350
       761
  0
DICTIONARY
  5
D
102
{ACAD_REACTORS
330
C
102
}
100
AcDbDictionary
280
0
281
1
  0
ACDBDICTIONARYWDFLT
  5
E
102
{ACAD_REACTORS
330
C
102
}
100
AcDbDictionary
281
1
  3
Normal
350
F
100
AcDbDictionaryWithDefault
340
F
  0
DICTIONARY
  5
17
102
{ACAD_REACTORS
330
C
102
}
100
AcDbDictionary
280
0
281
1
  3
Standard
350
18
  0
DICTIONARY
  5
761
330
C
100
AcDbDictionary
281
1
  3
Standard
350
       764
  3
Standard1
350
       765
  0
DICTIONARY
  5
19
102
{ACAD_REACTORS
330
C
102
}
100
AcDbDictionary
281
1
  0
DICTIONARY
  5
1A
102
{ACAD_REACTORS
330
C
102
}
100
AcDbDictionary
281
1
  3
Model
350
762
  3
Layout1
350
763
  0
ACDBPLACEHOLDER
  5
F
102
{ACAD_REACTORS
330
E
102
}
  0
MLINESTYLE
  5
18
102
{ACAD_REACTORS
330
17
102
}
100
AcDbMlineStyle
  2
STANDARD
 70
0
  3

 62
256
 51
90.0
 52
90.0
 71
2
 49
0.5
 62
256
  6
BYLAYER
 49
-0.5
 62
256
  6
BYLAYER
  0
LAYOUT
  5
762
102
{ACAD_REACTORS
330
1A
102
}
100
AcDbPlotSettings
  1

  2
none_device
  4

  6

 40
0.0
 41
0.0
 42
0.0
 43
0.0
 44
210.0
 45
297.0
 46
0.0
 47
0.0
 48
0.0
 49
0.0
140
0.0
141
0.0
142
1.0
143
1.0
 70
1024
 72
1
 73
0
 74
0
  7

 75
0
147
1.0
148
0.0
149
0.0
100
AcDbLayout
  1
Model
 70
0
 71
0
 10
0.0
 20
0.0
 11
210.0
 21
297.0
 12
0.0
 22
0.0
 32
0.0
 14
0.0
 24
0.0
 34
0.0
 15
0.0
 25
0.0
 35
0.0
146
0.0
 13
0.0
 23
0.0
 33
0.0
 16
1.0
 26
0.0
 36
0.0
 17
0.0
 27
1.0
 37
0.0
 76
0
330
207
345
0
346
0
  0
LAYOUT
  5
763
102
{ACAD_REACTORS
330
1A
102
}
100
AcDbPlotSettings
  1

  2
none_device
  4

  6

 40
0.0
 41
0.0
 42
0.0
 43
0.0
 44
210.0
 45
297.0
 46
0.0
 47
0.0
 48
0.0
 49
0.0
140
0.0
141
0.0
142
1.0
143
1.0
 70
0
 72
1
 73
0
 74
0
  7

 75
0
147
1.0
148
0.0
149
0.0
100
AcDbLayout
  1
Layout1
 70
0
 71
1
 10
0.0
 20
0.0
 11
210.0
 21
297.0
 12
0.0
 22
0.0
 32
0.0
 14
0.0
 24
0.0
 34
0.0
 15
0.0
 25
0.0
 35
0.0
146
0.0
 13
0.0
 23
0.0
 33
0.0
 16
1.0
 26
0.0
 36
0.0
 17
0.0
 27
1.0
 37
0.0
 76
0
330
208
345
0
346
0
  0
TABLESTYLE
  5
764
102
{ACAD_REACTORS
330
761
330
47E
330
481
330
482
102
}
330
761
100
AcDbTableStyle
  3
Standard
 70
0
 71
0
 40
0.06
 41
0.06
280
1
281
1
  7
Standard
140
0.18
170
1
 62
0
 63
7
283
0
  7
Standard
140
0.18
170
1
 62
0
 63
7
283
0
  7
Standard
140
0.18
170
1
 62
0
 63
7
283
0
  0
TABLESTYLE
  5
765
102
{ACAD_REACTORS
330
761
330
47D
330
47F
330
480
102
}
330
761
100
AcDbTableStyle
  3
Standard1
 70
1
 71
0
 40
0.06
 41
0.06
280
1
281
1
  7
Standard
140
0.18
170
1
 62
0
 63
7
283
0
  7
Standard
140
0.18
170
1
 62
0
 63
7
283
0
  7
Standard
140
0.18
170
1
 62
0
 63
7
283
0
  0
ENDSEC
  0
EOF
